  0
SECTION
  2
HEADER
  9
$ACADVER
  1
AC1015
  9
$ACADMAINTVER
 70
    10
  9
$DWGCODEPAGE
  3
ANSI_1252
  9
$INSBASE
 10
0.0
 20
0.0
 30
0.0
  9
$EXTMIN
 10
3.0
 20
0.3176664473999999
 30
0.0
  9
$EXTMAX
 10
67.0410803182
 20
43.2347584853
 30
0.0
  9
$LIMMIN
 10
0.0
 20
0.0
  9
$LIMMAX
 10
0.0
 20
0.0
  9
$ORTHOMODE
 70
     0
  9
$REGENMODE
 70
     1
  9
$FILLMODE
 70
     1
  9
$QTEXTMODE
 70
     0
  9
$MIRRTEXT
 70
     1
  9
$LTSCALE
 40
1.0
  9
$ATTMODE
 70
     1
  9
$TEXTSIZE
 40
0.0
  9
$TRACEWID
 40
0.05
  9
$TEXTSTYLE
  7
Standard
  9
$CLAYER
  8
0
  9
$CELTYPE
  6
Continuous
  9
$CECOLOR
 62
   256
  9
$CELTSCALE
 40
1.0
  9
$DISPSILH
 70
     0
  9
$DIMSCALE
 40
1.0
  9
$DIMASZ
 40
0.0
  9
$DIMEXO
 40
0.0
  9
$DIMDLI
 40
0.38
  9
$DIMRND
 40
0.0
  9
$DIMDLE
 40
0.0
  9
$DIMEXE
 40
0.18
  9
$DIMTP
 40
0.0
  9
$DIMTM
 40
0.0
  9
$DIMTXT
 40
0.4
  9
$DIMCEN
 40
0.09
  9
$DIMTSZ
 40
0.0
  9
$DIMTOL
 70
     0
  9
$DIMLIM
 70
     0
  9
$DIMTIH
 70
     1
  9
$DIMTOH
 70
     1
  9
$DIMSE1
 70
     0
  9
$DIMSE2
 70
     0
  9
$DIMTAD
 70
     0
  9
$DIMZIN
 70
     0
  9
$DIMBLK
  1

  9
$DIMASO
 70
     1
  9
$DIMSHO
 70
     1
  9
$DIMPOST
  1

  9
$DIMAPOST
  1

  9
$DIMALT
 70
     0
  9
$DIMALTD
 70
     2
  9
$DIMALTF
 40
25.4
  9
$DIMLFAC
 40
1.0
  9
$DIMTOFL
 70
     0
  9
$DIMTVP
 40
0.0
  9
$DIMTIX
 70
     0
  9
$DIMSOXD
 70
     0
  9
$DIMSAH
 70
     0
  9
$DIMBLK1
  1

  9
$DIMBLK2
  1

  9
$DIMSTYLE
  2
Standard
  9
$DIMCLRD
 70
     0
  9
$DIMCLRE
 70
     0
  9
$DIMCLRT
 70
     0
  9
$DIMTFAC
 40
1.0
  9
$DIMGAP
 40
0.0
  9
$DIMJUST
 70
     0
  9
$DIMSD1
 70
     0
  9
$DIMSD2
 70
     0
  9
$DIMTOLJ
 70
     1
  9
$DIMTZIN
 70
     0
  9
$DIMALTZ
 70
     0
  9
$DIMALTTZ
 70
     0
  9
$DIMUPT
 70
     0
  9
$DIMDEC
 70
     4
  9
$DIMTDEC
 70
     4
  9
$DIMALTU
 70
     2
  9
$DIMALTTD
 70
     2
  9
$DIMTXSTY
  7
Standard
  9
$DIMAUNIT
 70
     0
  9
$DIMADEC
 70
     0
  9
$DIMALTRND
 40
0.0
  9
$DIMAZIN
 70
     0
  9
$DIMDSEP
 70
     0
  9
$DIMATFIT
 70
     3
  9
$DIMFRAC
 70
     0
  9
$DIMLDRBLK
  1

  9
$DIMLUNIT
 70
     2
  9
$DIMLWD
 70
     0
  9
$DIMLWE
 70
     0
  9
$DIMTMOVE
 70
     0
  9
$LUNITS
 70
     2
  9
$LUPREC
 70
     3
  9
$SKETCHINC
 40
0.1
  9
$FILLETRAD
 40
0.0
  9
$AUNITS
 70
     0
  9
$AUPREC
 70
     2
  9
$MENU
  1
acad
  9
$ELEVATION
 40
0.0
  9
$PELEVATION
 40
0.0
  9
$THICKNESS
 40
0.0
  9
$LIMCHECK
 70
     0
  9
$CHAMFERA
 40
0.0
  9
$CHAMFERB
 40
0.0
  9
$CHAMFERC
 40
0.0
  9
$CHAMFERD
 40
0.0
  9
$SKPOLY
 70
     0
  9
$TDCREATE
 40
2453398.542132338
  9
$TDUCREATE
 40
2453398.875465671
  9
$TDUPDATE
 40
2453398.542699467
  9
$TDUUPDATE
 40
2453398.876032800
  9
$TDINDWG
 40
0.0005711111
  9
$TDUSRTIMER
 40
0.0005711111
  9
$USRTIMER
 70
     1
  9
$ANGBASE
 50
0.0
  9
$ANGDIR
 70
     0
  9
$PDMODE
 70
     0
  9
$PDSIZE
 40
-1.0
  9
$PLINEWID
 40
0.0
  9
$SPLFRAME
 70
     0
  9
$SPLINETYPE
 70
     6
  9
$SPLINESEGS
 70
     8
  9
$HANDSEED
  5
136
  9
$SURFTAB1
 70
     6
  9
$SURFTAB2
 70
     6
  9
$SURFTYPE
 70
     6
  9
$SURFU
 70
     6
  9
$SURFV
 70
     6
  9
$UCSBASE
  2

  9
$UCSNAME
  2

  9
$UCSORG
 10
0.0
 20
0.0
 30
0.0
  9
$UCSXDIR
 10
1.0
 20
0.0
 30
0.0
  9
$UCSYDIR
 10
0.0
 20
1.0
 30
0.0
  9
$UCSORTHOREF
  2

  9
$UCSORTHOVIEW
 70
     0
  9
$UCSORGTOP
 10
0.0
 20
0.0
 30
0.0
  9
$UCSORGBOTTOM
 10
0.0
 20
0.0
 30
0.0
  9
$UCSORGLEFT
 10
0.0
 20
0.0
 30
0.0
  9
$UCSORGRIGHT
 10
0.0
 20
0.0
 30
0.0
  9
$UCSORGFRONT
 10
0.0
 20
0.0
 30
0.0
  9
$UCSORGBACK
 10
0.0
 20
0.0
 30
0.0
  9
$PUCSBASE
  2

  9
$PUCSNAME
  2

  9
$PUCSORG
 10
0.0
 20
0.0
 30
0.0
  9
$PUCSXDIR
 10
1.0
 20
0.0
 30
0.0
  9
$PUCSYDIR
 10
0.0
 20
1.0
 30
0.0
  9
$PUCSORTHOREF
  2

  9
$PUCSORTHOVIEW
 70
     0
  9
$PUCSORGTOP
 10
0.0
 20
0.0
 30
0.0
  9
$PUCSORGBOTTOM
 10
0.0
 20
0.0
 30
0.0
  9
$PUCSORGLEFT
 10
0.0
 20
0.0
 30
0.0
  9
$PUCSORGRIGHT
 10
0.0
 20
0.0
 30
0.0
  9
$PUCSORGFRONT
 10
0.0
 20
0.0
 30
0.0
  9
$PUCSORGBACK
 10
0.0
 20
0.0
 30
0.0
  9
$USERI1
 70
     0
  9
$USERI2
 70
     0
  9
$USERI3
 70
     0
  9
$USERI4
 70
     0
  9
$USERI5
 70
     0
  9
$USERR1
 40
0.0
  9
$USERR2
 40
0.0
  9
$USERR3
 40
0.0
  9
$USERR4
 40
0.0
  9
$USERR5
 40
0.0
  9
$WORLDVIEW
 70
     1
  9
$SHADEDGE
 70
     3
  9
$SHADEDIF
 70
    70
  9
$TILEMODE
 70
     1
  9
$MAXACTVP
 70
    16
  9
$PINSBASE
 10
0.0
 20
0.0
 30
0.0
  9
$PLIMCHECK
 70
     0
  9
$PEXTMIN
 10
1.000000000000000E+20
 20
1.000000000000000E+20
 30
1.000000000000000E+20
  9
$PEXTMAX
 10
-1.000000000000000E+20
 20
-1.000000000000000E+20
 30
-1.000000000000000E+20
  9
$PLIMMIN
 10
0.0
 20
0.0
  9
$PLIMMAX
 10
12.0
 20
9.0
  9
$UNITMODE
 70
     0
  9
$VISRETAIN
 70
     0
  9
$PLINEGEN
 70
     1
  9
$PSLTSCALE
 70
     1
  9
$TREEDEPTH
 70
  3020
  9
$CMLSTYLE
  2
Standard
  9
$CMLJUST
 70
     0
  9
$CMLSCALE
 40
1.0
  9
$PROXYGRAPHICS
 70
     0
  9
$MEASUREMENT
 70
     0
  9
$CELWEIGHT
370
     0
  9
$ENDCAPS
280
     0
  9
$JOINSTYLE
280
     0
  9
$LWDISPLAY
290
     1
  9
$INSUNITS
 70
     0
  9
$HYPERLINKBASE
  1

  9
$STYLESHEET
  1

  9
$XEDIT
290
     1
  9
$CEPSNTYPE
380
     0
  9
$PSTYLEMODE
290
     1
  9
$FINGERPRINTGUID
  2

  9
$VERSIONGUID
  2
{A7184200-EF30-46B1-AC4A-8A532733D894}
  9
$EXTNAMES
290
     1
  9
$PSVPSCALE
 40
0.0
  9
$OLESTARTUP
290
     0
  0
ENDSEC
  0
SECTION
  2
CLASSES
  0
CLASS
  1
LWPOLYLINE
  2
AcDbPolyline
  3
AutoCAD 2000
 90
    32768
280
     0
281
     1
  0
CLASS
  1
IMAGE
  2
AcDbRasterImage
  3
ISM
 90
    32895
280
     0
281
     1
  0
CLASS
  1
OLE2FRAME
  2
AcDbOle2Frame
  3
AutoCAD 2000
 90
    32768
280
     0
281
     1
  0
CLASS
  1
HATCH
  2
AcDbHatch
  3
AutoCAD 2000
 90
    32768
280
     0
281
     1
  0
CLASS
  1
DICTIONARYVAR
  2
AcDbDictionaryVar
  3
AutoCAD 2000
 90
    32768
280
     0
281
     0
  0
CLASS
  1
RASTERVARIABLES
  2
AcDbRasterVariables
  3
ISM
 90
    32768
280
     0
281
     0
  0
CLASS
  1
IMAGEDEF
  2
AcDbRasterImageDef
  3
ISM
 90
    32768
280
     0
281
     0
  0
CLASS
  1
IMAGEDEF_REACTOR
  2
AcDbRasterImageDefReactor
  3
ISM
 90
    32769
280
     0
281
     0
  0
CLASS
  1
IDBUFFER
  2
AcDbIdBuffer
  3
AutoCAD 2000
 90
    32768
280
     0
281
     0
  0
CLASS
  1
SPATIAL_FILTER
  2
AcDbSpatialFilter
  3
AutoCAD 2000
 90
    32768
280
     0
281
     0
  0
CLASS
  1
XRECORD
  2
AcDbXrecord
  3
AutoCAD 2000
 90
    32768
280
     0
281
     0
  0
CLASS
  1
SORTENTSTABLE
  2
AcDbSortentsTable
  3
AutoCAD 2000
 90
    32768
280
     0
281
     0
  0
CLASS
  1
LAYER_INDEX
  2
AcDbLayerIndex
  3
AutoCAD 2000
 90
    32768
280
     0
281
     0
  0
CLASS
  1
SPATIAL_INDEX
  2
AcDbSpatialIndex
  3
AutoCAD 2000
 90
    32768
280
     0
281
     0
  0
CLASS
  1
OBJECT_PTR
  2
CAseDLPNTableRecord
  3
"ASE-LPNTableRecord"
 90
    32769
280
     0
281
     0
  0
CLASS
  1
LAYOUT
  2
AcDbLayout
  3
AutoCAD 2000
 90
        0
280
     0
281
     0
  0
CLASS
  1
PLOTSETTINGS
  2
AcDbPlotSettings
  3
AutoCAD 2000
 90
    32768
280
     0
281
     0
  0
CLASS
  1
ACDBDICTIONARYWDFLT
  2
AcDbDictionaryWithDefault
  3
AutoCAD 2000
 90
        0
280
     0
281
     0
  0
CLASS
  1
ACDBPLACEHOLDER
  2
AcDbPlaceHolder
  3
AutoCAD 2000
 90
        0
280
     0
281
     0
  0
CLASS
  1
VBA_PROJECT
  2
AcDbVbaProject
  3
acadvba
 90
    32768
280
     0
281
     0
  0
CLASS
  1
WIPEOUT
  2
AcDbWipeout
  3
WipeOut|AutoCAD Express Tool|expresstools@autodesk.com
 90
    32895
280
     0
281
     1
  0
CLASS
  1
WIPEOUTVARIABLES
  2
AcDbWipeoutVariables
  3
WipeOut|AutoCAD Express Tool|expresstools@autodesk.com
 90
        0
280
     0
281
     0
  0
CLASS
  1
RTEXT
  2
RText
  3
RText|AutoCAD Express Tool|expresstools@autodesk.com
 90
    32768
280
     0
281
     1
  0
CLASS
  1
ARCALIGNEDTEXT
  2
AcDbArcAlignedText
  3
ATEXT|AutoCAD Express Tool|expresstools@autodesk.com
 90
    32768
280
     0
281
     1
  0
ENDSEC
  0
SECTION
  2
TABLES
  0
TABLE
  2
VPORT
  5
7
330
0
100
AcDbSymbolTable
 70
     5
  0
VPORT
  5
135
330
7
100
AcDbSymbolTableRecord
100
AcDbViewportTableRecord
  2
*Active
 70
     0
 10
0.0
 20
0.0
 11
1.0
 21
1.0
 12
32.30470953046992
 22
21.99999999999999
 13
0.0
 23
0.0
 14
1.0
 24
1.0
 15
0.0
 25
0.0
 16
0.0
 26
0.0
 36
1.0
 17
0.0
 27
0.0
 37
0.0
 40
43.99999998751272
 41
1.5
 42
50.0
 43
0.0
 44
0.0
 50
0.0
 51
0.0
 71
     0
 72
  2000
 73
     1
 74
     1
 75
     0
 76
     0
 77
     0
 78
     0
281
     0
 65
     0
110
0.0
120
0.0
130
0.0
111
1.0
121
0.0
131
0.0
112
0.0
122
1.0
132
0.0
 79
     0
146
0.0
  0
ENDTAB
  0
TABLE
  2
LTYPE
  5
4
330
0
100
AcDbSymbolTable
 70
     6
  0
LTYPE
  5
11
330
4
100
AcDbSymbolTableRecord
100
AcDbLinetypeTableRecord
  2
ByBlock
 70
     0
  3

 72
    65
 73
     0
 40
0.0
  0
LTYPE
  5
12
330
4
100
AcDbSymbolTableRecord
100
AcDbLinetypeTableRecord
  2
ByLayer
 70
     0
  3

 72
    65
 73
     0
 40
0.0
  0
LTYPE
  5
13
330
4
100
AcDbSymbolTableRecord
100
AcDbLinetypeTableRecord
  2
Continuous
 70
     0
  3
Solid line
 72
    65
 73
     0
 40
0.0
  0
LTYPE
  5
24
330
4
100
AcDbSymbolTableRecord
100
AcDbLinetypeTableRecord
  2
HIDDEN
 70
     0
  3
Hidden __ __ __ __ __ __ __ __ __ __ __ __ __ __
 72
    65
 73
     2
 40
0.075
 49
0.05
 74
     0
 49
-0.025
 74
     0
  0
LTYPE
  5
25
330
4
100
AcDbSymbolTableRecord
100
AcDbLinetypeTableRecord
  2
PHANTOM
 70
     0
  3
Phantom ______  __  __  ______  __  __  ______
 72
    65
 73
     6
 40
0.5
 49
0.25
 74
     0
 49
-0.05
 74
     0
 49
0.05
 74
     0
 49
-0.05
 74
     0
 49
0.05
 74
     0
 49
-0.05
 74
     0
  0
LTYPE
  5
26
330
4
100
AcDbSymbolTableRecord
100
AcDbLinetypeTableRecord
  2
CENTER
 70
     0
  3
Center ____ _ ____ _ ____ _ ____ _ ____ _ ____
 72
    65
 73
     4
 40
0.4
 49
0.25
 74
     0
 49
-0.05
 74
     0
 49
0.05
 74
     0
 49
-0.05
 74
     0
  0
LTYPE
  5
27
330
4
100
AcDbSymbolTableRecord
100
AcDbLinetypeTableRecord
  2
CENTERX2
 70
     0
  3
Center (2x) ________  __  ________  __  _____
 72
    65
 73
     4
 40
0.8
 49
0.5
 74
     0
 49
-0.1
 74
     0
 49
0.1
 74
     0
 49
-0.1
 74
     0
  0
LTYPE
  5
28
330
4
100
AcDbSymbolTableRecord
100
AcDbLinetypeTableRecord
  2
DOT2
 70
     0
  3
Dot (.5x) ........................................
 72
    65
 73
     2
 40
0.025
 49
0.0
 74
     0
 49
-0.025
 74
     0
  0
ENDTAB
  0
TABLE
  2
LAYER
  5
2
330
0
100
AcDbSymbolTable
 70
     1
  0
LAYER
  5
14
330
2
100
AcDbSymbolTableRecord
100
AcDbLayerTableRecord
  2
0
 70
     0
 62
     7
  6
Continuous
370
    -3
390
1D
  0
ENDTAB
  0
TABLE
  2
STYLE
  5
3
330
0
100
AcDbSymbolTable
 70
     2
  0
STYLE
  5
17
330
3
100
AcDbSymbolTableRecord
100
AcDbTextStyleTableRecord
  2
Standard
 70
     0
 40
0.0
 41
1.0
 50
0.0
 71
     0
 42
0.0
  3
txt
  4

  0
STYLE
  5
75
330
3
100
AcDbSymbolTableRecord
100
AcDbTextStyleTableRecord
  2
SLDTEXTSTYLE0
 70
     0
 40
0.0
 41
0.75
 50
0.0
 71
     0
 42
0.0
  3
txt
  4

  0
ENDTAB
  0
TABLE
  2
VIEW
  5
5
330
0
100
AcDbSymbolTable
 70
     0
  0
ENDTAB
  0
TABLE
  2
UCS
  5
6
330
0
100
AcDbSymbolTable
 70
     0
  0
ENDTAB
  0
TABLE
  2
APPID
  5
8
330
0
100
AcDbSymbolTable
 70
     1
  0
APPID
  5
16
330
8
100
AcDbSymbolTableRecord
100
AcDbRegAppTableRecord
  2
ACAD
 70
     0
  0
ENDTAB
  0
TABLE
  2
DIMSTYLE
  5
9
330
0
100
AcDbSymbolTable
 70
     3
100
AcDbDimStyleTable
 71
     1
340
18
  0
DIMSTYLE
105
18
330
9
100
AcDbSymbolTableRecord
100
AcDbDimStyleTableRecord
  2
Standard
 70
     0
340
17
  0
DIMSTYLE
105
CE
102
{ACAD_REACTORS
330
D2
330
DF
330
FE
330
10C
330
120
102
}
330
9
100
AcDbSymbolTableRecord
100
AcDbDimStyleTableRecord
  2
SLDDIMSTYLE0
 70
     0
 41
0.75
 44
0.48
 78
    12
140
0.4
147
0.1
173
     1
176
     1
177
     1
178
     1
271
     3
284
    12
340
17
  0
DIMSTYLE
105
EB
102
{ACAD_REACTORS
330
F1
102
}
330
9
100
AcDbSymbolTableRecord
100
AcDbDimStyleTableRecord
  2
SLDDIMSTYLE1
 70
     0
 41
0.75
 44
0.48
 78
    12
140
0.4
147
0.1
173
     1
176
     1
177
     1
178
     1
271
     0
284
    12
340
17
  0
ENDTAB
  0
TABLE
  2
BLOCK_RECORD
  5
1
330
0
100
AcDbSymbolTable
 70
     7
  0
BLOCK_RECORD
  5
A
330
1
100
AcDbSymbolTableRecord
100
AcDbBlockTableRecord
  2
*MODEL_SPACE
340
20
  0
BLOCK_RECORD
  5
B
330
1
100
AcDbSymbolTableRecord
100
AcDbBlockTableRecord
  2
*PAPER_SPACE
340
21
  0
BLOCK_RECORD
  5
A8
330
1
100
AcDbSymbolTableRecord
100
AcDbBlockTableRecord
  2
NOTE50
340
0
102
{BLKREFS
331
AE
102
}
  0
BLOCK_RECORD
  5
C5
330
1
100
AcDbSymbolTableRecord
100
AcDbBlockTableRecord
  2
*D1
340
0
  0
BLOCK_RECORD
  5
D3
330
1
100
AcDbSymbolTableRecord
100
AcDbBlockTableRecord
  2
*D2
340
0
  0
BLOCK_RECORD
  5
E0
330
1
100
AcDbSymbolTableRecord
100
AcDbBlockTableRecord
  2
*D3
340
0
  0
BLOCK_RECORD
  5
F2
330
1
100
AcDbSymbolTableRecord
100
AcDbBlockTableRecord
  2
*D4
340
0
  0
BLOCK_RECORD
  5
FF
330
1
100
AcDbSymbolTableRecord
100
AcDbBlockTableRecord
  2
*D5
340
0
  0
BLOCK_RECORD
  5
114
330
1
100
AcDbSymbolTableRecord
100
AcDbBlockTableRecord
  2
*D6
340
0
  0
ENDTAB
  0
ENDSEC
  0
SECTION
  2
BLOCKS
  0
BLOCK
  5
D
330
A
100
AcDbEntity
  8
0
100
AcDbBlockBegin
  2
*MODEL_SPACE
 70
     0
 10
0.0
 20
0.0
 30
0.0
  3
*MODEL_SPACE
  1

  0
ENDBLK
  5
E
330
A
100
AcDbEntity
  8
0
100
AcDbBlockEnd
  0
BLOCK
  5
F
330
B
100
AcDbEntity
 67
     1
  8
0
100
AcDbBlockBegin
  2
*PAPER_SPACE
 70
     0
 10
0.0
 20
0.0
 30
0.0
  3
*PAPER_SPACE
  1

  0
ENDBLK
  5
10
330
B
100
AcDbEntity
 67
     1
  8
0
100
AcDbBlockEnd
  0
BLOCK
  5
A9
330
A8
100
AcDbEntity
  8
0
 62
     0
100
AcDbBlockBegin
  2
NOTE50
 70
     0
 10
0.0
 20
0.0
 30
0.0
  3
NOTE50
  1

  0
MTEXT
  5
AA
330
A8
100
AcDbEntity
  8
0
 62
     7
100
AcDbMText
 10
0.0
 20
0.0
 30
0.0
 40
0.36
 41
0.0
 71
     1
 72
     1
  1
BREAK SHARP EDGES 0.010 RAD %%p 0.003
  7
SLDTEXTSTYLE0
 73
     1
 44
1.0
  0
MTEXT
  5
AB
330
A8
100
AcDbEntity
  8
0
 62
     7
100
AcDbMText
 10
0.0
 20
-0.5400000000000001
 30
0.0
 40
0.36
 41
0.0
 71
     1
 72
     1
  1
MACHINED SURF FINISH  
  7
SLDTEXTSTYLE0
 73
     1
 44
1.0
  0
MTEXT
  5
AC
330
A8
100
AcDbEntity
  8
0
 62
     7
100
AcDbMText
 10
5.543999999999999
 20
-0.5400000000000001
 30
0.0
 40
0.36
 41
0.0
 71
     1
 72
     1
  1
< 125 MICROINCH
  7
SLDTEXTSTYLE0
 73
     1
 44
1.0
  0
ENDBLK
  5
AD
330
A8
100
AcDbEntity
  8
0
100
AcDbBlockEnd
  0
BLOCK
  5
C6
330
C5
100
AcDbEntity
  8
0
 62
     1
100
AcDbBlockBegin
  2
*D1
 70
     1
 10
0.0
 20
0.0
 30
0.0
  3
*D1
  1

  0
MTEXT
  5
C7
330
C5
100
AcDbEntity
  8
0
100
AcDbMText
 10
28.0786911134
 20
37.8755841834
 30
0.0
 40
0.4
 41
0.0
 71
     7
 72
     1
  1
28 1/4"
  7
SLDTEXTSTYLE0
 73
     1
 44
1.0
  0
LINE
  5
C8
330
C5
100
AcDbEntity
  8
0
100
AcDbLine
 10
43.1240197926
 20
34.4490103676
 30
0.0
 11
43.1240197926
 21
38.5354283344
 31
0.0
  0
LINE
  5
C9
330
C5
100
AcDbEntity
  8
0
100
AcDbLine
 10
14.8740197926
 20
34.4490103676
 30
0.0
 11
14.8740197926
 21
38.5354283344
 31
0.0
  0
LINE
  5
CA
330
C5
100
AcDbEntity
  8
0
100
AcDbLine
 10
43.1240197926
 20
38.0554283344
 30
0.0
 11
30.1693484719
 21
38.0554283344
 31
0.0
  0
LINE
  5
CB
330
C5
100
AcDbEntity
  8
0
100
AcDbLine
 10
14.8740197926
 20
38.0554283344
 30
0.0
 11
27.8286911134
 21
38.0554283344
 31
0.0
  0
SOLID
  5
CC
330
C5
100
AcDbEntity
  8
0
100
AcDbTrace
 10
43.1240197926
 20
38.0554283344
 30
0.0
 11
42.3740197926
 21
38.18042833439999
 31
0.0
 12
42.3740197926
 22
37.93042833439999
 32
0.0
 13
42.3740197926
 23
37.93042833439999
 33
0.0
  0
SOLID
  5
CD
330
C5
100
AcDbEntity
  8
0
100
AcDbTrace
 10
14.8740197926
 20
38.0554283344
 30
0.0
 11
15.6240197926
 21
37.93042833439999
 31
0.0
 12
15.6240197926
 22
38.18042833439999
 32
0.0
 13
15.6240197926
 23
38.18042833439999
 33
0.0
  0
POINT
  5
CF
330
C5
100
AcDbEntity
  8
0
100
AcDbPoint
 10
43.1240197926
 20
34.2890103676
 30
0.0
  0
POINT
  5
D0
330
C5
100
AcDbEntity
  8
0
100
AcDbPoint
 10
14.8740197926
 20
34.2890103676
 30
0.0
  0
ENDBLK
  5
D1
330
C5
100
AcDbEntity
  8
0
 62
     1
100
AcDbBlockEnd
  0
BLOCK
  5
D4
330
D3
100
AcDbEntity
  8
0
 62
     1
100
AcDbBlockBegin
  2
*D2
 70
     1
 10
0.0
 20
0.0
 30
0.0
  3
*D2
  1

  0
MTEXT
  5
D5
330
D3
100
AcDbEntity
  8
0
100
AcDbMText
 10
9.593349984799999
 20
29.1091662166
 30
0.0
 40
0.4
 41
0.0
 71
     7
 72
     1
  1
10"
  7
SLDTEXTSTYLE0
 73
     1
 44
1.0
  0
LINE
  5
D6
330
D3
100
AcDbEntity
  8
0
100
AcDbLine
 10
14.7140197926
 20
34.2890103676
 30
0.0
 11
9.473563947
 21
34.2890103676
 31
0.0
  0
LINE
  5
D7
330
D3
100
AcDbEntity
  8
0
100
AcDbLine
 10
16.71401979259999
 20
24.2890103676
 30
0.0
 11
9.473563947
 21
24.2890103676
 31
0.0
  0
LINE
  5
D8
330
D3
100
AcDbEntity
  8
0
100
AcDbLine
 10
9.953563947000001
 20
34.2890103676
 30
0.0
 11
9.953563947000001
 21
29.6688545185
 31
0.0
  0
LINE
  5
D9
330
D3
100
AcDbEntity
  8
0
100
AcDbLine
 10
9.953563947000001
 20
24.2890103676
 30
0.0
 11
9.953563947000001
 21
28.9091662166
 31
0.0
  0
SOLID
  5
DA
330
D3
100
AcDbEntity
  8
0
100
AcDbTrace
 10
9.953563947000001
 20
34.2890103676
 30
0.0
 11
9.828563947000001
 21
33.53901036759999
 31
0.0
 12
10.078563947
 22
33.53901036759999
 32
0.0
 13
10.078563947
 23
33.53901036759999
 33
0.0
  0
SOLID
  5
DB
330
D3
100
AcDbEntity
  8
0
100
AcDbTrace
 10
9.953563947000001
 20
24.2890103676
 30
0.0
 11
10.078563947
 21
25.0390103676
 31
0.0
 12
9.828563947000001
 22
25.0390103676
 32
0.0
 13
9.828563947000001
 23
25.0390103676
 33
0.0
  0
POINT
  5
DC
330
D3
100
AcDbEntity
  8
0
100
AcDbPoint
 10
14.8740197926
 20
34.2890103676
 30
0.0
  0
POINT
  5
DD
330
D3
100
AcDbEntity
  8
0
100
AcDbPoint
 10
16.87401979259999
 20
24.2890103676
 30
0.0
  0
ENDBLK
  5
DE
330
D3
100
AcDbEntity
  8
0
 62
     1
100
AcDbBlockEnd
  0
BLOCK
  5
E1
330
E0
100
AcDbEntity
  8
0
 62
     1
100
AcDbBlockBegin
  2
*D3
 70
     1
 10
0.0
 20
0.0
 30
0.0
  3
*D3
  1

  0
MTEXT
  5
E2
330
E0
100
AcDbEntity
  8
0
 62
     7
100
AcDbMText
 10
48.9808351456
 20
27.5375710271
 30
0.0
 40
0.4
 41
0.0
 71
     7
 72
     1
  1
45%%d
  7
SLDTEXTSTYLE0
 73
     1
 44
1.0
  0
LINE
  5
E3
330
E0
100
AcDbEntity
  8
0
 62
     7
100
AcDbLine
 10
41.2840197926
 20
24.2890103676
 30
0.0
 11
50.5628733005
 21
24.2890103676
 31
0.0
  0
LINE
  5
E4
330
E0
100
AcDbEntity
  8
0
 62
     7
100
AcDbLine
 10
43.2371568776
 20
26.4021474526
 30
0.0
 11
47.7982971147
 21
30.9632876896
 31
0.0
  0
ARC
  5
E5
330
E0
100
AcDbEntity
  8
0
 62
     7
100
AcDbCircle
 10
49.4905234475
 20
27.717415178
 30
0.0
 40
0.8493573423999999
100
AcDbArc
 50
153.4349488229
 51
206.5650511771
  0
ARC
  5
E6
330
E0
100
AcDbEntity
  8
0
 62
     7
100
AcDbCircle
 10
49.31131891919999
 20
27.717415178
 30
0.0
 40
0.8493573423999999
100
AcDbArc
 50
333.4349488229
 51
26.5650511771
  0
ARC
  5
E7
330
E0
100
AcDbEntity
  8
0
 62
     7
100
AcDbCircle
 10
41.1240197926
 20
24.2890103676
 30
0.0
 40
8.958853507899998
100
AcDbArc
 50
0.0
 51
19.89421966839999
  0
ARC
  5
E8
330
E0
100
AcDbEntity
  8
0
 62
     7
100
AcDbCircle
 10
41.1240197926
 20
24.2890103676
 30
0.0
 40
8.958853507899998
100
AcDbArc
 50
25.1558651213
 51
45.0
  0
SOLID
  5
E9
330
E0
100
AcDbEntity
  8
0
 62
     7
100
AcDbTrace
 10
50.0828733005
 20
24.2890103676
 30
0.0
 11
50.1764529286
 21
25.0435750455
 31
0.0
 12
49.9266708909
 22
25.0331379153
 32
0.0
 13
49.9266708909
 23
25.0331379153
 33
0.0
  0
SOLID
  5
EA
330
E0
100
AcDbEntity
  8
0
 62
     7
100
AcDbTrace
 10
47.4588858597
 20
30.6238764346
 30
0.0
 11
47.8746117117
 21
29.9872470166
 31
0.0
 12
48.0586144499
 22
30.1564894236
 32
0.0
 13
48.0586144499
 23
30.1564894236
 33
0.0
  0
POINT
  5
EC
330
E0
100
AcDbEntity
  8
0
 62
     7
100
AcDbPoint
 10
16.87401979259999
 20
24.2890103676
 30
0.0
  0
POINT
  5
ED
330
E0
100
AcDbEntity
  8
0
 62
     7
100
AcDbPoint
 10
41.1240197926
 20
24.2890103676
 30
0.0
  0
POINT
  5
EE
330
E0
100
AcDbEntity
  8
0
 62
     7
100
AcDbPoint
 10
43.1240197926
 20
26.2890103676
 30
0.0
  0
POINT
  5
EF
330
E0
100
AcDbEntity
  8
0
 62
     7
100
AcDbPoint
 10
41.1240197926
 20
24.2890103676
 30
0.0
  0
ENDBLK
  5
F0
330
E0
100
AcDbEntity
  8
0
100
AcDbBlockEnd
  0
BLOCK
  5
F3
330
F2
100
AcDbEntity
  8
0
 62
     1
100
AcDbBlockBegin
  2
*D4
 70
     1
 10
0.0
 20
0.0
 30
0.0
  3
*D4
  1

  0
MTEXT
  5
F4
330
F2
100
AcDbEntity
  8
0
100
AcDbMText
 10
38.6179605852
 20
21.28581716579999
 30
0.0
 40
0.4
 41
0.0
 71
     7
 72
     1
  1
2"
  7
SLDTEXTSTYLE0
 73
     1
 44
1.0
  0
LINE
  5
F5
330
F2
100
AcDbEntity
  8
0
100
AcDbLine
 10
41.1240197926
 20
24.1290103676
 30
0.0
 11
41.1240197926
 21
20.9856613168
 31
0.0
  0
LINE
  5
F6
330
F2
100
AcDbEntity
  8
0
100
AcDbLine
 10
43.1240197926
 20
26.1290103676
 30
0.0
 11
43.1240197926
 21
20.9856613168
 31
0.0
  0
LINE
  5
F7
330
F2
100
AcDbEntity
  8
0
100
AcDbLine
 10
41.1240197926
 20
21.4656613168
 30
0.0
 11
39.3881605852
 21
21.4656613168
 31
0.0
  0
LINE
  5
F8
330
F2
100
AcDbEntity
  8
0
100
AcDbLine
 10
43.1240197926
 20
21.4656613168
 30
0.0
 11
41.1240197926
 21
21.4656613168
 31
0.0
  0
SOLID
  5
F9
330
F2
100
AcDbEntity
  8
0
100
AcDbTrace
 10
41.1240197926
 20
21.4656613168
 30
0.0
 11
41.8740197926
 21
21.3406613168
 31
0.0
 12
41.8740197926
 22
21.59066131679999
 32
0.0
 13
41.8740197926
 23
21.59066131679999
 33
0.0
  0
SOLID
  5
FA
330
F2
100
AcDbEntity
  8
0
100
AcDbTrace
 10
43.1240197926
 20
21.4656613168
 30
0.0
 11
42.3740197926
 21
21.59066131679999
 31
0.0
 12
42.3740197926
 22
21.3406613168
 32
0.0
 13
42.3740197926
 23
21.3406613168
 33
0.0
  0
POINT
  5
FB
330
F2
100
AcDbEntity
  8
0
100
AcDbPoint
 10
41.1240197926
 20
24.2890103676
 30
0.0
  0
POINT
  5
FC
330
F2
100
AcDbEntity
  8
0
100
AcDbPoint
 10
43.1240197926
 20
26.2890103676
 30
0.0
  0
ENDBLK
  5
FD
330
F2
100
AcDbEntity
  8
0
 62
     1
100
AcDbBlockEnd
  0
BLOCK
  5
100
330
FF
100
AcDbEntity
  8
0
 62
     1
100
AcDbBlockBegin
  2
*D5
 70
     1
 10
0.0
 20
0.0
 30
0.0
  3
*D5
  1

  0
MTEXT
  5
101
330
FF
100
AcDbEntity
  8
0
100
AcDbMText
 10
46.7027351002
 20
21.6686367102
 30
0.0
 40
0.4
 41
0.0
 71
     7
 72
     1
  1
2"
  7
SLDTEXTSTYLE0
 73
     1
 44
1.0
  0
LINE
  5
102
330
FF
100
AcDbEntity
  8
0
100
AcDbLine
 10
43.28401979259999
 20
26.2890103676
 30
0.0
 11
46.43273510020001
 21
26.2890103676
 31
0.0
  0
LINE
  5
103
330
FF
100
AcDbEntity
  8
0
100
AcDbLine
 10
41.2840197926
 20
24.2890103676
 30
0.0
 11
46.43273510020001
 21
24.2890103676
 31
0.0
  0
LINE
  5
104
330
FF
100
AcDbEntity
  8
0
100
AcDbLine
 10
46.45273510019999
 20
21.8484808611
 30
0.0
 11
45.9527351002
 21
21.8484808611
 31
0.0
  0
LINE
  5
105
330
FF
100
AcDbEntity
  8
0
100
AcDbLine
 10
45.9527351002
 20
21.8484808611
 30
0.0
 11
45.9527351002
 21
24.2890103676
 31
0.0
  0
LINE
  5
106
330
FF
100
AcDbEntity
  8
0
100
AcDbLine
 10
45.9527351002
 20
26.2890103676
 30
0.0
 11
45.9527351002
 21
24.2890103676
 31
0.0
  0
SOLID
  5
107
330
FF
100
AcDbEntity
  8
0
100
AcDbTrace
 10
45.9527351002
 20
26.2890103676
 30
0.0
 11
45.82773510019999
 21
25.5390103676
 31
0.0
 12
46.0777351002
 22
25.5390103676
 32
0.0
 13
46.0777351002
 23
25.5390103676
 33
0.0
  0
SOLID
  5
108
330
FF
100
AcDbEntity
  8
0
100
AcDbTrace
 10
45.9527351002
 20
24.2890103676
 30
0.0
 11
46.0777351002
 21
25.0390103676
 31
0.0
 12
45.82773510019999
 22
25.0390103676
 32
0.0
 13
45.82773510019999
 23
25.0390103676
 33
0.0
  0
POINT
  5
109
330
FF
100
AcDbEntity
  8
0
100
AcDbPoint
 10
43.1240197926
 20
26.2890103676
 30
0.0
  0
POINT
  5
10A
330
FF
100
AcDbEntity
  8
0
100
AcDbPoint
 10
41.1240197926
 20
24.2890103676
 30
0.0
  0
ENDBLK
  5
10B
330
FF
100
AcDbEntity
  8
0
 62
     1
100
AcDbBlockEnd
  0
BLOCK
  5
115
330
114
100
AcDbEntity
  8
0
 62
     1
100
AcDbBlockBegin
  2
*D6
 70
     1
 10
0.0
 20
0.0
 30
0.0
  3
*D6
  1

  0
MTEXT
  5
116
330
114
100
AcDbEntity
  8
0
100
AcDbMText
 10
59.46498284939999
 20
35.3054858376
 30
0.0
 40
0.4
 41
0.0
 71
     7
 72
     1
  1
3/8"
  7
SLDTEXTSTYLE0
 73
     1
 44
1.0
  0
LINE
  5
117
330
114
100
AcDbEntity
  8
0
100
AcDbLine
 10
57.0501311004
 20
34.4490103676
 30
0.0
 11
57.0501311004
 21
35.9653299885
 31
0.0
  0
LINE
  5
118
330
114
100
AcDbEntity
  8
0
100
AcDbLine
 10
57.4251311004
 20
34.4490103676
 30
0.0
 11
57.4251311004
 21
35.9653299885
 31
0.0
  0
LINE
  5
119
330
114
100
AcDbEntity
  8
0
100
AcDbLine
 10
57.0501311004
 20
35.48532998849999
 30
0.0
 11
55.0501311004
 21
35.48532998849999
 31
0.0
  0
LINE
  5
11A
330
114
100
AcDbEntity
  8
0
100
AcDbLine
 10
57.4251311004
 20
35.48532998849999
 30
0.0
 11
59.2149828494
 21
35.48532998849999
 31
0.0
  0
SOLID
  5
11B
330
114
100
AcDbEntity
  8
0
100
AcDbTrace
 10
57.0501311004
 20
35.48532998849999
 30
0.0
 11
56.3001311004
 21
35.6103299885
 31
0.0
 12
56.3001311004
 22
35.3603299885
 32
0.0
 13
56.3001311004
 23
35.3603299885
 33
0.0
  0
SOLID
  5
11C
330
114
100
AcDbEntity
  8
0
100
AcDbTrace
 10
57.4251311004
 20
35.48532998849999
 30
0.0
 11
58.1751311004
 21
35.3603299885
 31
0.0
 12
58.1751311004
 22
35.6103299885
 32
0.0
 13
58.1751311004
 23
35.6103299885
 33
0.0
  0
POINT
  5
11D
330
114
100
AcDbEntity
  8
0
100
AcDbPoint
 10
57.0501311004
 20
34.2890103676
 30
0.0
  0
POINT
  5
11E
330
114
100
AcDbEntity
  8
0
100
AcDbPoint
 10
57.4251311004
 20
34.2890103676
 30
0.0
  0
ENDBLK
  5
11F
330
114
100
AcDbEntity
  8
0
 62
     1
100
AcDbBlockEnd
  0
ENDSEC
  0
SECTION
  2
ENTITIES
  0
LINE
  5
2A
330
A
100
AcDbEntity
  8
0
  6
Continuous
 62
     7
370
     0
100
AcDbLine
 10
13.5
 20
42.5
 30
0.0
 11
6.0
 21
42.5
 31
0.0
  0
LINE
  5
2B
330
A
100
AcDbEntity
  8
0
  6
Continuous
 62
     7
370
     0
100
AcDbLine
 10
21.0
 20
42.5
 30
0.0
 11
13.5
 21
42.5
 31
0.0
  0
LINE
  5
2C
330
A
100
AcDbEntity
  8
0
  6
Continuous
 62
     7
370
     0
100
AcDbLine
 10
66.0
 20
1.5
 30
0.0
 11
58.5
 21
1.5
 31
0.0
  0
LINE
  5
2D
330
A
100
AcDbEntity
  8
0
  6
Continuous
 62
     7
370
     0
100
AcDbLine
 10
66.0
 20
1.5
 30
0.0
 11
66.0
 21
11.75
 31
0.0
  0
LINE
  5
2E
330
A
100
AcDbEntity
  8
0
  6
Continuous
 62
     7
370
     0
100
AcDbLine
 10
66.0
 20
32.25
 30
0.0
 11
66.5
 21
32.25
 31
0.0
  0
LINE
  5
2F
330
A
100
AcDbEntity
  8
0
  6
Continuous
 62
     7
370
     0
100
AcDbLine
 10
66.0
 20
22.0
 30
0.0
 11
66.5
 21
22.0
 31
0.0
  0
LINE
  5
30
330
A
100
AcDbEntity
  8
0
  6
Continuous
 62
     7
370
     0
100
AcDbLine
 10
28.5
 20
42.5
 30
0.0
 11
21.0
 21
42.5
 31
0.0
  0
LINE
  5
31
330
A
100
AcDbEntity
  8
0
  6
Continuous
 62
     7
370
     0
100
AcDbLine
 10
36.0
 20
42.5
 30
0.0
 11
28.5
 21
42.5
 31
0.0
  0
LINE
  5
32
330
A
100
AcDbEntity
  8
0
  6
Continuous
 62
     7
370
     0
100
AcDbLine
 10
43.5
 20
42.5
 30
0.0
 11
36.0
 21
42.5
 31
0.0
  0
LINE
  5
33
330
A
100
AcDbEntity
  8
0
  6
Continuous
 62
     7
370
     0
100
AcDbLine
 10
51.0
 20
42.5
 30
0.0
 11
43.5
 21
42.5
 31
0.0
  0
LINE
  5
34
330
A
100
AcDbEntity
  8
0
  6
Continuous
 62
     7
370
     0
100
AcDbLine
 10
58.5
 20
42.5
 30
0.0
 11
51.0
 21
42.5
 31
0.0
  0
LINE
  5
35
330
A
100
AcDbEntity
  8
0
  6
Continuous
 62
     7
370
     0
100
AcDbLine
 10
66.0
 20
11.75
 30
0.0
 11
66.5
 21
11.75
 31
0.0
  0
LINE
  5
36
330
A
100
AcDbEntity
  8
0
  6
Continuous
 62
     7
370
     0
100
AcDbLine
 10
66.0
 20
42.5
 30
0.0
 11
58.5
 21
42.5
 31
0.0
  0
LINE
  5
37
330
A
100
AcDbEntity
  8
0
  6
Continuous
 62
     7
370
     0
100
AcDbLine
 10
58.5
 20
42.5
 30
0.0
 11
58.5
 21
43.0
 31
0.0
  0
LINE
  5
38
330
A
100
AcDbEntity
  8
0
  6
Continuous
 62
     7
370
     0
100
AcDbLine
 10
51.0
 20
42.5
 30
0.0
 11
51.0
 21
43.0
 31
0.0
  0
LINE
  5
39
330
A
100
AcDbEntity
  8
0
  6
Continuous
 62
     7
370
     0
100
AcDbLine
 10
43.5
 20
42.5
 30
0.0
 11
43.5
 21
43.0
 31
0.0
  0
LINE
  5
3A
330
A
100
AcDbEntity
  8
0
  6
Continuous
 62
     7
370
     0
100
AcDbLine
 10
36.0
 20
42.5
 30
0.0
 11
36.0
 21
43.0
 31
0.0
  0
LINE
  5
3B
330
A
100
AcDbEntity
  8
0
  6
Continuous
 62
     7
370
     0
100
AcDbLine
 10
28.5
 20
42.5
 30
0.0
 11
28.5
 21
43.0
 31
0.0
  0
LINE
  5
3C
330
A
100
AcDbEntity
  8
0
  6
Continuous
 62
     7
370
     0
100
AcDbLine
 10
21.0
 20
42.5
 30
0.0
 11
21.0
 21
43.0
 31
0.0
  0
LINE
  5
3D
330
A
100
AcDbEntity
  8
0
  6
Continuous
 62
     7
370
     0
100
AcDbLine
 10
13.5
 20
42.5
 30
0.0
 11
13.5
 21
43.0
 31
0.0
  0
LINE
  5
3E
330
A
100
AcDbEntity
  8
0
  6
Continuous
 62
     7
370
     0
100
AcDbLine
 10
35.0
 20
6.759999999999999
 30
0.0
 11
35.0
 21
1.504
 31
0.0
  0
LINE
  5
3F
330
A
100
AcDbEntity
  8
0
  6
Continuous
 62
     7
370
     0
100
AcDbLine
 10
44.0
 20
9.5
 30
0.0
 11
66.0
 21
9.5
 31
0.0
  0
LINE
  5
40
330
A
100
AcDbEntity
  8
0
  6
Continuous
 62
     7
370
     0
100
AcDbLine
 10
44.0
 20
9.5
 30
0.0
 11
44.0
 21
1.5
 31
0.0
  0
LINE
  5
41
330
A
100
AcDbEntity
  8
0
  6
Continuous
 62
     7
370
     0
100
AcDbLine
 10
54.0
 20
9.5
 30
0.0
 11
54.0
 21
1.5
 31
0.0
  0
LINE
  5
42
330
A
100
AcDbEntity
  8
0
  6
Continuous
 62
     7
370
     0
100
AcDbLine
 10
54.0
 20
2.251999999999999
 30
0.0
 11
66.0
 21
2.251999999999999
 31
0.0
  0
LINE
  5
43
330
A
100
AcDbEntity
  8
0
  6
Continuous
 62
     7
370
     0
100
AcDbLine
 10
54.0
 20
3.751999999999999
 30
0.0
 11
66.0
 21
3.751999999999999
 31
0.0
  0
LINE
  5
44
330
A
100
AcDbEntity
  8
0
  6
Continuous
 62
     7
370
     0
100
AcDbLine
 10
54.0
 20
6.752
 30
0.0
 11
66.0
 21
6.752
 31
0.0
  0
LINE
  5
45
330
A
100
AcDbEntity
  8
0
  6
Continuous
 62
     7
370
     0
100
AcDbLine
 10
55.5
 20
3.751999999999999
 30
0.0
 11
55.5
 21
1.5
 31
0.0
  0
LINE
  5
46
330
A
100
AcDbEntity
  8
0
  6
Continuous
 62
     7
370
     0
100
AcDbLine
 10
35.0
 20
3.003999999999999
 30
0.0
 11
54.0
 21
3.003999999999999
 31
0.0
  0
LINE
  5
47
330
A
100
AcDbEntity
  8
0
  6
Continuous
 62
     7
370
     0
100
AcDbLine
 10
64.5
 20
3.751999999999999
 30
0.0
 11
64.5
 21
1.5
 31
0.0
  0
LINE
  5
48
330
A
100
AcDbEntity
  8
0
  6
Continuous
 62
     7
370
     0
100
AcDbLine
 10
54.0
 20
8.0
 30
0.0
 11
44.0
 21
8.0
 31
0.0
  0
LINE
  5
49
330
A
100
AcDbEntity
  8
0
  6
Continuous
 62
     7
370
     0
100
AcDbLine
 10
44.0
 20
4.748
 30
0.0
 11
54.0
 21
4.748
 31
0.0
  0
LINE
  5
4A
330
A
100
AcDbEntity
  8
0
  6
Continuous
 62
     7
370
     0
100
AcDbLine
 10
44.0
 20
2.251999999999999
 30
0.0
 11
54.0
 21
2.251999999999999
 31
0.0
  0
LINE
  5
4B
330
A
100
AcDbEntity
  8
0
  6
Continuous
 62
     7
370
     0
100
AcDbLine
 10
35.0
 20
5.256
 30
0.0
 11
44.0
 21
5.256
 31
0.0
  0
LINE
  5
4C
330
A
100
AcDbEntity
  8
0
  6
Continuous
 62
     7
370
     0
100
AcDbLine
 10
66.0
 20
11.75
 30
0.0
 11
66.0
 21
22.0
 31
0.0
  0
LINE
  5
4D
330
A
100
AcDbEntity
  8
0
  6
Continuous
 62
     7
370
     0
100
AcDbLine
 10
66.0
 20
22.0
 30
0.0
 11
66.0
 21
32.25
 31
0.0
  0
LINE
  5
4E
330
A
100
AcDbEntity
  8
0
  6
Continuous
 62
     7
370
     0
100
AcDbLine
 10
66.0
 20
32.25
 30
0.0
 11
66.0
 21
42.5
 31
0.0
  0
LINE
  5
4F
330
A
100
AcDbEntity
  8
0
  6
Continuous
 62
     7
370
     0
100
AcDbLine
 10
58.5
 20
1.5
 30
0.0
 11
51.0
 21
1.5
 31
0.0
  0
LINE
  5
50
330
A
100
AcDbEntity
  8
0
  6
Continuous
 62
     7
370
     0
100
AcDbLine
 10
51.0
 20
1.5
 30
0.0
 11
43.5
 21
1.5
 31
0.0
  0
LINE
  5
51
330
A
100
AcDbEntity
  8
0
  6
Continuous
 62
     7
370
     0
100
AcDbLine
 10
35.0
 20
6.007999999999999
 30
0.0
 11
44.0
 21
6.007999999999999
 31
0.0
  0
LINE
  5
52
330
A
100
AcDbEntity
  8
0
  6
Continuous
 62
     7
370
     0
100
AcDbLine
 10
35.0
 20
3.75
 30
0.0
 11
20.0
 21
3.75
 31
0.0
  0
LINE
  5
53
330
A
100
AcDbEntity
  8
0
  6
Continuous
 62
     7
370
     0
100
AcDbLine
 10
44.0
 20
6.759999999999999
 30
0.0
 11
35.0
 21
6.759999999999999
 31
0.0
  0
LINE
  5
54
330
A
100
AcDbEntity
  8
0
  6
Continuous
 62
     7
370
     0
100
AcDbLine
 10
41.0
 20
6.759999999999999
 30
0.0
 11
41.0
 21
4.503999999999999
 31
0.0
  0
LINE
  5
55
330
A
100
AcDbEntity
  8
0
  6
Continuous
 62
     7
370
     0
100
AcDbLine
 10
44.0
 20
7.247999999999999
 30
0.0
 11
54.0
 21
7.247999999999999
 31
0.0
  0
LINE
  5
56
330
A
100
AcDbEntity
  8
0
  6
Continuous
 62
     7
370
     0
100
AcDbLine
 10
35.0
 20
4.503999999999999
 30
0.0
 11
44.0
 21
4.503999999999999
 31
0.0
  0
LINE
  5
57
330
A
100
AcDbEntity
  8
0
  6
Continuous
 62
     7
370
     0
100
AcDbLine
 10
49.0
 20
8.0
 30
0.0
 11
49.0
 21
4.748
 31
0.0
  0
LINE
  5
58
330
A
100
AcDbEntity
  8
0
  6
Continuous
 62
     7
370
     0
100
AcDbLine
 10
43.5
 20
1.5
 30
0.0
 11
36.0
 21
1.5
 31
0.0
  0
LINE
  5
59
330
A
100
AcDbEntity
  8
0
  6
Continuous
 62
     7
370
     0
100
AcDbLine
 10
36.0
 20
1.5
 30
0.0
 11
28.5
 21
1.5
 31
0.0
  0
LINE
  5
5A
330
A
100
AcDbEntity
  8
0
  6
Continuous
 62
     7
370
     0
100
AcDbLine
 10
28.5
 20
1.5
 30
0.0
 11
21.0
 21
1.5
 31
0.0
  0
LINE
  5
5B
330
A
100
AcDbEntity
  8
0
  6
Continuous
 62
     7
370
     0
100
AcDbLine
 10
21.0
 20
1.5
 30
0.0
 11
13.5
 21
1.5
 31
0.0
  0
LINE
  5
5C
330
A
100
AcDbEntity
  8
0
  6
Continuous
 62
     7
370
     0
100
AcDbLine
 10
51.5
 20
8.0
 30
0.0
 11
51.5
 21
4.748
 31
0.0
  0
LINE
  5
5D
330
A
100
AcDbEntity
  8
0
  6
Continuous
 62
     7
370
     0
100
AcDbLine
 10
13.5
 20
1.5
 30
0.0
 11
6.0
 21
1.5
 31
0.0
  0
LINE
  5
5E
330
A
100
AcDbEntity
  8
0
  6
Continuous
 62
     7
370
     0
100
AcDbLine
 10
3.0
 20
42.5
 30
0.0
 11
3.0
 21
1.5
 31
0.0
  0
LINE
  5
5F
330
A
100
AcDbEntity
  8
0
  6
Continuous
 62
     7
370
     0
100
AcDbLine
 10
6.0
 20
11.75
 30
0.0
 11
6.0
 21
22.0
 31
0.0
  0
LINE
  5
60
330
A
100
AcDbEntity
  8
0
  6
Continuous
 62
     7
370
     0
100
AcDbLine
 10
6.0
 20
22.0
 30
0.0
 11
6.0
 21
32.25
 31
0.0
  0
LINE
  5
61
330
A
100
AcDbEntity
  8
0
  6
Continuous
 62
     7
370
     0
100
AcDbLine
 10
6.0
 20
32.25
 30
0.0
 11
6.0
 21
42.5
 31
0.0
  0
LINE
  5
62
330
A
100
AcDbEntity
  8
0
  6
Continuous
 62
     7
370
     0
100
AcDbLine
 10
6.0
 20
32.25
 30
0.0
 11
5.5
 21
32.25
 31
0.0
  0
LINE
  5
63
330
A
100
AcDbEntity
  8
0
  6
Continuous
 62
     7
370
     0
100
AcDbLine
 10
58.5
 20
1.5
 30
0.0
 11
58.5
 21
1.0
 31
0.0
  0
LINE
  5
64
330
A
100
AcDbEntity
  8
0
  6
Continuous
 62
     7
370
     0
100
AcDbLine
 10
51.0
 20
1.5
 30
0.0
 11
51.0
 21
1.0
 31
0.0
  0
LINE
  5
65
330
A
100
AcDbEntity
  8
0
  6
Continuous
 62
     7
370
     0
100
AcDbLine
 10
43.5
 20
1.5
 30
0.0
 11
43.5
 21
1.0
 31
0.0
  0
LINE
  5
66
330
A
100
AcDbEntity
  8
0
  6
CENTERX2
 62
     7
370
     0
100
AcDbLine
 10
36.0
 20
1.5
 30
0.0
 11
36.0
 21
1.0
 31
0.0
  0
LINE
  5
67
330
A
100
AcDbEntity
  8
0
  6
Continuous
 62
     7
370
     0
100
AcDbLine
 10
28.5
 20
1.5
 30
0.0
 11
28.5
 21
1.0
 31
0.0
  0
LINE
  5
68
330
A
100
AcDbEntity
  8
0
  6
Continuous
 62
     7
370
     0
100
AcDbLine
 10
21.0
 20
1.5
 30
0.0
 11
21.0
 21
1.0
 31
0.0
  0
LINE
  5
69
330
A
100
AcDbEntity
  8
0
  6
Continuous
 62
     7
370
     0
100
AcDbLine
 10
13.5
 20
1.5
 30
0.0
 11
13.5
 21
1.0
 31
0.0
  0
LINE
  5
6A
330
A
100
AcDbEntity
  8
0
  6
Continuous
 62
     7
370
     0
100
AcDbLine
 10
6.0
 20
22.0
 30
0.0
 11
5.5
 21
22.0
 31
0.0
  0
LINE
  5
6B
330
A
100
AcDbEntity
  8
0
  6
Continuous
 62
     7
370
     0
100
AcDbLine
 10
6.0
 20
11.75
 30
0.0
 11
5.5
 21
11.75
 31
0.0
  0
LINE
  5
6C
330
A
100
AcDbEntity
  8
0
  6
Continuous
 62
     7
370
     0
100
AcDbLine
 10
6.0
 20
1.5
 30
0.0
 11
6.0
 21
11.75
 31
0.0
  0
LINE
  5
6D
330
A
100
AcDbEntity
  8
0
  6
Continuous
 62
     7
370
     0
100
AcDbLine
 10
20.0
 20
3.75
 30
0.0
 11
20.0
 21
1.5
 31
0.0
  0
LINE
  5
6E
330
A
100
AcDbEntity
  8
0
  6
Continuous
 62
     7
370
     0
100
AcDbLine
 10
66.0
 20
41.748
 30
0.0
 11
50.0
 21
41.748
 31
0.0
  0
LINE
  5
6F
330
A
100
AcDbEntity
  8
0
  6
Continuous
 62
     7
370
     0
100
AcDbLine
 10
66.0
 20
40.996
 30
0.0
 11
50.0
 21
40.996
 31
0.0
  0
LINE
  5
70
330
A
100
AcDbEntity
  8
0
  6
Continuous
 62
     7
370
     0
100
AcDbLine
 10
66.0
 20
40.24399999999999
 30
0.0
 11
50.0
 21
40.24399999999999
 31
0.0
  0
LINE
  5
71
330
A
100
AcDbEntity
  8
0
  6
Continuous
 62
     7
370
     0
100
AcDbLine
 10
50.0
 20
42.5
 30
0.0
 11
50.0
 21
40.24399999999999
 31
0.0
  0
LINE
  5
72
330
A
100
AcDbEntity
  8
0
  6
Continuous
 62
     7
370
     0
100
AcDbLine
 10
51.5
 20
41.748
 30
0.0
 11
51.5
 21
40.24399999999999
 31
0.0
  0
LINE
  5
73
330
A
100
AcDbEntity
  8
0
  6
Continuous
 62
     7
370
     0
100
AcDbLine
 10
63.0
 20
41.748
 30
0.0
 11
63.0
 21
40.24399999999999
 31
0.0
  0
LINE
  5
74
330
A
100
AcDbEntity
  8
0
  6
Continuous
 62
     7
370
     0
100
AcDbLine
 10
60.5
 20
41.748
 30
0.0
 11
60.5
 21
40.24399999999999
 31
0.0
  0
MTEXT
  5
76
330
A
100
AcDbEntity
  8
0
 62
     1
100
AcDbMText
 10
36.02018691454407
 20
3.684952938088255
 30
0.0
 40
0.4
 41
0.0
 71
     1
 72
     1
  1
STEEL A-36, 3/8" THICK 
  7
SLDTEXTSTYLE0
 73
     1
 44
1.0
  0
MTEXT
  5
77
330
A
100
AcDbEntity
  8
0
 62
     1
100
AcDbMText
 10
46.4594334728661
 20
2.826115377272906
 30
0.0
 40
0.4
 41
0.0
 71
     1
 72
     1
  1
29.6 lbs
  7
SLDTEXTSTYLE0
 73
     1
 44
1.0
  0
MTEXT
  5
78
330
A
100
AcDbEntity
  8
0
 62
     1
100
AcDbMText
 10
60.28747367482075
 20
12.48364945551212
 30
0.0
 40
0.6666666667
 41
0.0
 71
     2
 72
     1
  1
2 REQUIRED\PPER ASSEM
  7
SLDTEXTSTYLE0
 73
     1
 44
1.0
  0
MTEXT
  5
79
330
A
100
AcDbEntity
  8
0
 62
     7
100
AcDbMText
 10
66.8535803182
 20
36.3546511702
 30
0.0
 40
0.375
 41
0.0
 71
     1
 72
     1
  1
D
  7
SLDTEXTSTYLE0
 73
     1
 44
1.0
  0
MTEXT
  5
7A
330
A
100
AcDbEntity
  8
0
 62
     7
100
AcDbMText
 10
66.7804233988
 20
26.184845899
 30
0.0
 40
0.375
 41
0.0
 71
     1
 72
     1
  1
C
  7
SLDTEXTSTYLE0
 73
     1
 44
1.0
  0
MTEXT
  5
7B
330
A
100
AcDbEntity
  8
0
 62
     7
100
AcDbMText
 10
66.8244832006
 20
16.8752606386
 30
0.0
 40
0.375
 41
0.0
 71
     1
 72
     1
  1
B
  7
SLDTEXTSTYLE0
 73
     1
 44
1.0
  0
MTEXT
  5
7C
330
A
100
AcDbEntity
  8
0
 62
     7
100
AcDbMText
 10
66.82220664039999
 20
6.855072833099999
 30
0.0
 40
0.375
 41
0.0
 71
     1
 72
     1
  1
A
  7
SLDTEXTSTYLE0
 73
     1
 44
1.0
  0
MTEXT
  5
7D
330
A
100
AcDbEntity
  8
0
 62
     7
100
AcDbMText
 10
3.8574103947
 20
6.773657474199999
 30
0.0
 40
0.375
 41
0.0
 71
     1
 72
     1
  1
A
  7
SLDTEXTSTYLE0
 73
     1
 44
1.0
  0
MTEXT
  5
7E
330
A
100
AcDbEntity
  8
0
 62
     7
100
AcDbMText
 10
3.8446380257
 20
17.1111811225
 30
0.0
 40
0.375
 41
0.0
 71
     1
 72
     1
  1
B
  7
SLDTEXTSTYLE0
 73
     1
 44
1.0
  0
MTEXT
  5
7F
330
A
100
AcDbEntity
  8
0
 62
     7
100
AcDbMText
 10
3.7953116217
 20
27.4969600264
 30
0.0
 40
0.375
 41
0.0
 71
     1
 72
     1
  1
C
  7
SLDTEXTSTYLE0
 73
     1
 44
1.0
  0
MTEXT
  5
80
330
A
100
AcDbEntity
  8
0
 62
     7
100
AcDbMText
 10
3.7821958485
 20
37.2258735343
 30
0.0
 40
0.375
 41
0.0
 71
     1
 72
     1
  1
D
  7
SLDTEXTSTYLE0
 73
     1
 44
1.0
  0
MTEXT
  5
81
330
A
100
AcDbEntity
  8
0
 62
     7
100
AcDbMText
 10
64.7432232461
 20
2.0787142358
 30
0.0
 40
0.36
 41
0.0
 71
     1
 72
     1
  1
REV.
  7
SLDTEXTSTYLE0
 73
     1
 44
1.0
  0
MTEXT
  5
82
330
A
100
AcDbEntity
  8
0
 62
     7
100
AcDbMText
 10
49.3963080474
 20
7.034763897799999
 30
0.0
 40
0.36
 41
0.0
 71
     1
 72
     1
  1
%%p\P%%p\P%%p\P%%p
  7
SLDTEXTSTYLE0
 73
     1
 44
1.0
  0
MTEXT
  5
83
330
A
100
AcDbEntity
  8
0
 62
     7
100
AcDbMText
 10
35.2477660994
 20
4.3899383999
 30
0.0
 40
0.36
 41
0.0
 71
     1
 72
     1
  1
MATERIAL
  7
SLDTEXTSTYLE0
 73
     1
 44
1.0
  0
MTEXT
  5
84
330
A
100
AcDbEntity
  8
0
 62
     7
100
AcDbMText
 10
35.23861362579999
 20
2.9266952275
 30
0.0
 40
0.36
 41
0.0
 71
     1
 72
     1
  1
FINISH
  7
SLDTEXTSTYLE0
 73
     1
 44
1.0
  0
MTEXT
  5
85
330
A
100
AcDbEntity
  8
0
 62
     7
100
AcDbMText
 10
63.2017320133
 20
1.287073523899999
 30
0.0
 40
0.375
 41
0.0
 71
     1
 72
     1
  1
1
  7
SLDTEXTSTYLE0
 73
     1
 44
1.0
  0
MTEXT
  5
86
330
A
100
AcDbEntity
  8
0
 62
     7
100
AcDbMText
 10
54.37754501609999
 20
1.3260431792
 30
0.0
 40
0.375
 41
0.0
 71
     1
 72
     1
  1
2
  7
SLDTEXTSTYLE0
 73
     1
 44
1.0
  0
MTEXT
  5
87
330
A
100
AcDbEntity
  8
0
 62
     7
100
AcDbMText
 10
46.14508672369999
 20
1.3390330643
 30
0.0
 40
0.375
 41
0.0
 71
     1
 72
     1
  1
3
  7
SLDTEXTSTYLE0
 73
     1
 44
1.0
  0
MTEXT
  5
88
330
A
100
AcDbEntity
  8
0
 62
     7
100
AcDbMText
 10
38.7267103229
 20
1.346979509399999
 30
0.0
 40
0.375
 41
0.0
 71
     1
 72
     1
  1
4
  7
SLDTEXTSTYLE0
 73
     1
 44
1.0
  0
MTEXT
  5
89
330
A
100
AcDbEntity
  8
0
 62
     7
100
AcDbMText
 10
30.92505867409999
 20
1.359969394499999
 30
0.0
 40
0.375
 41
0.0
 71
     1
 72
     1
  1
5
  7
SLDTEXTSTYLE0
 73
     1
 44
1.0
  0
MTEXT
  5
8A
330
A
100
AcDbEntity
  8
0
 62
     7
100
AcDbMText
 10
23.6408619944
 20
1.295019968899999
 30
0.0
 40
0.375
 41
0.0
 71
     1
 72
     1
  1
6
  7
SLDTEXTSTYLE0
 73
     1
 44
1.0
  0
MTEXT
  5
8B
330
A
100
AcDbEntity
  8
0
 62
     7
100
AcDbMText
 10
15.7209235146
 20
1.3520229494
 30
0.0
 40
0.375
 41
0.0
 71
     1
 72
     1
  1
7
  7
SLDTEXTSTYLE0
 73
     1
 44
1.0
  0
MTEXT
  5
8C
330
A
100
AcDbEntity
  8
0
 62
     7
100
AcDbMText
 10
8.592605456199999
 20
1.359969394499999
 30
0.0
 40
0.375
 41
0.0
 71
     1
 72
     1
  1
8
  7
SLDTEXTSTYLE0
 73
     1
 44
1.0
  0
MTEXT
  5
8D
330
A
100
AcDbEntity
  8
0
 62
     7
100
AcDbMText
 10
8.4691158123
 20
43.2347584853
 30
0.0
 40
0.375
 41
0.0
 71
     1
 72
     1
  1
8
  7
SLDTEXTSTYLE0
 73
     1
 44
1.0
  0
MTEXT
  5
8E
330
A
100
AcDbEntity
  8
0
 62
     7
100
AcDbMText
 10
16.281827991
 20
43.145609375
 30
0.0
 40
0.375
 41
0.0
 71
     1
 72
     1
  1
7
  7
SLDTEXTSTYLE0
 73
     1
 44
1.0
  0
MTEXT
  5
8F
330
A
100
AcDbEntity
  8
0
 62
     7
100
AcDbMText
 10
23.80685895889999
 20
43.11947482639999
 30
0.0
 40
0.375
 41
0.0
 71
     1
 72
     1
  1
6
  7
SLDTEXTSTYLE0
 73
     1
 44
1.0
  0
MTEXT
  5
90
330
A
100
AcDbEntity
  8
0
 62
     7
100
AcDbMText
 10
31.6247767236
 20
43.0720435981
 30
0.0
 40
0.375
 41
0.0
 71
     1
 72
     1
  1
5
  7
SLDTEXTSTYLE0
 73
     1
 44
1.0
  0
MTEXT
  5
91
330
A
100
AcDbEntity
  8
0
 62
     7
100
AcDbMText
 10
39.3952632601
 20
43.1873272569
 30
0.0
 40
0.375
 41
0.0
 71
     1
 72
     1
  1
4
  7
SLDTEXTSTYLE0
 73
     1
 44
1.0
  0
MTEXT
  5
92
330
A
100
AcDbEntity
  8
0
 62
     7
100
AcDbMText
 10
47.2052089631
 20
43.10458657549999
 30
0.0
 40
0.375
 41
0.0
 71
     1
 72
     1
  1
3
  7
SLDTEXTSTYLE0
 73
     1
 44
1.0
  0
MTEXT
  5
93
330
A
100
AcDbEntity
  8
0
 62
     7
100
AcDbMText
 10
54.68419194049999
 20
43.1534010417
 30
0.0
 40
0.375
 41
0.0
 71
     1
 72
     1
  1
2
  7
SLDTEXTSTYLE0
 73
     1
 44
1.0
  0
MTEXT
  5
94
330
A
100
AcDbEntity
  8
0
 62
     7
100
AcDbMText
 10
62.6675910681
 20
43.0869318489
 30
0.0
 40
0.375
 41
0.0
 71
     1
 72
     1
  1
1
  7
SLDTEXTSTYLE0
 73
     1
 44
1.0
  0
MTEXT
  5
95
330
A
100
AcDbEntity
  8
0
 62
     7
100
AcDbMText
 10
54.6217360465
 20
9.2028695439
 30
0.0
 40
0.6666666667
 41
0.0
 71
     1
 72
     1
  1
RADIO  ASTRONOMY  LAB
  7
SLDTEXTSTYLE0
 73
     1
 44
1.0
  0
MTEXT
  5
96
330
A
100
AcDbEntity
  8
0
 62
     7
100
AcDbMText
 10
60.0910315019
 20
8.0781964362
 30
0.0
 40
0.4
 41
0.0
 71
     2
 72
     1
  1
University of California - Berkeley\PTel: 510-642-5040    Fax: 510-642-3411
  7
SLDTEXTSTYLE0
 73
     1
 44
1.0
  0
MTEXT
  5
97
330
A
100
AcDbEntity
  8
0
 62
     7
100
AcDbMText
 10
37.5359397626
 20
6.5510375446
 30
0.0
 40
0.36
 41
0.0
 71
     1
 72
     1
  1
NAME
  7
SLDTEXTSTYLE0
 73
     1
 44
1.0
  0
MTEXT
  5
98
330
A
100
AcDbEntity
  8
0
 62
     7
100
AcDbMText
 10
41.96775689419999
 20
6.533313707999999
 30
0.0
 40
0.36
 41
0.0
 71
     1
 72
     1
  1
DATE
  7
SLDTEXTSTYLE0
 73
     1
 44
1.0
  0
MTEXT
  5
99
330
A
100
AcDbEntity
  8
0
 62
     7
100
AcDbMText
 10
54.3173217296
 20
2.096611452799999
 30
0.0
 40
0.36
 41
0.0
 71
     1
 72
     1
  1
SIZE
  7
SLDTEXTSTYLE0
 73
     1
 44
1.0
  0
MTEXT
  5
9A
330
A
100
AcDbEntity
  8
0
 62
     7
100
AcDbMText
 10
54.53799952229999
 20
3.376527868999999
 30
0.0
 40
0.75
 41
0.0
 71
     1
 72
     1
  1
B
  7
SLDTEXTSTYLE0
 73
     1
 44
1.0
  0
MTEXT
  5
9B
330
A
100
AcDbEntity
  8
0
 62
     7
100
AcDbMText
 10
44.31685140449999
 20
2.0514646827
 30
0.0
 40
0.36
 41
0.0
 71
     1
 72
     1
  1
SCALE:
  7
SLDTEXTSTYLE0
 73
     1
 44
1.0
  0
MTEXT
  5
9C
330
A
100
AcDbEntity
  8
0
 62
     7
100
AcDbMText
 10
55.69756231220001
 20
2.080001124799999
 30
0.0
 40
0.36
 41
0.0
 71
     1
 72
     1
  1
DWG NUM:      SHEET             OF
  7
SLDTEXTSTYLE0
 73
     1
 44
1.0
  0
MTEXT
  5
9D
330
A
100
AcDbEntity
  8
0
 62
     7
100
AcDbMText
 10
63.9951259177
 20
41.5412107411
 30
0.0
 40
0.36
 41
0.0
 71
     1
 72
     1
  1
DATE
  7
SLDTEXTSTYLE0
 73
     1
 44
1.0
  0
MTEXT
  5
9E
330
A
100
AcDbEntity
  8
0
 62
     7
100
AcDbMText
 10
61.20995431709999
 20
41.53949824139999
 30
0.0
 40
0.36
 41
0.0
 71
     1
 72
     1
  1
NAME
  7
SLDTEXTSTYLE0
 73
     1
 44
1.0
  0
MTEXT
  5
9F
330
A
100
AcDbEntity
  8
0
 62
     7
100
AcDbMText
 10
56.132295403
 20
42.2878586827
 30
0.0
 40
0.36
 41
0.0
 71
     1
 72
     1
  1
REVISIONS
  7
SLDTEXTSTYLE0
 73
     1
 44
1.0
  0
MTEXT
  5
A0
330
A
100
AcDbEntity
  8
0
 62
     7
100
AcDbMText
 10
50.3287943475
 20
41.533732966
 30
0.0
 40
0.36
 41
0.0
 71
     1
 72
     1
  1
REV
  7
SLDTEXTSTYLE0
 73
     1
 44
1.0
  0
MTEXT
  5
A1
330
A
100
AcDbEntity
  8
0
 62
     7
100
AcDbMText
 10
51.8498227663
 20
41.531562701
 30
0.0
 40
0.36
 41
0.0
 71
     1
 72
     1
  1
DESCRIPTION
  7
SLDTEXTSTYLE0
 73
     1
 44
1.0
  0
MTEXT
  5
A2
330
A
100
AcDbEntity
  8
0
 62
     7
100
AcDbMText
 10
44.296078711
 20
2.7937832593
 30
0.0
 40
0.36
 41
0.0
 71
     1
 72
     1
  1
WEIGHT:
  7
SLDTEXTSTYLE0
 73
     1
 44
1.0
  0
MTEXT
  5
A3
330
A
100
AcDbEntity
  8
0
 62
     7
100
AcDbMText
 10
35.2430564705
 20
5.7901778525
 30
0.0
 40
0.36
 41
0.0
 71
     1
 72
     1
  1
DRAWN
  7
SLDTEXTSTYLE0
 73
     1
 44
1.0
  0
MTEXT
  5
A4
330
A
100
AcDbEntity
  8
0
 62
     7
100
AcDbMText
 10
35.2421468027
 20
5.0453216955
 30
0.0
 40
0.36
 41
0.0
 71
     1
 72
     1
  1
CHECKED
  7
SLDTEXTSTYLE0
 73
     1
 44
1.0
  0
MTEXT
  5
A5
330
A
100
AcDbEntity
  8
0
 62
     7
100
AcDbMText
 10
48.6611171697
 20
7.015682038799999
 30
0.0
 40
0.36
 41
0.0
 71
     3
 72
     1
  1
WHOLE & FRACTION\PDECIMAL   X.X\PDECIMAL   X.XX\PDECIMAL   X.XXX
  7
SLDTEXTSTYLE0
 73
     1
 44
1.0
  0
MTEXT
  5
A6
330
A
100
AcDbEntity
  8
0
 62
     7
100
AcDbMText
 10
50.3491902811
 20
7.858944104299999
 30
0.0
 40
0.36
 41
0.0
 71
     2
 72
     1
  1
LINEAR
  7
SLDTEXTSTYLE0
 73
     1
 44
1.0
  0
MTEXT
  5
A7
330
A
100
AcDbEntity
  8
0
 62
     7
100
AcDbMText
 10
52.6712182055
 20
7.8830150626
 30
0.0
 40
0.36
 41
0.0
 71
     2
 72
     1
  1
ANGLE
  7
SLDTEXTSTYLE0
 73
     1
 44
1.0
  0
INSERT
  5
AE
330
A
100
AcDbEntity
  8
0
100
AcDbBlockReference
  2
NOTE50
 10
44.667986743
 20
4.3761790104
 30
0.0
  0
MTEXT
  5
AF
330
A
100
AcDbEntity
  8
0
 62
     7
100
AcDbMText
 10
48.9950139524
 20
9.2356113863
 30
0.0
 40
0.36
 41
0.0
 71
     2
 72
     1
  1
UNLESS OTHERWISE SPECIFIED\PDIMENSIONS ARE INCHES & DEGREES
  7
SLDTEXTSTYLE0
 73
     1
 44
1.0
  0
MTEXT
  5
B0
330
A
100
AcDbEntity
  8
0
 62
     7
100
AcDbMText
 10
44.80520043600001
 20
7.833473812
 30
0.0
 40
0.36
 41
0.0
 71
     1
 72
     1
  1
TOLERANCES:
  7
SLDTEXTSTYLE0
 73
     1
 44
1.0
  0
MTEXT
  5
B1
330
A
100
AcDbEntity
  8
0
 62
     7
100
AcDbMText
 10
51.821847405
 20
7.0312486711
 30
0.0
 40
0.36
 41
0.0
 71
     1
 72
     1
  1
%%p\P%%p\P%%p\P%%p
  7
SLDTEXTSTYLE0
 73
     1
 44
1.0
  0
MTEXT
  5
B2
330
A
100
AcDbEntity
  8
0
 62
     7
100
AcDbMText
 10
58.65360117409999
 20
41.54490574119999
 30
0.0
 40
0.36
 41
0.0
 71
     1
 72
     1
  1
ZONE
  7
SLDTEXTSTYLE0
 73
     1
 44
1.0
  0
MTEXT
  5
B3
330
A
100
AcDbEntity
  8
0
 62
     7
100
AcDbMText
 10
20.3808707277
 20
3.458266668699999
 30
0.0
 40
0.32
 41
0.0
 71
     1
 72
     1
  1
THIS DRAWING IS THE PROPERTY OF AND CONTAINS CONFIDENTIAL\PINFORMATION PROPRIETARY TO THE UNIVERSITY OF CALIFORNIA AND\PSHALL BE USED ONLY FOR THE PURPOSE FOR WHICH IT WAS PROVIDED\PAND SHALL NOT BE REPRODUCED OR DISCLOSED TO OTHERS.
  7
SLDTEXTSTYLE0
 73
     1
 44
1.0
  0
MTEXT
  5
B4
330
A
100
AcDbEntity
  8
0
 62
     7
100
AcDbMText
 10
50.5558344517
 20
40.81959670439999
 30
0.0
 40
0.36
 41
0.0
 71
     1
 72
     1
  1
A
  7
SLDTEXTSTYLE0
 73
     1
 44
1.0
  0
MTEXT
  5
B5
330
A
100
AcDbEntity
  8
0
 62
     7
100
AcDbMText
 10
51.9119836556
 20
40.8186060335
 30
0.0
 40
0.36
 41
0.0
 71
     1
 72
     1
  1
RELEASED
  7
SLDTEXTSTYLE0
 73
     1
 44
1.0
  0
MTEXT
  5
B6
330
A
100
AcDbEntity
  8
0
 62
     7
100
AcDbMText
 10
37.4766966926
 20
5.8405075573
 30
0.0
 40
0.4166666667000001
 41
0.0
 71
     1
 72
     1
  1
M. C. FLEMING
  7
SLDTEXTSTYLE0
 73
     1
 44
1.0
  0
MTEXT
  5
B7
330
A
100
AcDbEntity
  8
0
 62
     7
100
AcDbMText
 10
65.0084175521
 20
3.3082817912
 30
0.0
 40
0.75
 41
0.0
 71
     1
 72
     1
  1
A
  7
SLDTEXTSTYLE0
 73
     1
 44
1.0
  0
MTEXT
  5
B8
330
A
100
AcDbEntity
  8
0
 62
     7
100
AcDbMText
 10
41.2885611079
 20
5.8336167047
 30
0.0
 40
0.4166666667000001
 41
0.0
 71
     1
 72
     1
  1
2005-01-18
  7
SLDTEXTSTYLE0
 73
     1
 44
1.0
  0
MTEXT
  5
B9
330
A
100
AcDbEntity
  8
0
 62
     7
100
AcDbMText
 10
50.04964365300001
 20
7.039306895599999
 30
0.0
 40
0.36
 41
0.0
 71
     1
 72
     1
  1
1/16\P0.1\P0.01\P0.005
  7
SLDTEXTSTYLE0
 73
     1
 44
1.0
  0
MTEXT
  5
BA
330
A
100
AcDbEntity
  8
0
 62
     7
100
AcDbMText
 10
52.4099368779
 20
7.031500408999999
 30
0.0
 40
0.36
 41
0.0
 71
     1
 72
     1
  1
1%%d\P0.1%%d\P0.01%%d\P0.001%%d
  7
SLDTEXTSTYLE0
 73
     1
 44
1.0
  0
MTEXT
  5
BB
330
A
100
AcDbEntity
  8
0
 62
     7
100
AcDbMText
 10
56.32681204409999
 20
3.3806480451
 30
0.0
 40
0.75
 41
0.0
 71
     1
 72
     1
  1
24-09-220   1 of 1
  7
SLDTEXTSTYLE0
 73
     1
 44
1.0
  0
MTEXT
  5
BC
330
A
100
AcDbEntity
  8
0
 62
     7
100
AcDbMText
 10
61.1839129978
 20
40.8203446032
 30
0.0
 40
0.4166666667000001
 41
0.0
 71
     1
 72
     1
  1
M.C.F.
  7
SLDTEXTSTYLE0
 73
     1
 44
1.0
  0
MTEXT
  5
BD
330
A
100
AcDbEntity
  8
0
 62
     7
100
AcDbMText
 10
63.36789603899999
 20
40.8166095859
 30
0.0
 40
0.4166666667000001
 41
0.0
 71
     1
 72
     1
  1
2005-01-18
  7
SLDTEXTSTYLE0
 73
     1
 44
1.0
  0
MTEXT
  5
BE
330
A
100
AcDbEntity
  8
0
 62
     7
100
AcDbMText
 10
59.75471760600001
 20
6.1303452935
 30
0.0
 40
0.75
 41
0.0
 71
     2
 72
     1
  1
CARMA 6m Base,\PFloor Stiffener
  7
SLDTEXTSTYLE0
 73
     1
 44
1.0
  0
LINE
  5
BF
330
A
100
AcDbEntity
  8
0
  6
Continuous
 62
     7
370
    15
100
AcDbLine
 10
41.1240195636
 20
24.2890103676
 30
0.0
 11
43.12401939279999
 21
26.2890103434
 31
0.0
  0
LINE
  5
C0
330
A
100
AcDbEntity
  8
0
  6
Continuous
 62
     7
370
    15
100
AcDbLine
 10
14.8740201925
 20
26.2890103434
 30
0.0
 11
16.8740200217
 21
24.2890103676
 31
0.0
  0
LINE
  5
C1
330
A
100
AcDbEntity
  8
0
  6
Continuous
 62
     7
370
    15
100
AcDbLine
 10
43.12401939279999
 20
34.2890106867
 30
0.0
 11
14.8740201925
 21
34.2890106867
 31
0.0
  0
LINE
  5
C2
330
A
100
AcDbEntity
  8
0
  6
Continuous
 62
     7
370
    15
100
AcDbLine
 10
43.12401939279999
 20
26.2890103434
 30
0.0
 11
43.12401939279999
 21
34.2890106867
 31
0.0
  0
LINE
  5
C3
330
A
100
AcDbEntity
  8
0
  6
Continuous
 62
     7
370
    15
100
AcDbLine
 10
16.8740200217
 20
24.2890103676
 30
0.0
 11
41.1240195636
 21
24.2890103676
 31
0.0
  0
LINE
  5
C4
330
A
100
AcDbEntity
  8
0
  6
Continuous
 62
     7
370
    15
100
AcDbLine
 10
14.8740201925
 20
34.2890106867
 30
0.0
 11
14.8740201925
 21
26.2890103434
 31
0.0
  0
DIMENSION
  5
D2
330
A
100
AcDbEntity
  8
0
100
AcDbDimension
  2
*D1
 10
14.8740197926
 20
38.0554283344
 30
0.0
 11
28.9990197926
 21
38.0554283344
 31
0.0
 70
   160
 71
     5
 42
0.0
  3
SLDDIMSTYLE0
100
AcDbAlignedDimension
 13
43.1240197926
 23
34.2890103676
 33
0.0
 14
14.8740197926
 24
34.2890103676
 34
0.0
100
AcDbRotatedDimension
  0
DIMENSION
  5
DF
330
A
100
AcDbEntity
  8
0
100
AcDbDimension
  2
*D2
 10
9.953563947000001
 20
24.2890103676
 30
0.0
 11
9.953563947000001
 21
29.2890103676
 31
0.0
 70
   160
 71
     5
 42
0.0
  3
SLDDIMSTYLE0
100
AcDbAlignedDimension
 13
14.8740197926
 23
34.2890103676
 33
0.0
 14
16.87401979259999
 24
24.2890103676
 34
0.0
 50
90.0
100
AcDbRotatedDimension
  0
DIMENSION
  5
F1
330
A
100
AcDbEntity
  8
0
100
AcDbDimension
  2
*D3
 10
43.1240197926
 20
26.2890103676
 30
0.0
 11
49.40092118329999
 21
27.717415178
 31
0.0
 70
   162
  1
(<>)
 71
     5
 42
0.0
  3
SLDDIMSTYLE1
100
AcDb2LineAngularDimension
 13
16.87401979259999
 23
24.2890103676
 33
0.0
 14
41.1240197926
 24
24.2890103676
 34
0.0
 15
41.1240197926
 25
24.2890103676
 35
0.0
 16
49.9107314424
 26
26.0367959833
 36
0.0
  0
DIMENSION
  5
FE
330
A
100
AcDbEntity
  8
0
100
AcDbDimension
  2
*D4
 10
43.1240197926
 20
21.4656613168
 30
0.0
 11
38.87806058519999
 21
21.4656613168
 31
0.0
 70
   160
 71
     5
 42
0.0
  3
SLDDIMSTYLE0
100
AcDbAlignedDimension
 13
41.1240197926
 23
24.2890103676
 33
0.0
 14
43.1240197926
 24
26.2890103676
 34
0.0
100
AcDbRotatedDimension
  0
DIMENSION
  5
10C
330
A
100
AcDbEntity
  8
0
100
AcDbDimension
  2
*D5
 10
45.9527351002
 20
24.2890103676
 30
0.0
 11
45.9527351002
 21
21.8484808611
 31
0.0
 70
   160
 71
     5
 42
0.0
  3
SLDDIMSTYLE0
100
AcDbAlignedDimension
 13
43.1240197926
 23
26.2890103676
 33
0.0
 14
41.1240197926
 24
24.2890103676
 34
0.0
 50
90.0
100
AcDbRotatedDimension
  0
LINE
  5
10D
330
A
100
AcDbEntity
  8
0
  6
Continuous
 62
     7
370
    15
100
AcDbLine
 10
57.0501310958
 20
34.2890106867
 30
0.0
 11
57.4251311004
 21
34.2890106867
 31
0.0
  0
LINE
  5
10E
330
A
100
AcDbEntity
  8
0
  6
Continuous
 62
     7
370
    15
100
AcDbLine
 10
57.4251311004
 20
26.2890103434
 30
0.0
 11
57.4251311004
 21
34.2890106867
 31
0.0
  0
LINE
  5
10F
330
A
100
AcDbEntity
  8
0
  6
Continuous
 62
     7
370
    15
100
AcDbLine
 10
57.0501310958
 20
26.2890103434
 30
0.0
 11
57.4251311004
 21
26.2890103434
 31
0.0
  0
LINE
  5
110
330
A
100
AcDbEntity
  8
0
  6
Continuous
 62
     7
370
    15
100
AcDbLine
 10
57.0501310958
 20
26.2890103434
 30
0.0
 11
57.0501310958
 21
34.2890106867
 31
0.0
  0
LINE
  5
111
330
A
100
AcDbEntity
  8
0
  6
Continuous
 62
     7
370
    15
100
AcDbLine
 10
57.4251311004
 20
24.2890103676
 30
0.0
 11
57.0501310958
 21
24.2890103676
 31
0.0
  0
LINE
  5
112
330
A
100
AcDbEntity
  8
0
  6
Continuous
 62
     7
370
    15
100
AcDbLine
 10
57.0501310958
 20
24.2890103676
 30
0.0
 11
57.0501310958
 21
26.2890103434
 31
0.0
  0
LINE
  5
113
330
A
100
AcDbEntity
  8
0
  6
Continuous
 62
     7
370
    15
100
AcDbLine
 10
57.4251311004
 20
26.2890103434
 30
0.0
 11
57.4251311004
 21
24.2890103676
 31
0.0
  0
DIMENSION
  5
120
330
A
100
AcDbEntity
  8
0
100
AcDbDimension
  2
*D6
 10
57.4251311004
 20
35.48532998849999
 30
0.0
 11
60.00514020789999
 21
35.48532998849999
 31
0.0
 70
   160
 71
     5
 42
0.0
  3
SLDDIMSTYLE0
100
AcDbAlignedDimension
 13
57.0501311004
 23
34.2890103676
 33
0.0
 14
57.4251311004
 24
34.2890103676
 34
0.0
100
AcDbRotatedDimension
  0
LINE
  5
121
330
A
100
AcDbEntity
  8
0
  6
Continuous
 62
     7
370
    15
100
AcDbLine
 10
23.76203085449999
 20
11.68017174549999
 30
0.0
 11
10.4448531421
 21
19.36801479849999
 31
0.0
  0
LINE
  5
122
330
A
100
AcDbEntity
  8
0
  6
Continuous
 62
     7
370
    15
100
AcDbLine
 10
23.76203085449999
 20
7.325287415499999
 30
0.0
 11
23.76203085449999
 21
11.68017174549999
 31
0.0
  0
LINE
  5
123
330
A
100
AcDbEntity
  8
0
  6
Continuous
 62
     7
370
    15
100
AcDbLine
 10
22.8192218129
 20
6.7808384075
 30
0.0
 11
23.76203085449999
 21
7.325287415499999
 31
0.0
  0
LINE
  5
124
330
A
100
AcDbEntity
  8
0
  6
Continuous
 62
     7
370
    15
100
AcDbLine
 10
11.38766218369999
 20
13.3801373114
 30
0.0
 11
22.8192218129
 21
6.7808384075
 31
0.0
  0
LINE
  5
125
330
A
100
AcDbEntity
  8
0
  6
Continuous
 62
     7
370
    15
100
AcDbLine
 10
10.4448531421
 20
15.01313046849999
 30
0.0
 11
11.38766218369999
 21
13.3801373114
 31
0.0
  0
LINE
  5
126
330
A
100
AcDbEntity
  8
0
  6
Continuous
 62
     7
370
    15
100
AcDbLine
 10
10.4448531421
 20
19.36801479849999
 30
0.0
 11
10.4448531421
 21
15.01313046849999
 31
0.0
  0
LINE
  5
127
330
A
100
AcDbEntity
  8
0
  6
Continuous
 62
     7
370
    15
100
AcDbLine
 10
23.76203085449999
 20
11.68017174549999
 30
0.0
 11
23.9388075498
 21
11.7822227595
 31
0.0
  0
LINE
  5
128
330
A
100
AcDbEntity
  8
0
  6
Continuous
 62
     7
370
    15
100
AcDbLine
 10
10.4448531421
 20
19.36801479849999
 30
0.0
 11
10.6216298374
 21
19.4700658125
 31
0.0
  0
LINE
  5
129
330
A
100
AcDbEntity
  8
0
  6
Continuous
 62
     7
370
    15
100
AcDbLine
 10
23.9388075498
 20
11.7822227595
 30
0.0
 11
10.6216298374
 21
19.4700658125
 31
0.0
  0
LINE
  5
12A
330
A
100
AcDbEntity
  8
0
  6
Continuous
 62
     7
370
    15
100
AcDbLine
 10
23.9388075498
 20
7.4273384295
 30
0.0
 11
23.9388075498
 21
11.7822227595
 31
0.0
  0
LINE
  5
12B
330
A
100
AcDbEntity
  8
0
  6
Continuous
 62
     7
370
    15
100
AcDbLine
 10
23.76203085449999
 20
7.325287415499999
 30
0.0
 11
23.9388075498
 21
7.4273384295
 31
0.0
  0
LINE
  5
12C
330
A
100
AcDbEntity
  8
0
  6
Continuous
 62
     7
370
    15
100
AcDbLine
 10
22.9959985082
 20
6.882889421499999
 30
0.0
 11
22.8192218129
 21
6.7808384075
 31
0.0
  0
LINE
  5
12D
330
A
100
AcDbEntity
  8
0
  6
Continuous
 62
     7
370
    15
100
AcDbLine
 10
23.9388075498
 20
7.4273384295
 30
0.0
 11
22.9959985082
 21
6.882889421499999
 31
0.0
  0
ENDSEC
  0
SECTION
  2
OBJECTS
  0
DICTIONARY
  5
19
330
0
100
AcDbDictionary
281
     1
  3
ACAD_GROUP
350
1A
  3
ACAD_LAYOUT
350
1E
  3
ACAD_MLINESTYLE
350
1B
  3
ACAD_PLOTSETTINGS
350
22
  3
ACAD_PLOTSTYLENAME
350
1F
  3
ACAD_WIPEOUT_VARS
350
23
  0
DICTIONARY
  5
1A
102
{ACAD_REACTORS
330
19
102
}
330
19
100
AcDbDictionary
281
     1
  0
DICTIONARY
  5
1E
102
{ACAD_REACTORS
330
19
102
}
330
19
100
AcDbDictionary
281
     1
  3
Layout1
350
21
  3
Model
350
20
  0
DICTIONARY
  5
1B
102
{ACAD_REACTORS
330
19
102
}
330
19
100
AcDbDictionary
281
     1
  3
Standard
350
1C
  0
DICTIONARY
  5
22
102
{ACAD_REACTORS
330
19
102
}
330
19
100
AcDbDictionary
281
     1
  0
ACDBDICTIONARYWDFLT
  5
1F
102
{ACAD_REACTORS
330
19
102
}
330
19
100
AcDbDictionary
281
     1
  3
Normal
350
1D
100
AcDbDictionaryWithDefault
340
1D
  0
WIPEOUTVARIABLES
  5
23
330
19
100
AcDbWipeoutVariables
 70
     1
  0
LAYOUT
  5
21
102
{ACAD_REACTORS
330
1E
102
}
330
1E
100
AcDbPlotSettings
  1

  2

  4

  6

 40
0.0
 41
0.0
 42
0.0
 43
0.0
 44
0.0
 45
0.0
 46
0.0
 47
0.0
 48
0.0
 49
0.0
140
0.0
141
0.0
142
1.0
143
1.0
 70
     0
 72
     0
 73
     0
 74
     0
  7

 75
     0
147
1.0
148
0.0
149
0.0
100
AcDbLayout
  1
Layout1
 70
     1
 71
     1
 10
0.0
 20
0.0
 11
12.0
 21
9.0
 12
0.0
 22
0.0
 32
0.0
 14
1.000000000000000E+20
 24
1.000000000000000E+20
 34
1.000000000000000E+20
 15
-1.000000000000000E+20
 25
-1.000000000000000E+20
 35
-1.000000000000000E+20
146
0.0
 13
0.0
 23
0.0
 33
0.0
 16
1.0
 26
0.0
 36
0.0
 17
0.0
 27
1.0
 37
0.0
 76
     0
330
B
  0
LAYOUT
  5
20
102
{ACAD_REACTORS
330
1E
102
}
330
1E
100
AcDbPlotSettings
  1

  2

  4

  6

 40
0.0
 41
0.0
 42
0.0
 43
0.0
 44
0.0
 45
0.0
 46
0.0
 47
0.0
 48
0.0
 49
0.0
140
0.0
141
0.0
142
1.0
143
1.0
 70
  1024
 72
     0
 73
     0
 74
     0
  7

 75
     0
147
1.0
148
0.0
149
0.0
100
AcDbLayout
  1
Model
 70
     0
 71
     0
 10
0.0
 20
0.0
 11
0.0
 21
0.0
 12
0.0
 22
0.0
 32
0.0
 14
0.0
 24
0.0
 34
0.0
 15
0.0
 25
0.0
 35
0.0
146
0.0
 13
0.0
 23
0.0
 33
0.0
 16
0.0
 26
0.0
 36
0.0
 17
0.0
 27
0.0
 37
0.0
 76
     0
330
A
  0
MLINESTYLE
  5
1C
102
{ACAD_REACTORS
330
1B
102
}
330
1B
100
AcDbMlineStyle
  2
STANDARD
 70
     0
  3

 62
     0
 51
90.0
 52
90.0
 71
     2
 49
0.5
 62
   256
  6
BYLAYER
 49
-0.5
 62
   256
  6
BYLAYER
  0
ACDBPLACEHOLDER
  5
1D
102
{ACAD_REACTORS
330
1F
102
}
330
1F
  0
ENDSEC
  0
EOF
