  0
SECTION
  2
HEADER
  9
$ACADVER
  1
AC1015
  9
$ACADMAINTVER
 70
    18
  9
$DWGCODEPAGE
  3
ANSI_1252
  9
$INSBASE
 10
0.0
 20
0.0
 30
0.0
  9
$EXTMIN
 10
0.0
 20
0.0
 30
0.0
  9
$EXTMAX
 10
2.75
 20
2.125
 30
0.0
  9
$LIMMIN
 10
0.0
 20
0.0
  9
$LIMMAX
 10
2.75
 20
2.125
  9
$ORTHOMODE
 70
     0
  9
$REGENMODE
 70
     1
  9
$FILLMODE
 70
     1
  9
$QTEXTMODE
 70
     0
  9
$MIRRTEXT
 70
     0
  9
$LTSCALE
 40
0.25
  9
$ATTMODE
 70
     1
  9
$TEXTSIZE
 40
0.2
  9
$TRACEWID
 40
0.05
  9
$TEXTSTYLE
  7
Standard
  9
$CLAYER
  8
0
  9
$CELTYPE
  6
ByLayer
  9
$CECOLOR
 62
   256
  9
$CELTSCALE
 40
1.0
  9
$DISPSILH
 70
     0
  9
$DIMSCALE
 40
1.0
  9
$DIMASZ
 40
0.0708661417322835
  9
$DIMEXO
 40
0.0625
  9
$DIMDLI
 40
0.38
  9
$DIMRND
 40
0.0
  9
$DIMDLE
 40
0.0
  9
$DIMEXE
 40
0.18
  9
$DIMTP
 40
0.0
  9
$DIMTM
 40
0.0
  9
$DIMTXT
 40
0.3048000037670135
  9
$DIMCEN
 40
0.09
  9
$DIMTSZ
 40
0.0
  9
$DIMTOL
 70
     0
  9
$DIMLIM
 70
     0
  9
$DIMTIH
 70
     1
  9
$DIMTOH
 70
     1
  9
$DIMSE1
 70
     0
  9
$DIMSE2
 70
     0
  9
$DIMTAD
 70
     0
  9
$DIMZIN
 70
     0
  9
$DIMBLK
  1

  9
$DIMASO
 70
     1
  9
$DIMSHO
 70
     1
  9
$DIMPOST
  1

  9
$DIMAPOST
  1

  9
$DIMALT
 70
     0
  9
$DIMALTD
 70
     2
  9
$DIMALTF
 40
25.4
  9
$DIMLFAC
 40
1.0
  9
$DIMTOFL
 70
     0
  9
$DIMTVP
 40
0.0
  9
$DIMTIX
 70
     0
  9
$DIMSOXD
 70
     0
  9
$DIMSAH
 70
     0
  9
$DIMBLK1
  1

  9
$DIMBLK2
  1

  9
$DIMSTYLE
  2
Standard
  9
$DIMCLRD
 70
     0
  9
$DIMCLRE
 70
     0
  9
$DIMCLRT
 70
     0
  9
$DIMTFAC
 40
1.0
  9
$DIMGAP
 40
0.09
  9
$DIMJUST
 70
     0
  9
$DIMSD1
 70
     0
  9
$DIMSD2
 70
     0
  9
$DIMTOLJ
 70
     1
  9
$DIMTZIN
 70
     0
  9
$DIMALTZ
 70
     0
  9
$DIMALTTZ
 70
     0
  9
$DIMUPT
 70
     0
  9
$DIMDEC
 70
     4
  9
$DIMTDEC
 70
     4
  9
$DIMALTU
 70
     2
  9
$DIMALTTD
 70
     2
  9
$DIMTXSTY
  7
Standard
  9
$DIMAUNIT
 70
     0
  9
$DIMADEC
 70
     0
  9
$DIMALTRND
 40
0.0
  9
$DIMAZIN
 70
     0
  9
$DIMDSEP
 70
    46
  9
$DIMATFIT
 70
     3
  9
$DIMFRAC
 70
     0
  9
$DIMLDRBLK
  1

  9
$DIMLUNIT
 70
     2
  9
$DIMLWD
 70
    -2
  9
$DIMLWE
 70
    -2
  9
$DIMTMOVE
 70
     0
  9
$LUNITS
 70
     2
  9
$LUPREC
 70
     4
  9
$SKETCHINC
 40
0.1
  9
$FILLETRAD
 40
0.0
  9
$AUNITS
 70
     0
  9
$AUPREC
 70
     0
  9
$MENU
  1
.
  9
$ELEVATION
 40
0.0
  9
$PELEVATION
 40
0.0
  9
$THICKNESS
 40
0.0
  9
$LIMCHECK
 70
     0
  9
$CHAMFERA
 40
0.0
  9
$CHAMFERB
 40
0.0
  9
$CHAMFERC
 40
0.0
  9
$CHAMFERD
 40
0.0
  9
$SKPOLY
 70
     0
  9
$TDCREATE
 40
2454846.694465961
  9
$TDUCREATE
 40
2454847.027799294
  9
$TDUPDATE
 40
2454846.694465961
  9
$TDUUPDATE
 40
2454847.027799294
  9
$TDINDWG
 40
0.0000207986
  9
$TDUSRTIMER
 40
0.0000207986
  9
$USRTIMER
 70
     1
  9
$ANGBASE
 50
0.0
  9
$ANGDIR
 70
     0
  9
$PDMODE
 70
     0
  9
$PDSIZE
 40
0.0
  9
$PLINEWID
 40
0.0
  9
$SPLFRAME
 70
     0
  9
$SPLINETYPE
 70
     6
  9
$SPLINESEGS
 70
     8
  9
$HANDSEED
  5
4D9
  9
$SURFTAB1
 70
     6
  9
$SURFTAB2
 70
     6
  9
$SURFTYPE
 70
     6
  9
$SURFU
 70
     6
  9
$SURFV
 70
     6
  9
$UCSBASE
  2

  9
$UCSNAME
  2

  9
$UCSORG
 10
0.0
 20
0.0
 30
0.0
  9
$UCSXDIR
 10
1.0
 20
0.0
 30
0.0
  9
$UCSYDIR
 10
0.0
 20
1.0
 30
0.0
  9
$UCSORTHOREF
  2

  9
$UCSORTHOVIEW
 70
     0
  9
$UCSORGTOP
 10
0.0
 20
0.0
 30
0.0
  9
$UCSORGBOTTOM
 10
0.0
 20
0.0
 30
0.0
  9
$UCSORGLEFT
 10
0.0
 20
0.0
 30
0.0
  9
$UCSORGRIGHT
 10
0.0
 20
0.0
 30
0.0
  9
$UCSORGFRONT
 10
0.0
 20
0.0
 30
0.0
  9
$UCSORGBACK
 10
0.0
 20
0.0
 30
0.0
  9
$PUCSBASE
  2

  9
$PUCSNAME
  2

  9
$PUCSORG
 10
0.0
 20
0.0
 30
0.0
  9
$PUCSXDIR
 10
1.0
 20
0.0
 30
0.0
  9
$PUCSYDIR
 10
0.0
 20
1.0
 30
0.0
  9
$PUCSORTHOREF
  2

  9
$PUCSORTHOVIEW
 70
     0
  9
$PUCSORGTOP
 10
0.0
 20
0.0
 30
0.0
  9
$PUCSORGBOTTOM
 10
0.0
 20
0.0
 30
0.0
  9
$PUCSORGLEFT
 10
0.0
 20
0.0
 30
0.0
  9
$PUCSORGRIGHT
 10
0.0
 20
0.0
 30
0.0
  9
$PUCSORGFRONT
 10
0.0
 20
0.0
 30
0.0
  9
$PUCSORGBACK
 10
0.0
 20
0.0
 30
0.0
  9
$USERI1
 70
     0
  9
$USERI2
 70
     0
  9
$USERI3
 70
     0
  9
$USERI4
 70
     0
  9
$USERI5
 70
     0
  9
$USERR1
 40
0.0
  9
$USERR2
 40
0.0
  9
$USERR3
 40
0.0
  9
$USERR4
 40
0.0
  9
$USERR5
 40
0.0
  9
$WORLDVIEW
 70
     1
  9
$SHADEDGE
 70
     3
  9
$SHADEDIF
 70
    70
  9
$TILEMODE
 70
     1
  9
$MAXACTVP
 70
    64
  9
$PINSBASE
 10
0.0
 20
0.0
 30
0.0
  9
$PLIMCHECK
 70
     0
  9
$PEXTMIN
 10
0.0
 20
0.0
 30
0.0
  9
$PEXTMAX
 10
2.75
 20
2.125
 30
0.0
  9
$PLIMMIN
 10
0.0
 20
0.0
  9
$PLIMMAX
 10
2.75
 20
2.125
  9
$UNITMODE
 70
     0
  9
$VISRETAIN
 70
     1
  9
$PLINEGEN
 70
     0
  9
$PSLTSCALE
 70
     1
  9
$TREEDEPTH
 70
  3020
  9
$CMLSTYLE
  2
Standard
  9
$CMLJUST
 70
     0
  9
$CMLSCALE
 40
1.0
  9
$PROXYGRAPHICS
 70
     1
  9
$MEASUREMENT
 70
     0
  9
$CELWEIGHT
370
    -1
  9
$ENDCAPS
280
     0
  9
$JOINSTYLE
280
     0
  9
$LWDISPLAY
290
     0
  9
$INSUNITS
 70
     0
  9
$HYPERLINKBASE
  1

  9
$STYLESHEET
  1

  9
$XEDIT
290
     1
  9
$CEPSNTYPE
380
     0
  9
$PSTYLEMODE
290
     1
  9
$FINGERPRINTGUID
  2
{A21EEFC6-ED70-4DA2-B99C-04AC9CECC8D0}
  9
$VERSIONGUID
  2
{2ED6076C-753D-486E-9AD1-303526A61B90}
  9
$EXTNAMES
290
     1
  9
$PSVPSCALE
 40
0.0
  9
$OLESTARTUP
290
     0
  0
ENDSEC
  0
SECTION
  2
CLASSES
  0
CLASS
  1
ACDBDICTIONARYWDFLT
  2
AcDbDictionaryWithDefault
  3
ObjectDBX Classes
 90
        0
280
     0
281
     0
  0
CLASS
  1
MATERIAL
  2
AcDbMaterial
  3
ObjectDBX Classes
 90
     1024
280
     0
281
     0
  0
CLASS
  1
VISUALSTYLE
  2
AcDbVisualStyle
  3
ObjectDBX Classes
 90
     4095
280
     0
281
     0
  0
CLASS
  1
TABLESTYLE
  2
AcDbTableStyle
  3
ObjectDBX Classes
 90
     4095
280
     0
281
     0
  0
CLASS
  1
DICTIONARYVAR
  2
AcDbDictionaryVar
  3
ObjectDBX Classes
 90
        0
280
     0
281
     0
  0
CLASS
  1
ACDBPLACEHOLDER
  2
AcDbPlaceHolder
  3
ObjectDBX Classes
 90
        0
280
     0
281
     0
  0
CLASS
  1
LAYOUT
  2
AcDbLayout
  3
ObjectDBX Classes
 90
        0
280
     0
281
     0
  0
ENDSEC
  0
SECTION
  2
TABLES
  0
TABLE
  2
VPORT
  5
8
330
0
100
AcDbSymbolTable
 70
     1
  0
VPORT
  5
28
330
8
100
AcDbSymbolTableRecord
100
AcDbViewportTableRecord
  2
*Active
 70
     0
 10
0.0
 20
0.0
 11
1.0
 21
1.0
 12
1.375
 22
1.0625
 13
0.0
 23
0.0
 14
1.0
 24
1.0
 15
0.0
 25
0.0
 16
0.0
 26
0.0
 36
1.0
 17
0.0
 27
0.0
 37
0.0
 40
2.125
 41
1.294117647058823
 42
50.0
 43
0.0
 44
0.0
 50
0.0
 51
0.0
 71
     0
 72
   100
 73
     1
 74
     1
 75
     0
 76
     0
 77
     0
 78
     0
281
     0
 65
     1
110
0.0
120
0.0
130
0.0
111
1.0
121
0.0
131
0.0
112
0.0
122
1.0
132
0.0
 79
     0
146
0.0
  0
ENDTAB
  0
TABLE
  2
LTYPE
  5
5
330
0
100
AcDbSymbolTable
 70
    59
  0
LTYPE
  5
29
330
5
100
AcDbSymbolTableRecord
100
AcDbLinetypeTableRecord
  2
ByBlock
 70
     0
  3

 72
    65
 73
     0
 40
0.0
  0
LTYPE
  5
2A
330
5
100
AcDbSymbolTableRecord
100
AcDbLinetypeTableRecord
  2
ByLayer
 70
     0
  3

 72
    65
 73
     0
 40
0.0
  0
LTYPE
  5
2B
330
5
100
AcDbSymbolTableRecord
100
AcDbLinetypeTableRecord
  2
Continuous
 70
     0
  3
Solid line
 72
    65
 73
     0
 40
0.0
  0
LTYPE
  5
40
330
5
100
AcDbSymbolTableRecord
100
AcDbLinetypeTableRecord
  2
BY_STANDARD
 70
     0
  3
By Standard ____________    ____    ____   _
 72
    65
 73
     6
 40
1.240299999999999
 49
0.6614
 74
     0
 49
-0.0827
 74
     0
 49
0.1654
 74
     0
 49
-0.0827
 74
     0
 49
0.1654
 74
     0
 49
-0.0827
 74
     0
  0
LTYPE
  5
41
330
5
100
AcDbSymbolTableRecord
100
AcDbLinetypeTableRecord
  2
CHAIN
 70
     0
  3
Chain ____ _ ____ _ ____ _ ____ _ ____ _ ____
 72
    65
 73
     4
 40
0.7087
 49
0.4724000000000001
 74
     0
 49
-0.0591
 74
     0
 49
0.1181
 74
     0
 49
-0.0591
 74
     0
  0
LTYPE
  5
42
330
5
100
AcDbSymbolTableRecord
100
AcDbLinetypeTableRecord
  2
DASH_DOT
 70
     0
  3
Dash dot __ . __ . __ . __ . __ . __ . __ . __
 72
    65
 73
     4
 40
0.37
 49
0.24
 74
     0
 49
-0.06
 74
     0
 49
0.01
 74
     0
 49
-0.06
 74
     0
  0
LTYPE
  5
43
330
5
100
AcDbSymbolTableRecord
100
AcDbLinetypeTableRecord
  2
DOUBLE_DASH_DOT
 70
     0
  3
Double-Dash Dot __ __ . __ __ . __ __ . __ _
 72
    65
 73
     6
 40
0.4398
 49
0.24
 74
     0
 49
-0.06
 74
     0
 49
0.0098
 74
     0
 49
-0.06
 74
     0
 49
0.01
 74
     0
 49
-0.06
 74
     0
  0
LTYPE
  5
44
330
5
100
AcDbSymbolTableRecord
100
AcDbLinetypeTableRecord
  2
DASH_TRIPLE_DOT
 70
     0
  3
Dash Triple-Dot _ . . . _ . . . _ . . . _
 72
    65
 73
     8
 40
0.51
 49
0.24
 74
     0
 49
-0.06
 74
     0
 49
0.01
 74
     0
 49
-0.06
 74
     0
 49
0.01
 74
     0
 49
-0.06
 74
     0
 49
0.01
 74
     0
 49
-0.06
 74
     0
  0
LTYPE
  5
45
330
5
100
AcDbSymbolTableRecord
100
AcDbLinetypeTableRecord
  2
DASHED
 70
     0
  3
Dashed __ __ __ __ __ __ __ __ __ __ __ __ __ _
 72
    65
 73
     2
 40
0.2067
 49
0.1654
 74
     0
 49
-0.0413
 74
     0
  0
LTYPE
  5
46
330
5
100
AcDbSymbolTableRecord
100
AcDbLinetypeTableRecord
  2
DASH_DOUBLE_DOT
 70
     0
  3
Dash Double-Dot __ . . __ . . __ . . __ . .
 72
    65
 73
     6
 40
0.4398
 49
0.24
 74
     0
 49
-0.06
 74
     0
 49
0.0098
 74
     0
 49
-0.06
 74
     0
 49
0.01
 74
     0
 49
-0.06
 74
     0
  0
LTYPE
  5
47
330
5
100
AcDbSymbolTableRecord
100
AcDbLinetypeTableRecord
  2
DASHED_SPACE
 70
     0
  3
Dashed Space __ __ __ __ __ __ __ __ __ __ __ _
 72
    65
 73
     2
 40
0.2067
 49
0.1654
 74
     0
 49
-0.0413
 74
     0
  0
LTYPE
  5
48
330
5
100
AcDbSymbolTableRecord
100
AcDbLinetypeTableRecord
  2
DOTTED
 70
     0
  3
Dotted . . . . . . . . . . . . . . . . . . . . 
 72
    65
 73
     2
 40
0.0482
 49
0.0069
 74
     0
 49
-0.0413
 74
     0
  0
LTYPE
  5
49
330
5
100
AcDbSymbolTableRecord
100
AcDbLinetypeTableRecord
  2
DOUBLE_DASH_CHAIN
 70
     0
  3
Double-Dash Chain ______  __  __  ______  __  _
 72
    65
 73
     6
 40
1.240299999999999
 49
0.6614
 74
     0
 49
-0.0827
 74
     0
 49
0.1654
 74
     0
 49
-0.0827
 74
     0
 49
0.1654
 74
     0
 49
-0.0827
 74
     0
  0
LTYPE
  5
4B
330
5
100
AcDbSymbolTableRecord
100
AcDbLinetypeTableRecord
  2
DOUBLE_DASH_DOUBLE_DOT
 70
     0
  3
Double-Dash Double-dot _ _ . . _ _ . . _
 72
    65
 73
     8
 40
0.7400000000000001
 49
0.24
 74
     0
 49
-0.06
 74
     0
 49
0.24
 74
     0
 49
-0.06
 74
     0
 49
0.01
 74
     0
 49
-0.06
 74
     0
 49
0.01
 74
     0
 49
-0.06
 74
     0
  0
LTYPE
  5
4C
330
5
100
AcDbSymbolTableRecord
100
AcDbLinetypeTableRecord
  2
DOUBLE_DASH_TRIPLE_DOT
 70
     0
  3
Double Dash Triple Dot __ __ . . . __ __ . .
 72
    65
 73
    10
 40
0.8100000000000001
 49
0.24
 74
     0
 49
-0.06
 74
     0
 49
0.24
 74
     0
 49
-0.06
 74
     0
 49
0.01
 74
     0
 49
-0.06
 74
     0
 49
0.01
 74
     0
 49
-0.06
 74
     0
 49
0.01
 74
     0
 49
-0.06
 74
     0
  0
LTYPE
  5
4D
330
5
100
AcDbSymbolTableRecord
100
AcDbLinetypeTableRecord
  2
LONG_DASH_DOTTED
 70
     0
  3
Long Dash Dotted ____ . ____ . ____ . ____ . _
 72
    65
 73
     4
 40
0.3543
 49
0.2362
 74
     0
 49
-0.0295
 74
     0
 49
0.0591
 74
     0
 49
-0.0295
 74
     0
  0
LTYPE
  5
4E
330
5
100
AcDbSymbolTableRecord
100
AcDbLinetypeTableRecord
  2
LONG_DASH_DOUBLE_DOT
 70
     0
  3
Long Dash Double Dot ________  .  .  ________  
 72
    65
 73
     6
 40
0.6799999999999999
 49
0.48
 74
     0
 49
-0.06
 74
     0
 49
0.01
 74
     0
 49
-0.06
 74
     0
 49
0.01
 74
     0
 49
-0.06
 74
     0
  0
LTYPE
  5
4F
330
5
100
AcDbSymbolTableRecord
100
AcDbLinetypeTableRecord
  2
LONG_DASH_TRIPLE_DOT
 70
     0
  3
Long Dash Triple Dot ____ ... ____ ... ____
 72
    65
 73
     8
 40
0.3689
 49
0.2362
 74
     0
 49
-0.0295
 74
     0
 49
0.0049
 74
     0
 49
-0.0295
 74
     0
 49
0.0049
 74
     0
 49
-0.0295
 74
     0
 49
0.0049
 74
     0
 49
-0.0295
 74
     0
  0
LTYPE
  5
50
330
5
100
AcDbSymbolTableRecord
100
AcDbLinetypeTableRecord
  2
BORDER
 70
     0
  3
Border __ __ . __ __ . __ __ . __ __ . __ __ .
 72
    65
 73
     6
 40
1.75
 49
0.5
 74
     0
 49
-0.25
 74
     0
 49
0.5
 74
     0
 49
-0.25
 74
     0
 49
0.0
 74
     0
 49
-0.25
 74
     0
  0
LTYPE
  5
51
330
5
100
AcDbSymbolTableRecord
100
AcDbLinetypeTableRecord
  2
BORDER2
 70
     0
  3
Border (.5x) __.__.__.__.__.__.__.__.__.__.__.
 72
    65
 73
     6
 40
0.875
 49
0.25
 74
     0
 49
-0.125
 74
     0
 49
0.25
 74
     0
 49
-0.125
 74
     0
 49
0.0
 74
     0
 49
-0.125
 74
     0
  0
LTYPE
  5
52
330
5
100
AcDbSymbolTableRecord
100
AcDbLinetypeTableRecord
  2
BORDERX2
 70
     0
  3
Border (2x) ____  ____  .  ____  ____  .  ___
 72
    65
 73
     6
 40
3.5
 49
1.0
 74
     0
 49
-0.5
 74
     0
 49
1.0
 74
     0
 49
-0.5
 74
     0
 49
0.0
 74
     0
 49
-0.5
 74
     0
  0
LTYPE
  5
53
330
5
100
AcDbSymbolTableRecord
100
AcDbLinetypeTableRecord
  2
CENTER
 70
     0
  3
Center ____ _ ____ _ ____ _ ____ _ ____ _ ____
 72
    65
 73
     4
 40
2.0
 49
1.25
 74
     0
 49
-0.25
 74
     0
 49
0.25
 74
     0
 49
-0.25
 74
     0
  0
LTYPE
  5
54
330
5
100
AcDbSymbolTableRecord
100
AcDbLinetypeTableRecord
  2
CENTER2
 70
     0
  3
Center (.5x) ___ _ ___ _ ___ _ ___ _ ___ _ ___
 72
    65
 73
     4
 40
1.125
 49
0.75
 74
     0
 49
-0.125
 74
     0
 49
0.125
 74
     0
 49
-0.125
 74
     0
  0
LTYPE
  5
55
330
5
100
AcDbSymbolTableRecord
100
AcDbLinetypeTableRecord
  2
CENTERX2
 70
     0
  3
Center (2x) ________  __  ________  __  _____
 72
    65
 73
     4
 40
4.0
 49
2.5
 74
     0
 49
-0.5
 74
     0
 49
0.5
 74
     0
 49
-0.5
 74
     0
  0
LTYPE
  5
56
330
5
100
AcDbSymbolTableRecord
100
AcDbLinetypeTableRecord
  2
DASHDOT2
 70
     0
  3
Dash dot (.5x) _._._._._._._._._._._._._._._.
 72
    65
 73
     4
 40
0.5
 49
0.25
 74
     0
 49
-0.125
 74
     0
 49
0.0
 74
     0
 49
-0.125
 74
     0
  0
LTYPE
  5
57
330
5
100
AcDbSymbolTableRecord
100
AcDbLinetypeTableRecord
  2
DASHDOTX2
 70
     0
  3
Dash dot (2x) ____  .  ____  .  ____  .  ___
 72
    65
 73
     4
 40
2.0
 49
1.0
 74
     0
 49
-0.5
 74
     0
 49
0.0
 74
     0
 49
-0.5
 74
     0
  0
LTYPE
  5
59
330
5
100
AcDbSymbolTableRecord
100
AcDbLinetypeTableRecord
  2
DASHED2
 70
     0
  3
Dashed (.5x) _ _ _ _ _ _ _ _ _ _ _ _ _ _ _ _ _
 72
    65
 73
     2
 40
0.375
 49
0.25
 74
     0
 49
-0.125
 74
     0
  0
LTYPE
  5
5A
330
5
100
AcDbSymbolTableRecord
100
AcDbLinetypeTableRecord
  2
DASHEDX2
 70
     0
  3
Dashed (2x) ____  ____  ____  ____  ____  ___
 72
    65
 73
     2
 40
1.5
 49
1.0
 74
     0
 49
-0.5
 74
     0
  0
LTYPE
  5
5B
330
5
100
AcDbSymbolTableRecord
100
AcDbLinetypeTableRecord
  2
DIVIDE
 70
     0
  3
Divide ____ . . ____ . . ____ . . ____ . . ____
 72
    65
 73
     6
 40
1.25
 49
0.5
 74
     0
 49
-0.25
 74
     0
 49
0.0
 74
     0
 49
-0.25
 74
     0
 49
0.0
 74
     0
 49
-0.25
 74
     0
  0
LTYPE
  5
5C
330
5
100
AcDbSymbolTableRecord
100
AcDbLinetypeTableRecord
  2
DIVIDE2
 70
     0
  3
Divide (.5x) __..__..__..__..__..__..__..__.._
 72
    65
 73
     6
 40
0.625
 49
0.25
 74
     0
 49
-0.125
 74
     0
 49
0.0
 74
     0
 49
-0.125
 74
     0
 49
0.0
 74
     0
 49
-0.125
 74
     0
  0
LTYPE
  5
5D
330
5
100
AcDbSymbolTableRecord
100
AcDbLinetypeTableRecord
  2
DIVIDEX2
 70
     0
  3
Divide (2x) ________  .  .  ________  .  .  _
 72
    65
 73
     6
 40
2.5
 49
1.0
 74
     0
 49
-0.5
 74
     0
 49
0.0
 74
     0
 49
-0.5
 74
     0
 49
0.0
 74
     0
 49
-0.5
 74
     0
  0
LTYPE
  5
5E
330
5
100
AcDbSymbolTableRecord
100
AcDbLinetypeTableRecord
  2
DOT
 70
     0
  3
Dot . . . . . . . . . . . . . . . . . . . . . .
 72
    65
 73
     2
 40
0.25
 49
0.0
 74
     0
 49
-0.25
 74
     0
  0
LTYPE
  5
5F
330
5
100
AcDbSymbolTableRecord
100
AcDbLinetypeTableRecord
  2
DOT2
 70
     0
  3
Dot (.5x) .....................................
 72
    65
 73
     2
 40
0.125
 49
0.0
 74
     0
 49
-0.125
 74
     0
  0
LTYPE
  5
60
330
5
100
AcDbSymbolTableRecord
100
AcDbLinetypeTableRecord
  2
DOTX2
 70
     0
  3
Dot (2x) .  .  .  .  .  .  .  .  .  .  .  .  . 
 72
    65
 73
     2
 40
0.5
 49
0.0
 74
     0
 49
-0.5
 74
     0
  0
LTYPE
  5
61
330
5
100
AcDbSymbolTableRecord
100
AcDbLinetypeTableRecord
  2
HIDDEN
 70
     0
  3
Hidden __ __ __ __ __ __ __ __ __ __ __ __ __ _
 72
    65
 73
     2
 40
0.375
 49
0.25
 74
     0
 49
-0.125
 74
     0
  0
LTYPE
  5
62
330
5
100
AcDbSymbolTableRecord
100
AcDbLinetypeTableRecord
  2
HIDDEN2
 70
     0
  3
Hidden (.5x) _ _ _ _ _ _ _ _ _ _ _ _ _ _ _ _ _
 72
    65
 73
     2
 40
0.1875
 49
0.125
 74
     0
 49
-0.0625
 74
     0
  0
LTYPE
  5
63
330
5
100
AcDbSymbolTableRecord
100
AcDbLinetypeTableRecord
  2
HIDDENX2
 70
     0
  3
Hidden (2x) ____ ____ ____ ____ ____ ____ ____
 72
    65
 73
     2
 40
0.75
 49
0.5
 74
     0
 49
-0.25
 74
     0
  0
LTYPE
  5
64
330
5
100
AcDbSymbolTableRecord
100
AcDbLinetypeTableRecord
  2
PHANTOM
 70
     0
  3
Phantom ______  __  __  ______  __  __  ______
 72
    65
 73
     6
 40
2.5
 49
1.25
 74
     0
 49
-0.25
 74
     0
 49
0.25
 74
     0
 49
-0.25
 74
     0
 49
0.25
 74
     0
 49
-0.25
 74
     0
  0
LTYPE
  5
65
330
5
100
AcDbSymbolTableRecord
100
AcDbLinetypeTableRecord
  2
PHANTOM2
 70
     0
  3
Phantom (.5x) ___ _ _ ___ _ _ ___ _ _ ___ _ _
 72
    65
 73
     6
 40
1.25
 49
0.625
 74
     0
 49
-0.125
 74
     0
 49
0.125
 74
     0
 49
-0.125
 74
     0
 49
0.125
 74
     0
 49
-0.125
 74
     0
  0
LTYPE
  5
66
330
5
100
AcDbSymbolTableRecord
100
AcDbLinetypeTableRecord
  2
PHANTOMX2
 70
     0
  3
Phantom (2x) ____________    ____    ____   _
 72
    65
 73
     6
 40
5.0
 49
2.5
 74
     0
 49
-0.5
 74
     0
 49
0.5
 74
     0
 49
-0.5
 74
     0
 49
0.5
 74
     0
 49
-0.5
 74
     0
  0
LTYPE
  5
67
330
5
100
AcDbSymbolTableRecord
100
AcDbLinetypeTableRecord
  2
ACAD_ISO02W100
 70
     0
  3
ISO dash __ __ __ __ __ __ __ __ __ __ __ __ __
 72
    65
 73
     2
 40
0.59
 49
0.47
 74
     0
 49
-0.12
 74
     0
  0
LTYPE
  5
68
330
5
100
AcDbSymbolTableRecord
100
AcDbLinetypeTableRecord
  2
ACAD_ISO03W100
 70
     0
  3
ISO dash space __    __    __    __    __    __
 72
    65
 73
     2
 40
1.179999999999999
 49
0.47
 74
     0
 49
-0.71
 74
     0
  0
LTYPE
  5
69
330
5
100
AcDbSymbolTableRecord
100
AcDbLinetypeTableRecord
  2
ACAD_ISO04W100
 70
     0
  3
ISO long-dash dot ____ . ____ . ____ . ____ . _
 72
    65
 73
     4
 40
1.179999999999999
 49
0.9399999999999998
 74
     0
 49
-0.12
 74
     0
 49
0.0
 74
     0
 49
-0.12
 74
     0
  0
LTYPE
  5
6A
330
5
100
AcDbSymbolTableRecord
100
AcDbLinetypeTableRecord
  2
ACAD_ISO05W100
 70
     0
  3
ISO long-dash double-dot ____ .. ____ .. ____ .
 72
    65
 73
     6
 40
1.299999999999999
 49
0.9399999999999998
 74
     0
 49
-0.12
 74
     0
 49
0.0
 74
     0
 49
-0.12
 74
     0
 49
0.0
 74
     0
 49
-0.12
 74
     0
  0
LTYPE
  5
6B
330
5
100
AcDbSymbolTableRecord
100
AcDbLinetypeTableRecord
  2
ACAD_ISO06W100
 70
     0
  3
ISO long-dash triple-dot ____ ... ____ ... ____
 72
    65
 73
     8
 40
1.419999999999999
 49
0.9399999999999998
 74
     0
 49
-0.12
 74
     0
 49
0.0
 74
     0
 49
-0.12
 74
     0
 49
0.0
 74
     0
 49
-0.12
 74
     0
 49
0.0
 74
     0
 49
-0.12
 74
     0
  0
LTYPE
  5
6C
330
5
100
AcDbSymbolTableRecord
100
AcDbLinetypeTableRecord
  2
ACAD_ISO07W100
 70
     0
  3
ISO dot . . . . . . . . . . . . . . . . . . . .
 72
    65
 73
     2
 40
0.12
 49
0.0
 74
     0
 49
-0.12
 74
     0
  0
LTYPE
  5
6D
330
5
100
AcDbSymbolTableRecord
100
AcDbLinetypeTableRecord
  2
ACAD_ISO08W100
 70
     0
  3
ISO long-dash short-dash ____ __ ____ __ ____ _
 72
    65
 73
     4
 40
0.95
 49
0.47
 74
     0
 49
-0.12
 74
     0
 49
0.24
 74
     0
 49
-0.12
 74
     0
  0
LTYPE
  5
6E
330
5
100
AcDbSymbolTableRecord
100
AcDbLinetypeTableRecord
  2
ACAD_ISO09W100
 70
     0
  3
ISO long-dash double-short-dash ____ __ __ ____
 72
    65
 73
     6
 40
1.31
 49
0.47
 74
     0
 49
-0.12
 74
     0
 49
0.24
 74
     0
 49
-0.12
 74
     0
 49
0.24
 74
     0
 49
-0.12
 74
     0
  0
LTYPE
  5
6F
330
5
100
AcDbSymbolTableRecord
100
AcDbLinetypeTableRecord
  2
ACAD_ISO10W100
 70
     0
  3
ISO dash dot __ . __ . __ . __ . __ . __ . __ .
 72
    65
 73
     4
 40
0.71
 49
0.47
 74
     0
 49
-0.12
 74
     0
 49
0.0
 74
     0
 49
-0.12
 74
     0
  0
LTYPE
  5
70
330
5
100
AcDbSymbolTableRecord
100
AcDbLinetypeTableRecord
  2
ACAD_ISO11W100
 70
     0
  3
ISO double-dash dot __ __ . __ __ . __ __ . __ 
 72
    65
 73
     6
 40
1.299999999999999
 49
0.47
 74
     0
 49
-0.12
 74
     0
 49
0.47
 74
     0
 49
-0.12
 74
     0
 49
0.0
 74
     0
 49
-0.12
 74
     0
  0
LTYPE
  5
71
330
5
100
AcDbSymbolTableRecord
100
AcDbLinetypeTableRecord
  2
ACAD_ISO12W100
 70
     0
  3
ISO dash double-dot __ . . __ . . __ . . __ . .
 72
    65
 73
     6
 40
0.8299999999999998
 49
0.47
 74
     0
 49
-0.12
 74
     0
 49
0.0
 74
     0
 49
-0.12
 74
     0
 49
0.0
 74
     0
 49
-0.12
 74
     0
  0
LTYPE
  5
72
330
5
100
AcDbSymbolTableRecord
100
AcDbLinetypeTableRecord
  2
ACAD_ISO13W100
 70
     0
  3
ISO double-dash double-dot __ __ . . __ __ . . 
 72
    65
 73
     8
 40
1.419999999999999
 49
0.47
 74
     0
 49
-0.12
 74
     0
 49
0.47
 74
     0
 49
-0.12
 74
     0
 49
0.0
 74
     0
 49
-0.12
 74
     0
 49
0.0
 74
     0
 49
-0.12
 74
     0
  0
LTYPE
  5
73
330
5
100
AcDbSymbolTableRecord
100
AcDbLinetypeTableRecord
  2
ACAD_ISO14W100
 70
     0
  3
ISO dash triple-dot __ . . . __ . . . __ . . . 
 72
    65
 73
     8
 40
0.95
 49
0.47
 74
     0
 49
-0.12
 74
     0
 49
0.0
 74
     0
 49
-0.12
 74
     0
 49
0.0
 74
     0
 49
-0.12
 74
     0
 49
0.0
 74
     0
 49
-0.12
 74
     0
  0
LTYPE
  5
74
330
5
100
AcDbSymbolTableRecord
100
AcDbLinetypeTableRecord
  2
ACAD_ISO15W100
 70
     0
  3
ISO double-dash triple-dot __ __ . . . __ __ . 
 72
    65
 73
    10
 40
1.539999999999999
 49
0.47
 74
     0
 49
-0.12
 74
     0
 49
0.47
 74
     0
 49
-0.12
 74
     0
 49
0.0
 74
     0
 49
-0.12
 74
     0
 49
0.0
 74
     0
 49
-0.12
 74
     0
 49
0.0
 74
     0
 49
-0.12
 74
     0
  0
LTYPE
  5
77
330
5
100
AcDbSymbolTableRecord
100
AcDbLinetypeTableRecord
  2
FENCELINE1
 70
     0
  3
Fenceline circle ----0-----0----0-----0----0---
 72
    65
 73
     4
 40
1.45
 49
0.25
 74
     0
 49
-0.1
 74
     4
 75
   133
340
76
 46
0.1
 50
0.0
 44
-0.1
 45
0.0
 49
-0.1
 74
     0
 49
1.0
 74
     0
  0
LTYPE
  5
78
330
5
100
AcDbSymbolTableRecord
100
AcDbLinetypeTableRecord
  2
FENCELINE2
 70
     0
  3
Fenceline square ----[]-----[]----[]-----[]----
 72
    65
 73
     4
 40
1.45
 49
0.25
 74
     0
 49
-0.1
 74
     4
 75
   132
340
76
 46
0.1
 50
0.0
 44
-0.1
 45
0.0
 49
-0.1
 74
     0
 49
1.0
 74
     0
  0
LTYPE
  5
79
330
5
100
AcDbSymbolTableRecord
100
AcDbLinetypeTableRecord
  2
TRACKS
 70
     0
  3
Tracks -|-|-|-|-|-|-|-|-|-|-|-|-|-|-|-|-|-|-|-|
 72
    65
 73
     2
 40
0.3
 49
0.15
 74
     4
 75
   130
340
76
 46
0.25
 50
0.0
 44
0.0
 45
0.0
 49
0.15
 74
     0
  0
LTYPE
  5
7A
330
5
100
AcDbSymbolTableRecord
100
AcDbLinetypeTableRecord
  2
BATTING
 70
     0
  3
Batting SSSSSSSSSSSSSSSSSSSSSSSSSSSSSSSSSSSSSSS
 72
    65
 73
     4
 40
0.4001000000000001
 49
0.0001
 74
     0
 49
-0.1
 74
     4
 75
   134
340
76
 46
0.1
 50
0.0
 44
-0.1
 45
0.0
 49
-0.2
 74
     4
 75
   134
340
76
 46
0.1
 50
180.0
 44
0.1
 45
0.0
 49
-0.1
 74
     0
  0
LTYPE
  5
7B
330
5
100
AcDbSymbolTableRecord
100
AcDbLinetypeTableRecord
  2
HOT_WATER_SUPPLY
 70
     0
  3
Hot water supply ---- HW ---- HW ---- HW ----
 72
    65
 73
     3
 40
0.9
 49
0.5
 74
     0
 49
-0.2
 74
     2
 75
     0
340
26
 46
0.1
 50
0.0
 44
-0.1
 45
-0.05
  9
HW
 49
-0.2
 74
     0
  0
LTYPE
  5
7C
330
5
100
AcDbSymbolTableRecord
100
AcDbLinetypeTableRecord
  2
GAS_LINE
 70
     0
  3
Gas line ----GAS----GAS----GAS----GAS----GAS---
 72
    65
 73
     3
 40
0.95
 49
0.5
 74
     0
 49
-0.2
 74
     2
 75
     0
340
26
 46
0.1
 50
0.0
 44
-0.1
 45
-0.05
  9
GAS
 49
-0.25
 74
     0
  0
LTYPE
  5
7D
330
5
100
AcDbSymbolTableRecord
100
AcDbLinetypeTableRecord
  2
ZIGZAG
 70
     0
  3
Zig zag /\/\/\/\/\/\/\/\/\/\/\/\/\/\/\/\/\/\/\/
 72
    65
 73
     4
 40
0.8001000000000001
 49
0.0001
 74
     0
 49
-0.2
 74
     4
 75
   131
340
76
 46
0.2
 50
0.0
 44
-0.2
 45
0.0
 49
-0.4
 74
     4
 75
   131
340
76
 46
0.2
 50
180.0
 44
0.2
 45
0.0
 49
-0.2
 74
     0
  0
ENDTAB
  0
TABLE
  2
LAYER
  5
2
330
0
100
AcDbSymbolTable
 70
    26
  0
LAYER
  5
25
330
2
100
AcDbSymbolTableRecord
100
AcDbLayerTableRecord
  2
0
 70
     0
 62
     7
  6
Continuous
370
    -3
390
F
  0
LAYER
  5
81
330
2
100
AcDbSymbolTableRecord
100
AcDbLayerTableRecord
  2
Border (ANSI)
 70
     0
 62
     7
  6
Continuous
370
    70
390
F
  0
LAYER
  5
86
330
2
100
AcDbSymbolTableRecord
100
AcDbLayerTableRecord
  2
Dimension (ANSI)
 70
     0
 62
     7
  6
Continuous
370
    25
390
F
  0
LAYER
  5
89
330
2
100
AcDbSymbolTableRecord
100
AcDbLayerTableRecord
  2
Hidden Narrow (ANSI)
 70
     0
 62
     7
  6
DASHED
370
    25
390
F
  0
LAYER
  5
8E
330
2
100
AcDbSymbolTableRecord
100
AcDbLayerTableRecord
  2
Symbol (ANSI)
 70
     0
 62
     7
  6
Continuous
370
    25
390
F
  0
LAYER
  5
8F
330
2
100
AcDbSymbolTableRecord
100
AcDbLayerTableRecord
  2
Title (ANSI)
 70
     0
 62
     7
  6
Continuous
370
    50
390
F
  0
LAYER
  5
91
330
2
100
AcDbSymbolTableRecord
100
AcDbLayerTableRecord
  2
Visible (ANSI)
 70
     0
 62
     7
  6
Continuous
370
    50
390
F
  0
LAYER
  5
92
330
2
100
AcDbSymbolTableRecord
100
AcDbLayerTableRecord
  2
Visible Narrow (ANSI)
 70
     0
 62
     7
  6
Continuous
370
    35
390
F
  0
LAYER
  5
21F
330
2
100
AcDbSymbolTableRecord
100
AcDbLayerTableRecord
  2
Defpoints
 70
     0
 62
     7
  6
Continuous
290
     0
370
    -3
390
F
  0
ENDTAB
  0
TABLE
  2
STYLE
  5
3
330
0
100
AcDbSymbolTable
 70
    11
  0
STYLE
  5
26
330
3
100
AcDbSymbolTableRecord
100
AcDbTextStyleTableRecord
  2
Standard
 70
     0
 40
0.0
 41
1.0
 50
0.0
 71
     0
 42
0.2
  3
TAHOMA.TTF
  4

1001
ACAD
1000
Tahoma
1071
      256
  0
STYLE
  5
76
330
3
100
AcDbSymbolTableRecord
100
AcDbTextStyleTableRecord
  2

 70
     1
 40
0.0
 41
1.0
 50
0.0
 71
     0
 42
0.2
  3
ltypeshp.shx
  4

  0
STYLE
  5
96
330
3
100
AcDbSymbolTableRecord
100
AcDbTextStyleTableRecord
  2
Label Text (ANSI)
 70
     0
 40
0.0
 41
1.0
 50
0.0
 71
     0
 42
0.2
  3
TAHOMA.TTF
  4

1001
ACAD
1000
Tahoma
1071
      256
  0
STYLE
  5
97
330
3
100
AcDbSymbolTableRecord
100
AcDbTextStyleTableRecord
  2
Label Text (DIN)
 70
     0
 40
0.0
 41
1.0
 50
0.0
 71
     0
 42
0.2
  3
isocpeur.ttf
  4

1001
ACAD
1000
ISOCPEUR
1071
      256
  0
STYLE
  5
98
330
3
100
AcDbSymbolTableRecord
100
AcDbTextStyleTableRecord
  2
Label Text (ISO)
 70
     0
 40
0.0
 41
1.0
 50
0.0
 71
     0
 42
0.2
  3
TAHOMA.TTF
  4

1001
ACAD
1000
Tahoma
1071
      256
  0
STYLE
  5
99
330
3
100
AcDbSymbolTableRecord
100
AcDbTextStyleTableRecord
  2
Label Text (JIS)
 70
     0
 40
0.0
 41
1.0
 50
0.0
 71
     0
 42
0.2
  3
TAHOMA.TTF
  4

1001
ACAD
1000
Tahoma
1071
      256
  0
STYLE
  5
9A
330
3
100
AcDbSymbolTableRecord
100
AcDbTextStyleTableRecord
  2
Note Text (ANSI)
 70
     0
 40
0.0
 41
1.0
 50
0.0
 71
     0
 42
0.2
  3
TAHOMA.TTF
  4

1001
ACAD
1000
Tahoma
1071
      256
  0
STYLE
  5
9B
330
3
100
AcDbSymbolTableRecord
100
AcDbTextStyleTableRecord
  2
Note Text (DIN)
 70
     0
 40
0.0
 41
1.0
 50
0.0
 71
     0
 42
0.2
  3
isocpeur.ttf
  4

1001
ACAD
1000
ISOCPEUR
1071
      256
  0
STYLE
  5
9C
330
3
100
AcDbSymbolTableRecord
100
AcDbTextStyleTableRecord
  2
Note Text (ISO)
 70
     0
 40
0.0
 41
1.0
 50
0.0
 71
     0
 42
0.2
  3
TAHOMA.TTF
  4

1001
ACAD
1000
Tahoma
1071
      256
  0
STYLE
  5
9D
330
3
100
AcDbSymbolTableRecord
100
AcDbTextStyleTableRecord
  2
Note Text (JIS)
 70
     0
 40
0.0
 41
1.0
 50
0.0
 71
     0
 42
0.2
  3
TAHOMA.TTF
  4

1001
ACAD
1000
Tahoma
1071
      256
  0
STYLE
  5
F1
330
3
100
AcDbSymbolTableRecord
100
AcDbTextStyleTableRecord
  2
Text Style29
 70
     0
 40
0.0
 41
1.0
 50
0.0
 71
     0
 42
0.2
  3
TAHOMA.TTF
  4

1001
ACAD
1000
Tahoma
1071
      256
  0
ENDTAB
  0
TABLE
  2
VIEW
  5
6
330
0
100
AcDbSymbolTable
 70
     0
  0
ENDTAB
  0
TABLE
  2
UCS
  5
7
330
0
100
AcDbSymbolTable
 70
     0
  0
ENDTAB
  0
TABLE
  2
APPID
  5
9
330
0
100
AcDbSymbolTable
 70
     1
  0
APPID
  5
27
330
9
100
AcDbSymbolTableRecord
100
AcDbRegAppTableRecord
  2
ACAD
 70
     0
  0
ENDTAB
  0
TABLE
  2
DIMSTYLE
  5
A
330
0
100
AcDbSymbolTable
 70
    15
100
AcDbDimStyleTable
 71
     2
340
A6
340
3F
  0
DIMSTYLE
105
3F
330
A
100
AcDbSymbolTableRecord
100
AcDbDimStyleTableRecord
  2
Standard
 70
     0
340
26
  0
DIMSTYLE
105
9E
330
A
100
AcDbSymbolTableRecord
100
AcDbDimStyleTableRecord
  2
Architectural (ANSI)
 70
     0
 40
0.25
 41
0.0984251946210861
 42
0.0625
 43
0.2362204724409449
 44
0.125
 45
0.00000001
 46
0.3937007874015748
 78
     4
 79
     3
140
0.1200000047683716
144
0.0833333333333333
147
0.031496062992126
171
     1
176
   256
177
   256
178
   256
272
     2
274
     1
276
     2
277
     4
284
    12
286
    12
340
9A
371
    -1
372
    -1
  0
DIMSTYLE
105
9F
330
A
100
AcDbSymbolTableRecord
100
AcDbDimStyleTableRecord
  2
Architectural (ANSI)$7
 70
     0
 40
0.25
 41
0.0984251946210861
 42
0.0625
 43
0.2362204724409449
 44
0.125
 45
0.00000001
 46
0.3937007874015748
 78
     4
 79
     3
140
0.1200000047683716
144
0.0833333333333333
147
0.031496062992126
171
     1
176
   256
177
   256
178
   256
272
     2
274
     1
276
     2
277
     4
284
    12
286
    12
340
9A
371
    -1
372
    -1
  0
DIMSTYLE
105
A0
330
A
100
AcDbSymbolTableRecord
100
AcDbDimStyleTableRecord
  2
Default - Fraction (ANSI)
 70
     0
 40
0.25
 41
0.0984251946210861
 42
0.0625
 43
0.2362204724409449
 44
0.125
 45
0.00000001
 46
0.3937007874015748
 78
    12
 79
     3
140
0.1200000047683716
147
0.031496062992126
171
     1
176
   256
177
   256
178
   256
272
     2
274
     1
276
     2
277
     5
284
    12
286
    12
340
9A
371
    -1
372
    -1
  0
DIMSTYLE
105
A1
330
A
100
AcDbSymbolTableRecord
100
AcDbDimStyleTableRecord
  2
Default - Fraction (ANSI)$7
 70
     0
 40
0.25
 41
0.0984251946210861
 42
0.0625
 43
0.2362204724409449
 44
0.125
 45
0.00000001
 46
0.3937007874015748
 78
    12
 79
     3
140
0.1200000047683716
147
0.031496062992126
171
     1
176
   256
177
   256
178
   256
272
     2
274
     1
276
     2
277
     5
284
    12
286
    12
340
9A
371
    -1
372
    -1
  0
DIMSTYLE
105
A2
330
A
100
AcDbSymbolTableRecord
100
AcDbDimStyleTableRecord
  2
Default - mm (ANSI)
 70
     0
 40
0.25
 41
0.0984251946210861
 42
0.063
 43
0.2362204724409449
 44
0.125
 45
0.00000001
 46
0.3937007874015748
 73
     0
140
0.1200000047683716
143
1.0
144
25.4
147
0.031496062992126
171
     1
176
   256
177
   256
178
   256
179
     1
271
     2
272
     2
274
     1
340
9A
371
    -1
372
    -1
  0
DIMSTYLE
105
A3
330
A
100
AcDbSymbolTableRecord
100
AcDbDimStyleTableRecord
  2
Default - mm (ANSI)$7
 70
     0
 40
0.25
 41
0.0984251946210861
 42
0.063
 43
0.2362204724409449
 44
0.125
 45
0.00000001
 46
0.3937007874015748
 73
     0
140
0.1200000047683716
143
1.0
144
25.4
147
0.031496062992126
171
     1
176
   256
177
   256
178
   256
179
     1
271
     2
272
     2
274
     1
340
9A
371
    -1
372
    -1
  0
DIMSTYLE
105
A4
330
A
100
AcDbSymbolTableRecord
100
AcDbDimStyleTableRecord
  2
Default - mm [in] (ANSI)
 70
     0
  4
 in
 40
0.25
 41
0.0984251946210861
 42
0.063
 43
0.25
 44
0.125
 45
0.00000001
 46
0.3937007874015748
 73
     0
 78
     4
 79
     1
140
0.1200000047683716
143
0.03937
144
25.4
147
0.031496062992126
170
     1
171
     3
176
   256
177
   256
178
   256
179
     1
271
     2
272
     2
274
     3
284
     4
286
     4
340
9A
371
    -1
372
    -1
  0
DIMSTYLE
105
A5
330
A
100
AcDbSymbolTableRecord
100
AcDbDimStyleTableRecord
  2
Default - mm [in] (ANSI)$7
 70
     0
  4
 in
 40
0.25
 41
0.0984251946210861
 42
0.063
 43
0.25
 44
0.125
 45
0.00000001
 46
0.3937007874015748
 73
     0
 78
     4
 79
     1
140
0.1200000047683716
143
0.03937
144
25.4
147
0.031496062992126
170
     1
171
     3
176
   256
177
   256
178
   256
179
     1
271
     2
272
     2
274
     3
284
     4
286
     4
340
9A
371
    -1
372
    -1
  0
DIMSTYLE
105
A6
102
{ACAD_REACTORS
330
21E
330
2EB
330
3B7
102
}
330
A
100
AcDbSymbolTableRecord
100
AcDbDimStyleTableRecord
  2
Default (ANSI)
 70
     0
 40
0.25
 41
0.0984251946210861
 42
0.0625
 43
0.2362204724409449
 44
0.125
 45
0.00000001
 46
0.3937007874015748
140
0.1200000047683716
147
0.031496062992126
171
     1
176
   256
177
   256
178
   256
179
     2
271
     3
272
     3
274
     1
340
9A
371
    -1
372
    -1
  0
DIMSTYLE
105
A7
330
A
100
AcDbSymbolTableRecord
100
AcDbDimStyleTableRecord
  2
Default (ANSI)$7
 70
     0
 40
0.25
 41
0.0984251946210861
 42
0.0625
 43
0.2362204724409449
 44
0.125
 45
0.00000001
 46
0.3937007874015748
140
0.1200000047683716
147
0.031496062992126
171
     1
176
   256
177
   256
178
   256
179
     2
271
     3
272
     3
274
     1
340
9A
371
    -1
372
    -1
  0
DIMSTYLE
105
B6
330
A
100
AcDbSymbolTableRecord
100
AcDbDimStyleTableRecord
  2
Miscellaneous Object (ANSI)
 70
     0
 40
0.25
 41
0.1968503892421722
 42
0.0625
 43
0.2362204724409449
 44
0.125
 45
0.00000001
 46
0.3937007874015748
140
0.1799999922513962
146
0.666666721856155
147
0.031496062992126
171
     1
176
   256
177
   256
178
   256
271
     2
272
     2
274
     1
340
96
341
A8
371
    -1
372
    -1
  0
DIMSTYLE
105
B7
330
A
100
AcDbSymbolTableRecord
100
AcDbDimStyleTableRecord
  2
Miscellaneous Object (ANSI)$7
 70
     0
 40
0.25
 41
0.1959999948740005
 42
0.0625
 43
0.2362204724409449
 44
0.125
 45
0.00000001
 46
0.3937007874015748
140
0.1799999922513962
146
0.666666721856155
147
0.031496062992126
171
     1
176
   256
177
   256
178
   256
271
     2
272
     2
274
     1
340
96
341
A8
371
    -1
372
    -1
  0
DIMSTYLE
105
B8
330
A
100
AcDbSymbolTableRecord
100
AcDbDimStyleTableRecord
  2
Alternate (ANSI)
 70
     0
 40
0.25
 41
0.0979999974370003
340
26
342
B9
  0
DIMSTYLE
105
CA
330
A
100
AcDbSymbolTableRecord
100
AcDbDimStyleTableRecord
  2
Datum (ANSI)
 70
     0
 40
0.25
 41
0.0979999974370003
340
26
342
B9
  0
ENDTAB
  0
TABLE
  2
BLOCK_RECORD
  5
1
330
0
100
AcDbSymbolTable
 70
     9
  0
BLOCK_RECORD
  5
37
330
1
100
AcDbSymbolTableRecord
100
AcDbBlockTableRecord
  2
*Model_Space
340
3A
  0
BLOCK_RECORD
  5
33
330
1
100
AcDbSymbolTableRecord
100
AcDbBlockTableRecord
  2
*Paper_Space
340
36
  0
BLOCK_RECORD
  5
3B
330
1
100
AcDbSymbolTableRecord
100
AcDbBlockTableRecord
  2
*Paper_Space0
340
3E
  0
BLOCK_RECORD
  5
A8
330
1
100
AcDbSymbolTableRecord
100
AcDbBlockTableRecord
  2
Filled-1
340
0
  0
BLOCK_RECORD
  5
B9
330
1
100
AcDbSymbolTableRecord
100
AcDbBlockTableRecord
  2
_Closed
340
0
  0
BLOCK_RECORD
  5
C0
330
1
100
AcDbSymbolTableRecord
100
AcDbBlockTableRecord
  2
DatumFilled45
340
0
  0
BLOCK_RECORD
  5
CB
330
1
100
AcDbSymbolTableRecord
100
AcDbBlockTableRecord
  2
Borders Default Border
340
0
102
{BLKREFS
331
FC
102
}
  0
BLOCK_RECORD
  5
220
330
1
100
AcDbSymbolTableRecord
100
AcDbBlockTableRecord
  2
*D5
340
0
  0
BLOCK_RECORD
  5
2EC
330
1
100
AcDbSymbolTableRecord
100
AcDbBlockTableRecord
  2
*D6
340
0
  0
BLOCK_RECORD
  5
3B8
330
1
100
AcDbSymbolTableRecord
100
AcDbBlockTableRecord
  2
*D7
340
0
  0
BLOCK_RECORD
  5
483
330
1
100
AcDbSymbolTableRecord
100
AcDbBlockTableRecord
  2
Title Blocks ANSI A
340
0
102
{BLKREFS
331
4B3
102
}
  0
ENDTAB
  0
ENDSEC
  0
SECTION
  2
BLOCKS
  0
BLOCK
  5
38
330
37
100
AcDbEntity
  8
0
100
AcDbBlockBegin
  2
*Model_Space
 70
     0
 10
0.0
 20
0.0
 30
0.0
  3
*Model_Space
  1

  0
ENDBLK
  5
39
330
37
100
AcDbEntity
  8
0
100
AcDbBlockEnd
  0
BLOCK
  5
34
330
33
100
AcDbEntity
 67
     1
  8
0
100
AcDbBlockBegin
  2
*Paper_Space
 70
     0
 10
0.0
 20
0.0
 30
0.0
  3
*Paper_Space
  1

  0
ENDBLK
  5
35
330
33
100
AcDbEntity
 67
     1
  8
0
100
AcDbBlockEnd
  0
BLOCK
  5
3C
330
3B
100
AcDbEntity
 67
     1
  8
0
100
AcDbBlockBegin
  2
*Paper_Space0
 70
     0
 10
0.0
 20
0.0
 30
0.0
  3
*Paper_Space0
  1

  0
ENDBLK
  5
3D
330
3B
100
AcDbEntity
 67
     1
  8
0
100
AcDbBlockEnd
  0
BLOCK
  5
A9
330
A8
100
AcDbEntity
  8
0
100
AcDbBlockBegin
  2
Filled-1
 70
     0
 10
0.0
 20
0.0
 30
0.0
  3
Filled-1
  1

  0
LINE
  5
AB
330
A8
100
AcDbEntity
  8
0
 62
     0
100
AcDbLine
 10
-0.9999999999999998
 20
0.0
 30
0.0
 11
0.0
 21
0.0
 31
0.0
  0
POLYLINE
  5
AC
330
A8
100
AcDbEntity
  8
0
 62
     0
100
AcDb2dPolyline
 66
     1
 10
0.0
 20
0.0
 30
0.0
 70
   128
  0
VERTEX
  5
AD
330
AC
100
AcDbEntity
  8
0
 62
     0
100
AcDbVertex
100
AcDb2dVertex
 10
-0.9999999999999998
 20
-0.0994897959183674
 30
0.0
  0
VERTEX
  5
AE
330
AC
100
AcDbEntity
  8
0
 62
     0
100
AcDbVertex
100
AcDb2dVertex
 10
0.0
 20
0.0
 30
0.0
  0
VERTEX
  5
B0
330
AC
100
AcDbEntity
  8
0
 62
     0
100
AcDbVertex
100
AcDb2dVertex
 10
-0.9999999999999998
 20
0.0994897959183674
 30
0.0
  0
VERTEX
  5
B1
330
AC
100
AcDbEntity
  8
0
 62
     0
100
AcDbVertex
100
AcDb2dVertex
 10
-0.9999999999999998
 20
-0.0994897959183674
 30
0.0
  0
SEQEND
  5
AF
330
AC
100
AcDbEntity
  8
0
 62
     0
  0
SOLID
  5
B2
330
A8
100
AcDbEntity
  8
0
 62
     0
100
AcDbTrace
 10
-0.9999999999999998
 20
-0.0994897959183674
 30
0.0
 11
0.0
 21
0.0
 31
0.0
 12
-0.9999999999999998
 22
0.0994897959183674
 32
0.0
 13
-0.9999999999999998
 23
-0.0994897959183674
 33
0.0
  0
LINE
  5
B3
330
A8
100
AcDbEntity
  8
0
 62
     0
100
AcDbLine
 10
-0.9999999999999998
 20
-0.0994897959183674
 30
0.0
 11
0.0
 21
0.0
 31
0.0
  0
LINE
  5
B4
330
A8
100
AcDbEntity
  8
0
 62
     0
100
AcDbLine
 10
0.0
 20
0.0
 30
0.0
 11
-0.9999999999999998
 21
0.0994897959183674
 31
0.0
  0
LINE
  5
B5
330
A8
100
AcDbEntity
  8
0
 62
     0
100
AcDbLine
 10
-0.9999999999999998
 20
0.0994897959183674
 30
0.0
 11
-0.9999999999999998
 21
-0.0994897959183674
 31
0.0
  0
ENDBLK
  5
AA
330
A8
100
AcDbEntity
  8
0
100
AcDbBlockEnd
  0
BLOCK
  5
BE
330
B9
100
AcDbEntity
  8
0
100
AcDbBlockBegin
  2
_Closed
 70
     0
 10
0.0
 20
0.0
 30
0.0
  3
_Closed
  1

  0
LINE
  5
BA
330
B9
100
AcDbEntity
  8
0
  6
ByBlock
 62
     0
370
    -2
100
AcDbLine
 10
-1.0
 20
0.1666666666666666
 30
0.0
 11
0.0
 21
0.0
 31
0.0
  0
LINE
  5
BB
330
B9
100
AcDbEntity
  8
0
  6
ByBlock
 62
     0
370
    -2
100
AcDbLine
 10
0.0
 20
0.0
 30
0.0
 11
-1.0
 21
-0.1666666666666666
 31
0.0
  0
LINE
  5
BC
330
B9
100
AcDbEntity
  8
0
  6
ByBlock
 62
     0
370
    -2
100
AcDbLine
 10
-1.0
 20
0.1666666666666666
 30
0.0
 11
-1.0
 21
-0.1666666666666666
 31
0.0
  0
LINE
  5
BD
330
B9
100
AcDbEntity
  8
0
  6
ByBlock
 62
     0
370
    -2
100
AcDbLine
 10
0.0
 20
0.0
 30
0.0
 11
-1.0
 21
0.0
 31
0.0
  0
ENDBLK
  5
BF
330
B9
100
AcDbEntity
  8
0
100
AcDbBlockEnd
  0
BLOCK
  5
C1
330
C0
100
AcDbEntity
  8
0
100
AcDbBlockBegin
  2
DatumFilled45
 70
     0
 10
0.0
 20
0.0
 30
0.0
  3
DatumFilled45
  1

  0
POLYLINE
  5
C3
330
C0
100
AcDbEntity
  8
0
 62
     0
100
AcDb2dPolyline
 66
     1
 10
0.0
 20
0.0
 30
0.0
 70
   128
  0
VERTEX
  5
C4
330
C3
100
AcDbEntity
  8
0
 62
     0
100
AcDbVertex
100
AcDb2dVertex
 10
0.0
 20
0.9999999999999998
 30
0.0
  0
VERTEX
  5
C5
330
C3
100
AcDbEntity
  8
0
 62
     0
100
AcDbVertex
100
AcDb2dVertex
 10
0.0
 20
-0.9999999999999998
 30
0.0
  0
VERTEX
  5
C7
330
C3
100
AcDbEntity
  8
0
 62
     0
100
AcDbVertex
100
AcDb2dVertex
 10
-0.9999999999999998
 20
0.0
 30
0.0
  0
VERTEX
  5
C8
330
C3
100
AcDbEntity
  8
0
 62
     0
100
AcDbVertex
100
AcDb2dVertex
 10
0.0
 20
0.9999999999999998
 30
0.0
  0
SEQEND
  5
C6
330
C3
100
AcDbEntity
  8
0
 62
     0
  0
SOLID
  5
C9
330
C0
100
AcDbEntity
  8
0
 62
     0
100
AcDbTrace
 10
0.0
 20
0.9999999999999998
 30
0.0
 11
0.0
 21
-0.9999999999999998
 31
0.0
 12
-0.9999999999999998
 22
0.0
 32
0.0
 13
0.0
 23
0.9999999999999998
 33
0.0
  0
ENDBLK
  5
C2
330
C0
100
AcDbEntity
  8
0
100
AcDbBlockEnd
  0
BLOCK
  5
CC
330
CB
100
AcDbEntity
  8
0
100
AcDbBlockBegin
  2
Borders Default Border
 70
     0
 10
0.0
 20
0.0
 30
0.0
  3
Borders Default Border
  1

  0
POLYLINE
  5
CE
330
CB
100
AcDbEntity
  8
Border (ANSI)
100
AcDb2dPolyline
 66
     1
 10
0.0
 20
0.0
 30
0.0
 70
   128
  0
VERTEX
  5
CF
330
CE
100
AcDbEntity
  8
Border (ANSI)
100
AcDbVertex
100
AcDb2dVertex
 10
0.380000002740875
 20
0.380000002740875
 30
0.0
  0
VERTEX
  5
D0
330
CE
100
AcDbEntity
  8
Border (ANSI)
100
AcDbVertex
100
AcDb2dVertex
 10
0.380000002740875
 20
8.119999893068328
 30
0.0
  0
VERTEX
  5
D2
330
CE
100
AcDbEntity
  8
Border (ANSI)
100
AcDbVertex
100
AcDb2dVertex
 10
10.62000004325326
 20
8.119999893068328
 30
0.0
  0
VERTEX
  5
D3
330
CE
100
AcDbEntity
  8
Border (ANSI)
100
AcDbVertex
100
AcDb2dVertex
 10
10.62000004325326
 20
0.380000002740875
 30
0.0
  0
VERTEX
  5
D4
330
CE
100
AcDbEntity
  8
Border (ANSI)
100
AcDbVertex
100
AcDb2dVertex
 10
0.380000002740875
 20
0.380000002740875
 30
0.0
  0
SEQEND
  5
D1
330
CE
100
AcDbEntity
  8
Border (ANSI)
  0
POLYLINE
  5
D5
330
CB
100
AcDbEntity
  8
Border (ANSI)
100
AcDb2dPolyline
 66
     1
 10
0.0
 20
0.0
 30
0.0
 70
   128
  0
VERTEX
  5
D6
330
D5
100
AcDbEntity
  8
Border (ANSI)
100
AcDbVertex
100
AcDb2dVertex
 10
5.500000105129451
 20
0.1299999947623005
 30
0.0
  0
VERTEX
  5
D7
330
D5
100
AcDbEntity
  8
Border (ANSI)
100
AcDbVertex
100
AcDb2dVertex
 10
5.500000105129451
 20
0.380000002740875
 30
0.0
  0
VERTEX
  5
D9
330
D5
100
AcDbEntity
  8
Border (ANSI)
100
AcDbVertex
100
AcDb2dVertex
 10
5.413397466103861
 20
0.2300000096869281
 30
0.0
  0
VERTEX
  5
DA
330
D5
100
AcDbEntity
  8
Border (ANSI)
100
AcDbVertex
100
AcDb2dVertex
 10
5.586602368692712
 20
0.2300000096869281
 30
0.0
  0
VERTEX
  5
DB
330
D5
100
AcDbEntity
  8
Border (ANSI)
100
AcDbVertex
100
AcDb2dVertex
 10
5.500000105129451
 20
0.380000002740875
 30
0.0
  0
SEQEND
  5
D8
330
D5
100
AcDbEntity
  8
Border (ANSI)
  0
POLYLINE
  5
DC
330
CB
100
AcDbEntity
  8
Border (ANSI)
100
AcDb2dPolyline
 66
     1
 10
0.0
 20
0.0
 30
0.0
 70
   128
  0
VERTEX
  5
DD
330
DC
100
AcDbEntity
  8
Border (ANSI)
100
AcDbVertex
100
AcDb2dVertex
 10
5.500000105129451
 20
8.369999983179287
 30
0.0
  0
VERTEX
  5
DE
330
DC
100
AcDbEntity
  8
Border (ANSI)
100
AcDbVertex
100
AcDb2dVertex
 10
5.500000105129451
 20
8.119999893068328
 30
0.0
  0
VERTEX
  5
E0
330
DC
100
AcDbEntity
  8
Border (ANSI)
100
AcDbVertex
100
AcDb2dVertex
 10
5.413397466103861
 20
8.270000097319835
 30
0.0
  0
VERTEX
  5
E1
330
DC
100
AcDbEntity
  8
Border (ANSI)
100
AcDbVertex
100
AcDb2dVertex
 10
5.586602368692712
 20
8.270000097319835
 30
0.0
  0
VERTEX
  5
E2
330
DC
100
AcDbEntity
  8
Border (ANSI)
100
AcDbVertex
100
AcDb2dVertex
 10
5.500000105129451
 20
8.119999893068328
 30
0.0
  0
SEQEND
  5
DF
330
DC
100
AcDbEntity
  8
Border (ANSI)
  0
POLYLINE
  5
E3
330
CB
100
AcDbEntity
  8
Border (ANSI)
100
AcDb2dPolyline
 66
     1
 10
0.0
 20
0.0
 30
0.0
 70
   128
  0
VERTEX
  5
E4
330
E3
100
AcDbEntity
  8
Border (ANSI)
100
AcDbVertex
100
AcDb2dVertex
 10
0.1299999947623005
 20
4.250000030036986
 30
0.0
  0
VERTEX
  5
E5
330
E3
100
AcDbEntity
  8
Border (ANSI)
100
AcDbVertex
100
AcDb2dVertex
 10
0.380000002740875
 20
4.250000030036986
 30
0.0
  0
VERTEX
  5
E7
330
E3
100
AcDbEntity
  8
Border (ANSI)
100
AcDbVertex
100
AcDb2dVertex
 10
0.2300000096869281
 20
4.336602669062576
 30
0.0
  0
VERTEX
  5
E8
330
E3
100
AcDbEntity
  8
Border (ANSI)
100
AcDbVertex
100
AcDb2dVertex
 10
0.2300000096869281
 20
4.163397391011395
 30
0.0
  0
VERTEX
  5
E9
330
E3
100
AcDbEntity
  8
Border (ANSI)
100
AcDbVertex
100
AcDb2dVertex
 10
0.380000002740875
 20
4.250000030036986
 30
0.0
  0
SEQEND
  5
E6
330
E3
100
AcDbEntity
  8
Border (ANSI)
  0
POLYLINE
  5
EA
330
CB
100
AcDbEntity
  8
Border (ANSI)
100
AcDb2dPolyline
 66
     1
 10
0.0
 20
0.0
 30
0.0
 70
   128
  0
VERTEX
  5
EB
330
EA
100
AcDbEntity
  8
Border (ANSI)
100
AcDbVertex
100
AcDb2dVertex
 10
10.87000013336422
 20
4.250000030036986
 30
0.0
  0
VERTEX
  5
EC
330
EA
100
AcDbEntity
  8
Border (ANSI)
100
AcDbVertex
100
AcDb2dVertex
 10
10.62000004325326
 20
4.250000030036986
 30
0.0
  0
VERTEX
  5
EE
330
EA
100
AcDbEntity
  8
Border (ANSI)
100
AcDbVertex
100
AcDb2dVertex
 10
10.77000024750476
 20
4.336602669062576
 30
0.0
  0
VERTEX
  5
EF
330
EA
100
AcDbEntity
  8
Border (ANSI)
100
AcDbVertex
100
AcDb2dVertex
 10
10.77000024750476
 20
4.163397391011395
 30
0.0
  0
VERTEX
  5
F0
330
EA
100
AcDbEntity
  8
Border (ANSI)
100
AcDbVertex
100
AcDb2dVertex
 10
10.62000004325326
 20
4.250000030036986
 30
0.0
  0
SEQEND
  5
ED
330
EA
100
AcDbEntity
  8
Border (ANSI)
  0
MTEXT
  5
F2
330
CB
100
AcDbEntity
  8
Border (ANSI)
100
AcDbMText
 10
8.24092395498058
 20
8.16
 30
0.0
 40
0.1200000014830762
 41
0.0
 71
     7
 72
     1
  1
1
  7
Text Style29
 73
     1
 44
1.0
1001
ACAD
1000
MTEXTBEGIN
1070
    73
1070
     1
1070
    44
1040
1.0
1070
    74
1070
     0
1000
MTEXTEND
  0
MTEXT
  5
F5
330
CB
100
AcDbEntity
  8
Border (ANSI)
100
AcDbMText
 10
8.24092395498058
 20
0.2199999985169238
 30
0.0
 40
0.1200000014830762
 41
0.0
 71
     7
 72
     1
  1
1
  7
Text Style29
 73
     1
 44
1.0
1001
ACAD
1000
MTEXTBEGIN
1070
    73
1070
     1
1070
    44
1040
1.0
1070
    74
1070
     0
1000
MTEXTEND
  0
MTEXT
  5
F6
330
CB
100
AcDbEntity
  8
Border (ANSI)
100
AcDbMText
 10
2.722276993858532
 20
8.16
 30
0.0
 40
0.1200000014830762
 41
0.0
 71
     7
 72
     1
  1
2
  7
Text Style29
 73
     1
 44
1.0
1001
ACAD
1000
MTEXTBEGIN
1070
    73
1070
     1
1070
    44
1040
1.0
1070
    74
1070
     0
1000
MTEXTEND
  0
MTEXT
  5
F7
330
CB
100
AcDbEntity
  8
Border (ANSI)
100
AcDbMText
 10
2.722276993858532
 20
0.2199999985169238
 30
0.0
 40
0.1200000014830762
 41
0.0
 71
     7
 72
     1
  1
2
  7
Text Style29
 73
     1
 44
1.0
1001
ACAD
1000
MTEXTBEGIN
1070
    73
1070
     1
1070
    44
1040
1.0
1070
    74
1070
     0
1000
MTEXTEND
  0
MTEXT
  5
F8
330
CB
100
AcDbEntity
  8
Border (ANSI)
100
AcDbMText
 10
0.2281865791448458
 20
2.064999999258461
 30
0.0
 40
0.1200000014830762
 41
0.0
 71
     7
 72
     1
  1
A
  7
Text Style29
 73
     1
 44
1.0
1001
ACAD
1000
MTEXTBEGIN
1070
    73
1070
     1
1070
    44
1040
1.0
1070
    74
1070
     0
1000
MTEXTEND
  0
MTEXT
  5
F9
330
CB
100
AcDbEntity
  8
Border (ANSI)
100
AcDbMText
 10
10.66818658062792
 20
2.064999999258461
 30
0.0
 40
0.1200000014830762
 41
0.0
 71
     7
 72
     1
  1
A
  7
Text Style29
 73
     1
 44
1.0
1001
ACAD
1000
MTEXTBEGIN
1070
    73
1070
     1
1070
    44
1040
1.0
1070
    74
1070
     0
1000
MTEXTEND
  0
MTEXT
  5
FA
330
CB
100
AcDbEntity
  8
Border (ANSI)
100
AcDbMText
 10
0.2554072225563169
 20
6.314999999258461
 30
0.0
 40
0.1200000014830762
 41
0.0
 71
     7
 72
     1
  1
B
  7
Text Style29
 73
     1
 44
1.0
1001
ACAD
1000
MTEXTBEGIN
1070
    73
1070
     1
1070
    44
1040
1.0
1070
    74
1070
     0
1000
MTEXTEND
  0
MTEXT
  5
FB
330
CB
100
AcDbEntity
  8
Border (ANSI)
100
AcDbMText
 10
10.69540722403939
 20
6.314999999258461
 30
0.0
 40
0.1200000014830762
 41
0.0
 71
     7
 72
     1
  1
B
  7
Text Style29
 73
     1
 44
1.0
1001
ACAD
1000
MTEXTBEGIN
1070
    73
1070
     1
1070
    44
1040
1.0
1070
    74
1070
     0
1000
MTEXTEND
  0
ENDBLK
  5
CD
330
CB
100
AcDbEntity
  8
0
100
AcDbBlockEnd
  0
BLOCK
  5
22B
330
220
100
AcDbEntity
  8
0
100
AcDbBlockBegin
  2
*D5
 70
     1
 10
0.0
 20
0.0
 30
0.0
  3
*D5
  1

  0
LINE
  5
2E1
330
220
100
AcDbEntity
  8
Dimension (ANSI)
100
AcDbLine
 10
0.2560530130006934
 20
1.812081157073336
 30
0.0
 11
0.1565824021018217
 21
1.812081157073336
 31
0.0
  0
LINE
  5
2E2
330
220
100
AcDbEntity
  8
Dimension (ANSI)
100
AcDbLine
 10
0.2560530130006934
 20
1.362081157073336
 30
0.0
 11
0.1565824021018217
 21
1.362081157073336
 31
0.0
  0
LINE
  5
2E3
330
220
100
AcDbEntity
  8
Dimension (ANSI)
100
AcDbLine
 10
0.1878324021018217
 20
1.787474858418065
 30
0.0
 11
0.1878324021018217
 21
1.621405299636505
 31
0.0
  0
LINE
  5
2E4
330
220
100
AcDbEntity
  8
Dimension (ANSI)
100
AcDbLine
 10
0.1878324021018217
 20
1.386687455728608
 30
0.0
 11
0.1878324021018217
 21
1.574428254139271
 31
0.0
  0
SOLID
  5
2E5
330
220
100
AcDbEntity
  8
Dimension (ANSI)
100
AcDbTrace
 10
0.1837313523259432
 20
1.787474858418065
 30
0.0
 11
0.1919334518777003
 21
1.787474858418065
 31
0.0
 12
0.1878324021018217
 22
1.812081157073336
 32
0.0
 13
0.1878324021018217
 23
1.812081157073336
 33
0.0
  0
SOLID
  5
2E6
330
220
100
AcDbEntity
  8
Dimension (ANSI)
100
AcDbTrace
 10
0.1837313523259431
 20
1.386687455728608
 30
0.0
 11
0.1919334518777002
 21
1.386687455728608
 31
0.0
 12
0.1878324021018217
 22
1.362081157073336
 32
0.0
 13
0.1878324021018217
 23
1.362081157073336
 33
0.0
  0
MTEXT
  5
2E7
330
220
100
AcDbEntity
  8
Dimension (ANSI)
100
AcDbMText
 10
0.1382084914664119
 20
1.613531283888474
 30
0.0
 40
0.0300000011920929
 41
0.0
 71
     1
 72
     1
  1
\A1;0.450
  7
Note Text (ANSI)
 73
     1
 44
1.0
1001
ACAD
1000
MTEXTBEGIN
1070
    73
1070
     1
1070
    44
1040
1.0
1070
    74
1070
     0
1000
MTEXTEND
  0
POINT
  5
2E8
330
220
100
AcDbEntity
  8
Defpoints
 62
     0
100
AcDbPoint
 10
0.2716780130006934
 20
1.812081157073336
 30
0.0
  0
POINT
  5
2E9
330
220
100
AcDbEntity
  8
Defpoints
 62
     0
100
AcDbPoint
 10
0.2716780130006934
 20
1.362081157073336
 30
0.0
  0
POINT
  5
2EA
330
220
100
AcDbEntity
  8
Defpoints
 62
     0
100
AcDbPoint
 10
0.1878324021018217
 20
1.362081157073336
 30
0.0
  0
ENDBLK
  5
22C
330
220
100
AcDbEntity
  8
0
100
AcDbBlockEnd
  0
BLOCK
  5
2F7
330
2EC
100
AcDbEntity
  8
0
100
AcDbBlockBegin
  2
*D6
 70
     1
 10
0.0
 20
0.0
 30
0.0
  3
*D6
  1

  0
LINE
  5
3AD
330
2EC
100
AcDbEntity
  8
Dimension (ANSI)
100
AcDbLine
 10
0.2560530130007796
 20
1.202291704604507
 30
0.0
 11
0.1420028161503859
 21
1.202291704604507
 31
0.0
  0
LINE
  5
3AE
330
2EC
100
AcDbEntity
  8
Dimension (ANSI)
100
AcDbLine
 10
0.2560530130007794
 20
0.7522917046045074
 30
0.0
 11
0.1420028161503858
 21
0.7522917046045075
 31
0.0
  0
LINE
  5
3AF
330
2EC
100
AcDbEntity
  8
Dimension (ANSI)
100
AcDbLine
 10
0.1732528161503859
 20
1.177685405949236
 30
0.0
 11
0.1732528161503859
 21
1.000780227353124
 31
0.0
  0
LINE
  5
3B0
330
2EC
100
AcDbEntity
  8
Dimension (ANSI)
100
AcDbLine
 10
0.1732528161503858
 20
0.7768980032597791
 30
0.0
 11
0.1732528161503859
 21
0.9538031818558902
 31
0.0
  0
SOLID
  5
3B1
330
2EC
100
AcDbEntity
  8
Dimension (ANSI)
100
AcDbTrace
 10
0.1691517663745073
 20
1.177685405949236
 30
0.0
 11
0.1773538659262645
 21
1.177685405949236
 31
0.0
 12
0.1732528161503859
 22
1.202291704604507
 32
0.0
 13
0.1732528161503859
 23
1.202291704604507
 33
0.0
  0
SOLID
  5
3B2
330
2EC
100
AcDbEntity
  8
Dimension (ANSI)
100
AcDbTrace
 10
0.1691517663745072
 20
0.7768980032597791
 30
0.0
 11
0.1773538659262644
 21
0.7768980032597791
 31
0.0
 12
0.1732528161503858
 22
0.7522917046045075
 32
0.0
 13
0.1732528161503858
 23
0.7522917046045075
 33
0.0
  0
MTEXT
  5
3B3
330
2EC
100
AcDbEntity
  8
Dimension (ANSI)
100
AcDbMText
 10
0.1236289055149762
 20
0.992906211605093
 30
0.0
 40
0.0300000011920929
 41
0.0
 71
     1
 72
     1
  1
\A1;0.450
  7
Note Text (ANSI)
 73
     1
 44
1.0
1001
ACAD
1000
MTEXTBEGIN
1070
    73
1070
     1
1070
    44
1040
1.0
1070
    74
1070
     0
1000
MTEXTEND
  0
POINT
  5
3B4
330
2EC
100
AcDbEntity
  8
Defpoints
 62
     0
100
AcDbPoint
 10
0.2716780130007796
 20
1.202291704604507
 30
0.0
  0
POINT
  5
3B5
330
2EC
100
AcDbEntity
  8
Defpoints
 62
     0
100
AcDbPoint
 10
0.2716780130007794
 20
0.7522917046045074
 30
0.0
  0
POINT
  5
3B6
330
2EC
100
AcDbEntity
  8
Defpoints
 62
     0
100
AcDbPoint
 10
0.1732528161503858
 20
0.7522917046045075
 30
0.0
  0
ENDBLK
  5
2F8
330
2EC
100
AcDbEntity
  8
0
100
AcDbBlockEnd
  0
BLOCK
  5
3C3
330
3B8
100
AcDbEntity
  8
0
100
AcDbBlockBegin
  2
*D7
 70
     1
 10
0.0
 20
0.0
 30
0.0
  3
*D7
  1

  0
LINE
  5
479
330
3B8
100
AcDbEntity
  8
Dimension (ANSI)
100
AcDbLine
 10
0.2716780130006934
 20
1.827706157073336
 30
0.0
 11
0.2716780130006934
 21
1.955638050071007
 31
0.0
  0
LINE
  5
47A
330
3B8
100
AcDbEntity
  8
Dimension (ANSI)
100
AcDbLine
 10
1.171678003000693
 20
1.827706157073336
 30
0.0
 11
1.171678003000693
 21
1.955638050071007
 31
0.0
  0
LINE
  5
47B
330
3B8
100
AcDbEntity
  8
Dimension (ANSI)
100
AcDbLine
 10
0.296284311655965
 20
1.924388050071007
 30
0.0
 11
0.6482224601715235
 21
1.924388050071007
 31
0.0
  0
LINE
  5
47C
330
3B8
100
AcDbEntity
  8
Dimension (ANSI)
100
AcDbLine
 10
1.147071704345421
 20
1.924388050071007
 30
0.0
 11
0.7632183129384056
 21
1.924388050071007
 31
0.0
  0
SOLID
  5
47D
330
3B8
100
AcDbEntity
  8
Dimension (ANSI)
100
AcDbTrace
 10
0.296284311655965
 20
1.928489099846886
 30
0.0
 11
0.296284311655965
 21
1.920287000295128
 31
0.0
 12
0.2716780130006934
 22
1.924388050071007
 32
0.0
 13
0.2716780130006934
 23
1.924388050071007
 33
0.0
  0
SOLID
  5
47E
330
3B8
100
AcDbEntity
  8
Dimension (ANSI)
100
AcDbTrace
 10
1.147071704345421
 20
1.928489099846886
 30
0.0
 11
1.147071704345421
 21
1.920287000295128
 31
0.0
 12
1.171678003000693
 22
1.924388050071007
 32
0.0
 13
1.171678003000693
 23
1.924388050071007
 33
0.0
  0
MTEXT
  5
47F
330
3B8
100
AcDbEntity
  8
Dimension (ANSI)
100
AcDbMText
 10
0.6560964759195551
 20
1.940002557071592
 30
0.0
 40
0.0300000011920929
 41
0.0
 71
     1
 72
     1
  1
\A1;0.900
  7
Note Text (ANSI)
 73
     1
 44
1.0
1001
ACAD
1000
MTEXTBEGIN
1070
    73
1070
     1
1070
    44
1040
1.0
1070
    74
1070
     0
1000
MTEXTEND
  0
POINT
  5
480
330
3B8
100
AcDbEntity
  8
Defpoints
 62
     0
100
AcDbPoint
 10
0.2716780130006934
 20
1.812081157073336
 30
0.0
  0
POINT
  5
481
330
3B8
100
AcDbEntity
  8
Defpoints
 62
     0
100
AcDbPoint
 10
1.171678003000693
 20
1.812081157073336
 30
0.0
  0
POINT
  5
482
330
3B8
100
AcDbEntity
  8
Defpoints
 62
     0
100
AcDbPoint
 10
1.171678003000693
 20
1.924388050071007
 30
0.0
  0
ENDBLK
  5
3C4
330
3B8
100
AcDbEntity
  8
0
100
AcDbBlockEnd
  0
BLOCK
  5
484
330
483
100
AcDbEntity
  8
0
100
AcDbBlockBegin
  2
Title Blocks ANSI A
 70
     2
 10
0.0
 20
0.0
 30
0.0
  3
Title Blocks ANSI A
  1

  0
LINE
  5
486
330
483
100
AcDbEntity
  8
Title (ANSI)
100
AcDbLine
 10
5.00001003937008
 20
4.998596178778405
 30
0.0
 11
11.25002258858267
 21
4.998596178778412
 31
0.0
  0
LINE
  5
487
330
483
100
AcDbEntity
  8
Title (ANSI)
100
AcDbLine
 10
11.25002258858267
 20
4.998596178778412
 30
0.0
 11
11.25002258858267
 21
6.998596178778411
 31
0.0
  0
LINE
  5
488
330
483
100
AcDbEntity
  8
Title (ANSI)
100
AcDbLine
 10
11.25002258858267
 20
6.998596178778411
 30
0.0
 11
5.000010039370079
 21
6.99859617877841
 31
0.0
  0
LINE
  5
489
330
483
100
AcDbEntity
  8
Title (ANSI)
100
AcDbLine
 10
5.000010039370079
 20
6.99859617877841
 30
0.0
 11
5.00001003937008
 21
4.998596178778405
 31
0.0
  0
LINE
  5
48A
330
483
100
AcDbEntity
  8
Title (ANSI)
100
AcDbLine
 10
7.13006861284011
 20
4.998596178778412
 30
0.0
 11
7.13006861284011
 21
6.99859617877841
 31
0.0
  0
LINE
  5
48B
330
483
100
AcDbEntity
  8
Title (ANSI)
100
AcDbLine
 10
7.130068612840111
 20
5.248596178778411
 30
0.0
 11
11.25002258858267
 21
5.248596178778419
 31
0.0
  0
LINE
  5
48C
330
483
100
AcDbEntity
  8
Title (ANSI)
100
AcDbLine
 10
8.08900076038086
 20
4.998596178778412
 30
0.0
 11
8.08900076038086
 21
5.248596178778413
 31
0.0
  0
LINE
  5
48D
330
483
100
AcDbEntity
  8
Title (ANSI)
100
AcDbLine
 10
9.500019074803146
 20
4.998596178778412
 30
0.0
 11
9.500019074803146
 21
5.248596178778416
 31
0.0
  0
LINE
  5
48E
330
483
100
AcDbEntity
  8
Title (ANSI)
100
AcDbLine
 10
6.250012549212597
 20
4.998596178778411
 30
0.0
 11
6.250012549212597
 21
6.99859617877841
 31
0.0
  0
LINE
  5
48F
330
483
100
AcDbEntity
  8
Title (ANSI)
100
AcDbLine
 10
7.13006861284011
 20
5.618596921691798
 30
0.0
 11
11.25002258858267
 21
5.618596921691803
 31
0.0
  0
LINE
  5
490
330
483
100
AcDbEntity
  8
Title (ANSI)
100
AcDbLine
 10
10.87002182559055
 20
5.248596178778418
 30
0.0
 11
10.87002182559055
 21
5.618596921691803
 31
0.0
  0
LINE
  5
491
330
483
100
AcDbEntity
  8
Title (ANSI)
100
AcDbLine
 10
8.500017066929132
 20
5.248596178778415
 30
0.0
 11
8.500017066929132
 21
5.6185969216918
 31
0.0
  0
LINE
  5
492
330
483
100
AcDbEntity
  8
Title (ANSI)
100
AcDbLine
 10
7.544294259443292
 20
5.248596178778413
 30
0.0
 11
7.544294259443292
 21
5.618596921691799
 31
0.0
  0
LINE
  5
493
330
483
100
AcDbEntity
  8
Title (ANSI)
100
AcDbLine
 10
7.130068612840108
 20
6.378598447676052
 30
0.0
 11
11.25002258858267
 21
6.378598447676055
 31
0.0
  0
LINE
  5
494
330
483
100
AcDbEntity
  8
Title (ANSI)
100
AcDbLine
 10
7.130068612840111
 20
5.248596178778411
 30
0.0
 11
5.000010039370079
 21
5.248596178778406
 31
0.0
  0
LINE
  5
495
330
483
100
AcDbEntity
  8
Title (ANSI)
100
AcDbLine
 10
7.130068612840111
 20
5.498596178778411
 30
0.0
 11
5.000010039370079
 21
5.498596178778406
 31
0.0
  0
LINE
  5
496
330
483
100
AcDbEntity
  8
Title (ANSI)
100
AcDbLine
 10
7.13006861284011
 20
5.74859617877841
 30
0.0
 11
5.000010039370078
 21
5.748596178778406
 31
0.0
  0
LINE
  5
497
330
483
100
AcDbEntity
  8
Title (ANSI)
100
AcDbLine
 10
7.13006861284011
 20
5.99859617877841
 30
0.0
 11
5.000010039370077
 21
5.998596178778406
 31
0.0
  0
LINE
  5
498
330
483
100
AcDbEntity
  8
Title (ANSI)
100
AcDbLine
 10
7.13006861284011
 20
6.24859617877841
 30
0.0
 11
5.000010039370077
 21
6.248596178778406
 31
0.0
  0
LINE
  5
499
330
483
100
AcDbEntity
  8
Title (ANSI)
100
AcDbLine
 10
7.130068612840108
 20
6.498596178778409
 30
0.0
 11
5.000010039370076
 21
6.498596178778406
 31
0.0
  0
LINE
  5
49A
330
483
100
AcDbEntity
  8
Title (ANSI)
100
AcDbLine
 10
7.130068612840108
 20
6.748596178778411
 30
0.0
 11
5.000010039370076
 21
6.748596178778405
 31
0.0
  0
TEXT
  5
49B
330
483
100
AcDbEntity
  8
Title (ANSI)
100
AcDbText
 10
5.020010039370077
 20
6.898596179745229
 30
0.0
 40
0.0799999990331845
  1
DRAWN
  7
Note Text (ANSI)
 11
5.020010039370077
 21
6.978596178778413
 31
0.0
100
AcDbText
 73
     3
  0
TEXT
  5
49C
330
483
100
AcDbEntity
  8
Title (ANSI)
100
AcDbText
 10
5.020010039370077
 20
6.648596179745221
 30
0.0
 40
0.0799999990331845
  1
CHECKED
  7
Note Text (ANSI)
 11
5.020010039370077
 21
6.728596178778405
 31
0.0
100
AcDbText
 73
     3
  0
TEXT
  5
49D
330
483
100
AcDbEntity
  8
Title (ANSI)
100
AcDbText
 10
5.020010039370077
 20
6.398596179745222
 30
0.0
 40
0.0799999990331845
  1
QA
  7
Note Text (ANSI)
 11
5.020010039370077
 21
6.478596178778406
 31
0.0
100
AcDbText
 73
     3
  0
TEXT
  5
49E
330
483
100
AcDbEntity
  8
Title (ANSI)
100
AcDbText
 10
5.020010039370077
 20
6.148596179745221
 30
0.0
 40
0.0799999990331845
  1
MFG
  7
Note Text (ANSI)
 11
5.020010039370077
 21
6.228596178778405
 31
0.0
100
AcDbText
 73
     3
  0
TEXT
  5
49F
330
483
100
AcDbEntity
  8
Title (ANSI)
100
AcDbText
 10
5.020010039370077
 20
5.898596179745221
 30
0.0
 40
0.0799999990331845
  1
APPROVED
  7
Note Text (ANSI)
 11
5.020010039370077
 21
5.978596178778405
 31
0.0
100
AcDbText
 73
     3
  0
TEXT
  5
4A0
330
483
100
AcDbEntity
  8
Title (ANSI)
100
AcDbText
 10
7.150068612840111
 20
6.278598448642869
 30
0.0
 40
0.0799999990331845
  1
TITLE
  7
Note Text (ANSI)
 11
7.150068612840111
 21
6.358598447676053
 31
0.0
100
AcDbText
 73
     3
  0
TEXT
  5
4A1
330
483
100
AcDbEntity
  8
Title (ANSI)
100
AcDbText
 10
7.22438090023158
 20
5.518596922658614
 30
0.0
 40
0.0799999990331845
  1
SIZE
  7
Note Text (ANSI)
 72
     1
 11
7.337181436141702
 21
5.598596921691798
 31
0.0
100
AcDbText
 73
     3
  0
TEXT
  5
4A2
330
483
100
AcDbEntity
  8
Title (ANSI)
100
AcDbText
 10
7.150068612840111
 20
5.148596179745227
 30
0.0
 40
0.0799999990331845
  1
SCALE
  7
Note Text (ANSI)
 11
7.150068612840111
 21
5.228596178778412
 31
0.0
100
AcDbText
 73
     3
  0
TEXT
  5
4A3
330
483
100
AcDbEntity
  8
Title (ANSI)
100
AcDbText
 10
8.520017066929131
 20
5.518596922658616
 30
0.0
 40
0.0799999990331845
  1
DWG NO
  7
Note Text (ANSI)
 11
8.520017066929131
 21
5.5985969216918
 31
0.0
100
AcDbText
 73
     3
  0
TEXT
  5
4A4
330
483
100
AcDbEntity
  8
Title (ANSI)
100
AcDbText
 10
10.96196982412116
 20
5.518596922658621
 30
0.0
 40
0.0799999990331845
  1
REV
  7
Note Text (ANSI)
 72
     1
 11
11.06002220708661
 21
5.598596921691805
 31
0.0
100
AcDbText
 73
     3
  0
TEXT
  5
4A5
330
483
100
AcDbEntity
  8
Title (ANSI)
100
AcDbText
 10
9.520019074803148
 20
5.027783552743943
 30
0.0
 40
0.0799999990331845
  1
SHEET 1  OF 3 
  7
Note Text (ANSI)
 11
9.520019074803148
 21
5.018596178778413
 31
0.0
100
AcDbText
 73
     1
  0
ATTDEF
  5
4A6
330
483
100
AcDbEntity
  8
Title (ANSI)
100
AcDbText
 10
5.020010039370077
 20
6.780080396740618
 30
0.0
 40
0.1000000031914298
  1
D Chow
  7
Note Text (ANSI)
 11
5.020010039370077
 21
6.768596178778405
 31
0.0
100
AcDbAttributeDefinition
  3
AUTHOR
  2
AUTHOR
 70
     0
 74
     1
  0
ATTDEF
  5
4A7
330
483
100
AcDbEntity
  8
Title (ANSI)
100
AcDbText
 10
5.020010039370077
 20
6.530080396740618
 30
0.0
 40
0.1000000031914298
  1

  7
Note Text (ANSI)
 11
5.020010039370077
 21
6.518596178778405
 31
0.0
100
AcDbAttributeDefinition
  3
CHECKED BY
  2
CHECKED_BY
 70
     0
 74
     1
  0
ATTDEF
  5
4A8
330
483
100
AcDbEntity
  8
Title (ANSI)
100
AcDbText
 10
5.020010039370077
 20
6.030080396740618
 30
0.0
 40
0.1000000031914298
  1

  7
Note Text (ANSI)
 11
5.020010039370077
 21
6.018596178778405
 31
0.0
100
AcDbAttributeDefinition
  3
MFG APPROVED BY
  2
MFG_APPROVED_BY
 70
     0
 74
     1
  0
ATTDEF
  5
4A9
330
483
100
AcDbEntity
  8
Title (ANSI)
100
AcDbText
 10
5.020010039370077
 20
5.780080396740619
 30
0.0
 40
0.1000000031914298
  1

  7
Note Text (ANSI)
 11
5.020010039370077
 21
5.768596178778406
 31
0.0
100
AcDbAttributeDefinition
  3
ENG APPROVED BY
  2
ENG_APPROVED_BY
 70
     0
 74
     1
  0
ATTDEF
  5
4AA
330
483
100
AcDbEntity
  8
Title (ANSI)
100
AcDbText
 10
6.270012549212596
 20
6.780080396740621
 30
0.0
 40
0.1000000031914298
  1
12/17/2008
  7
Note Text (ANSI)
 11
6.270012549212596
 21
6.768596178778408
 31
0.0
100
AcDbAttributeDefinition
  3
CREATION DATE
  2
CREATION_DATE
 70
     0
 74
     1
  0
ATTDEF
  5
4AB
330
483
100
AcDbEntity
  8
Title (ANSI)
100
AcDbText
 10
6.270012549212596
 20
6.53008039674062
 30
0.0
 40
0.1000000031914298
  1
1/14/2009
  7
Note Text (ANSI)
 11
6.270012549212596
 21
6.518596178778407
 31
0.0
100
AcDbAttributeDefinition
  3
CHECKED DATE
  2
CHECKED_DATE
 70
     0
 74
     1
  0
ATTDEF
  5
4AC
330
483
100
AcDbEntity
  8
Title (ANSI)
100
AcDbText
 10
6.270012549212596
 20
6.030080396740622
 30
0.0
 40
0.1000000031914298
  1

  7
Note Text (ANSI)
 11
6.270012549212596
 21
6.018596178778409
 31
0.0
100
AcDbAttributeDefinition
  3
MFG APPROVED DATE
  2
MFG_APPROVED_DATE
 70
     0
 74
     1
  0
ATTDEF
  5
4AD
330
483
100
AcDbEntity
  8
Title (ANSI)
100
AcDbText
 10
6.270012549212596
 20
5.780080396740622
 30
0.0
 40
0.1000000031914298
  1

  7
Note Text (ANSI)
 11
6.270012549212596
 21
5.768596178778409
 31
0.0
100
AcDbAttributeDefinition
  3
ENG APPROVAL DATE
  2
ENG_APPROVAL_DATE
 70
     0
 74
     1
  0
ATTDEF
  5
4AE
330
483
100
AcDbEntity
  8
Title (ANSI)
100
AcDbText
 10
7.910623153737196
 20
6.628597312485691
 30
0.0
 40
0.1200000014830762
  1
RADIO ASTRONOMY LABORATORY
  7
Note Text (ANSI)
 72
     1
 11
9.190045600711391
 21
6.688597313227229
 31
0.0
100
AcDbAttributeDefinition
  3
COMPANY
  2
COMPANY
 70
     0
 74
     2
  0
ATTDEF
  5
4AF
330
483
100
AcDbEntity
  8
Title (ANSI)
100
AcDbText
 10
7.150068612840111
 20
5.878597683942388
 30
0.0
 40
0.1200000014830762
  1

  7
Note Text (ANSI)
 11
7.150068612840111
 21
5.938597684683926
 31
0.0
100
AcDbAttributeDefinition
  3
TITLE
  2
TITLE
 70
     0
 74
     2
  0
ATTDEF
  5
4B0
330
483
100
AcDbEntity
  8
Title (ANSI)
100
AcDbText
 10
7.287698561117785
 20
5.323596549493566
 30
0.0
 40
0.1200000014830762
  1
A
  7
Note Text (ANSI)
 72
     1
 11
7.3371814361417
 21
5.383596550235104
 31
0.0
100
AcDbAttributeDefinition
  3
Sheet Size
  2
Sheet_Size
 70
     0
 74
     2
  0
ATTDEF
  5
4B1
330
483
100
AcDbEntity
  8
Title (ANSI)
100
AcDbText
 10
8.520017066929131
 20
5.282377240063576
 30
0.0
 40
0.1200000014830762
  1
Block1-V61
  7
Note Text (ANSI)
 11
8.520017066929131
 21
5.268596178778414
 31
0.0
100
AcDbAttributeDefinition
  3
PART NUMBER
  2
PART_NUMBER
 70
     0
 74
     1
  0
ATTDEF
  5
4B2
330
483
100
AcDbEntity
  8
Title (ANSI)
100
AcDbText
 10
11.06002220708661
 20
5.323596549493571
 30
0.0
 40
0.1200000014830762
  1

  7
Note Text (ANSI)
 72
     1
 11
11.06002220708661
 21
5.383596550235109
 31
0.0
100
AcDbAttributeDefinition
  3
REVISION NUMBER
  2
REVISION_NUMBER
 70
     0
 74
     2
  0
ENDBLK
  5
485
330
483
100
AcDbEntity
  8
0
100
AcDbBlockEnd
  0
ENDSEC
  0
SECTION
  2
ENTITIES
  0
INSERT
  5
FC
330
37
100
AcDbEntity
  8
0
100
AcDbBlockReference
  2
Borders Default Border
 10
0.0
 20
0.0
 30
0.0
 41
0.25
 42
0.25
 43
0.25
  0
LINE
  5
FD
330
37
100
AcDbEntity
  8
Visible (ANSI)
100
AcDbLine
 10
0.2716780130007794
 20
0.7522917046045074
 30
0.0
 11
0.7240532130007792
 21
0.7522917046045074
 31
0.0
  0
LINE
  5
FE
330
37
100
AcDbEntity
  8
Visible (ANSI)
100
AcDbLine
 10
0.7425512130007794
 20
0.7522917046045074
 30
0.0
 11
1.171678003000779
 21
0.7522917046045074
 31
0.0
  0
LINE
  5
FF
330
37
100
AcDbEntity
  8
Visible (ANSI)
100
AcDbLine
 10
0.7425512130007794
 20
0.7522917046045074
 30
0.0
 11
0.7240532130007792
 21
0.7522917046045074
 31
0.0
  0
LINE
  5
100
330
37
100
AcDbEntity
  8
Visible (ANSI)
100
AcDbLine
 10
1.013178003000779
 20
1.056541704604507
 30
0.0
 11
1.013178003000779
 21
1.202291704604507
 31
0.0
  0
LINE
  5
101
330
37
100
AcDbEntity
  8
Visible (ANSI)
100
AcDbLine
 10
1.013178003000779
 20
1.202291704604507
 30
0.0
 11
0.9816780030007791
 21
1.202291704604507
 31
0.0
  0
LINE
  5
102
330
37
100
AcDbEntity
  8
Visible (ANSI)
100
AcDbLine
 10
0.9816780030007791
 20
1.202291704604507
 30
0.0
 11
0.9816780030007791
 21
1.183791704604507
 31
0.0
  0
LINE
  5
103
330
37
100
AcDbEntity
  8
Visible (ANSI)
100
AcDbLine
 10
0.9816780030007791
 20
1.183791704604507
 30
0.0
 11
0.963178003000779
 21
1.183791704604507
 31
0.0
  0
LINE
  5
104
330
37
100
AcDbEntity
  8
Visible (ANSI)
100
AcDbLine
 10
0.963178003000779
 20
1.183791704604507
 30
0.0
 11
0.963178003000779
 21
1.202291704604507
 31
0.0
  0
LINE
  5
105
330
37
100
AcDbEntity
  8
Visible (ANSI)
100
AcDbLine
 10
0.963178003000779
 20
1.202291704604507
 30
0.0
 11
0.2716780130007796
 21
1.202291704604507
 31
0.0
  0
LINE
  5
106
330
37
100
AcDbEntity
  8
Visible (ANSI)
100
AcDbLine
 10
0.2716780130007796
 20
1.202291704604507
 30
0.0
 11
0.2716780130007794
 21
0.7522917046045074
 31
0.0
  0
LINE
  5
107
330
37
100
AcDbEntity
  8
Visible (ANSI)
100
AcDbLine
 10
0.7240532130007792
 20
0.7522917046045074
 30
0.0
 11
0.7240532130007792
 21
0.8422917046051212
 31
0.0
  0
LINE
  5
108
330
37
100
AcDbEntity
  8
Visible (ANSI)
100
AcDbLine
 10
0.7240532130007792
 20
0.8422917046051212
 30
0.0
 11
0.7240522130007793
 21
0.8672917046045075
 31
0.0
  0
LINE
  5
109
330
37
100
AcDbEntity
  8
Visible (ANSI)
100
AcDbLine
 10
0.7240522130007793
 20
0.8672917046045075
 30
0.0
 11
0.7240522130007793
 21
0.9672917046045075
 31
0.0
  0
ARC
  5
10A
330
37
100
AcDbEntity
  8
Visible (ANSI)
100
AcDbCircle
 10
0.7733022130007793
 20
0.9672917046045075
 30
0.0
 40
0.04925
100
AcDbArc
 50
90.0
 51
180.0
  0
LINE
  5
10B
330
37
100
AcDbEntity
  8
Visible (ANSI)
100
AcDbLine
 10
0.7733022130007793
 20
1.016541704604507
 30
0.0
 11
0.9297264616963484
 21
1.016541704604507
 31
0.0
  0
ARC
  5
10C
330
37
100
AcDbEntity
  8
Visible (ANSI)
100
AcDbCircle
 10
0.9343022130007796
 20
1.008791704604506
 30
0.0
 40
0.0090000000000006
100
AcDbArc
 50
90.0000000000011
 51
120.5584317859345
  0
LINE
  5
10D
330
37
100
AcDbEntity
  8
Visible (ANSI)
100
AcDbLine
 10
0.9343022130007794
 20
1.017791704604507
 30
0.0
 11
0.942077263201785
 21
1.017791704604507
 31
0.0
  0
ARC
  5
10E
330
37
100
AcDbEntity
  8
Visible (ANSI)
100
AcDbCircle
 10
0.9483022130007793
 20
1.011291704604507
 30
0.0
 40
0.0089999999999997
100
AcDbArc
 50
90.0
 51
133.7617426926818
  0
LINE
  5
10F
330
37
100
AcDbEntity
  8
Visible (ANSI)
100
AcDbLine
 10
0.9483022130007793
 20
1.020291704604507
 30
0.0
 11
0.9551783095763918
 21
1.020291704604507
 31
0.0
  0
ARC
  5
110
330
37
100
AcDbEntity
  8
Visible (ANSI)
100
AcDbCircle
 10
0.9623022130007793
 20
1.014791704604507
 30
0.0
 40
0.0089999999999999
100
AcDbArc
 50
90.0
 51
142.3301130356723
  0
LINE
  5
111
330
37
100
AcDbEntity
  8
Visible (ANSI)
100
AcDbLine
 10
0.9623022130007793
 20
1.023791704604507
 30
0.0
 11
0.9696453587512868
 21
1.023791704604507
 31
0.0
  0
ARC
  5
112
330
37
100
AcDbEntity
  8
Visible (ANSI)
100
AcDbCircle
 10
0.9753022130007799
 20
1.016791704604505
 30
0.0
 40
0.0090000000000021
100
AcDbArc
 50
90.00000000000444
 51
128.9424412689763
  0
LINE
  5
113
330
37
100
AcDbEntity
  8
Visible (ANSI)
100
AcDbLine
 10
0.9753022130007792
 20
1.025791704604507
 30
0.0
 11
0.9824280030007791
 21
1.025791704604507
 31
0.0
  0
ARC
  5
114
330
37
100
AcDbEntity
  8
Visible (ANSI)
100
AcDbCircle
 10
0.9824280030007789
 20
1.056541704604507
 30
0.0
 40
0.0307500000000001
100
AcDbArc
 50
270.0000000000003
 51
0.0
  0
LINE
  5
115
330
37
100
AcDbEntity
  8
Visible (ANSI)
100
AcDbLine
 10
0.9631780030007794
 20
1.202291704604507
 30
0.0
 11
0.9816780030007793
 21
1.202291704604507
 31
0.0
  0
LINE
  5
116
330
37
100
AcDbEntity
  8
Visible (ANSI)
100
AcDbLine
 10
1.101378003000779
 20
1.202291704604507
 30
0.0
 11
1.111678003000779
 21
1.202291704604507
 31
0.0
  0
LINE
  5
117
330
37
100
AcDbEntity
  8
Visible (ANSI)
100
AcDbLine
 10
1.111678003000779
 20
1.202291704604507
 30
0.0
 11
1.171678003000779
 21
1.202291704604507
 31
0.0
  0
LINE
  5
118
330
37
100
AcDbEntity
  8
Visible (ANSI)
100
AcDbLine
 10
0.7425512130007794
 20
0.8422917046044107
 30
0.0
 11
0.7425512130007794
 21
0.7522917046045074
 31
0.0
  0
LINE
  5
119
330
37
100
AcDbEntity
  8
Visible (ANSI)
100
AcDbLine
 10
1.171678003000779
 20
0.7522917046045074
 30
0.0
 11
1.171678003000779
 21
1.180291704604507
 31
0.0
  0
LINE
  5
11A
330
37
100
AcDbEntity
  8
Visible (ANSI)
100
AcDbLine
 10
1.171678003000779
 20
1.180291704604507
 30
0.0
 11
1.111678003000779
 21
1.180291704604507
 31
0.0
  0
LINE
  5
11B
330
37
100
AcDbEntity
  8
Visible (ANSI)
100
AcDbLine
 10
1.111678003000779
 20
1.180291704604507
 30
0.0
 11
1.111678003000779
 21
0.9072917046045072
 31
0.0
  0
ARC
  5
11C
330
37
100
AcDbEntity
  8
Visible (ANSI)
100
AcDbCircle
 10
1.062428003000779
 20
0.9072917046045072
 30
0.0
 40
0.04925
100
AcDbArc
 50
180.0
 51
0.0
  0
LINE
  5
11D
330
37
100
AcDbEntity
  8
Visible (ANSI)
100
AcDbLine
 10
1.013178003000779
 20
0.9072917046045072
 30
0.0
 11
1.013178003000779
 21
0.9580417046045075
 31
0.0
  0
ARC
  5
11E
330
37
100
AcDbEntity
  8
Visible (ANSI)
100
AcDbCircle
 10
0.9824280030007789
 20
0.9580417046045074
 30
0.0
 40
0.0307500000000001
100
AcDbArc
 50
0.0
 51
89.99999999999969
  0
LINE
  5
11F
330
37
100
AcDbEntity
  8
Visible (ANSI)
100
AcDbLine
 10
0.9824280030007791
 20
0.9887917046045075
 30
0.0
 11
0.9753022130007792
 21
0.9887917046045075
 31
0.0
  0
ARC
  5
120
330
37
100
AcDbEntity
  8
Visible (ANSI)
100
AcDbCircle
 10
0.9753022130007797
 20
0.997791704604509
 30
0.0
 40
0.0090000000000016
100
AcDbArc
 50
231.0575587310224
 51
269.9999999999966
  0
LINE
  5
121
330
37
100
AcDbEntity
  8
Visible (ANSI)
100
AcDbLine
 10
0.9696453587512868
 20
0.9907917046045074
 30
0.0
 11
0.9623022130007793
 21
0.9907917046045074
 31
0.0
  0
ARC
  5
122
330
37
100
AcDbEntity
  8
Visible (ANSI)
100
AcDbCircle
 10
0.9623022130007795
 20
0.9997917046045074
 30
0.0
 40
0.009
100
AcDbArc
 50
217.6698869643294
 51
269.9999999999989
  0
LINE
  5
123
330
37
100
AcDbEntity
  8
Visible (ANSI)
100
AcDbLine
 10
0.9551783095763918
 20
0.9942917046045073
 30
0.0
 11
0.9483022130007793
 21
0.9942917046045073
 31
0.0
  0
ARC
  5
124
330
37
100
AcDbEntity
  8
Visible (ANSI)
100
AcDbCircle
 10
0.9483022130007793
 20
1.003291704604507
 30
0.0
 40
0.0089999999999997
100
AcDbArc
 50
226.2382573073182
 51
270.0
  0
LINE
  5
125
330
37
100
AcDbEntity
  8
Visible (ANSI)
100
AcDbLine
 10
0.942077263201785
 20
0.9967917046045077
 30
0.0
 11
0.9343022130007794
 21
0.9967917046045077
 31
0.0
  0
ARC
  5
126
330
37
100
AcDbEntity
  8
Visible (ANSI)
100
AcDbCircle
 10
0.9343022130007796
 20
1.005791704604507
 30
0.0
 40
0.0090000000000004
100
AcDbArc
 50
239.4415682140643
 51
269.9999999999989
  0
LINE
  5
127
330
37
100
AcDbEntity
  8
Visible (ANSI)
100
AcDbLine
 10
0.9297264616963484
 20
0.9980417046045074
 30
0.0
 11
0.7733022130007793
 21
0.9980417046045074
 31
0.0
  0
ARC
  5
128
330
37
100
AcDbEntity
  8
Visible (ANSI)
100
AcDbCircle
 10
0.7733022130007795
 20
0.9672917046045073
 30
0.0
 40
0.0307500000000001
100
AcDbArc
 50
90.00000000000033
 51
180.0
  0
LINE
  5
129
330
37
100
AcDbEntity
  8
Visible (ANSI)
100
AcDbLine
 10
0.7425522130007794
 20
0.9672917046045075
 30
0.0
 11
0.7425522130007794
 21
0.8672917046045075
 31
0.0
  0
LINE
  5
12A
330
37
100
AcDbEntity
  8
Visible (ANSI)
100
AcDbLine
 10
0.7425522130007794
 20
0.8672917046045075
 30
0.0
 11
0.7425512130007794
 21
0.8422917046044107
 31
0.0
  0
LINE
  5
12B
330
37
100
AcDbEntity
  8
Visible (ANSI)
100
AcDbLine
 10
1.171678003000779
 20
1.202291704604507
 30
0.0
 11
1.171678003000779
 21
1.180291704604507
 31
0.0
  0
LINE
  5
12C
330
37
100
AcDbEntity
  8
Visible (ANSI)
100
AcDbLine
 10
1.013178003000779
 20
1.202291704604507
 30
0.0
 11
1.031678003000779
 21
1.202291704604507
 31
0.0
  0
LINE
  5
12D
330
37
100
AcDbEntity
  8
Visible (ANSI)
100
AcDbLine
 10
1.093178003000779
 20
1.183791704604507
 30
0.0
 11
1.111678003000779
 21
1.183791704604507
 31
0.0
  0
LINE
  5
12E
330
37
100
AcDbEntity
  8
Visible (ANSI)
100
AcDbLine
 10
1.031678003000779
 20
1.202291704604507
 30
0.0
 11
1.031678003000779
 21
1.056541704604507
 31
0.0
  0
ARC
  5
12F
330
37
100
AcDbEntity
  8
Visible (ANSI)
100
AcDbCircle
 10
0.9824280030007791
 20
1.056541704604507
 30
0.0
 40
0.04925
100
AcDbArc
 50
281.5657063836214
 51
0.0
  0
LINE
  5
130
330
37
100
AcDbEntity
  8
Visible (ANSI)
100
AcDbLine
 10
0.9923022130007794
 20
1.008291704844135
 30
0.0
 11
0.9923022130007794
 21
1.006291704364879
 31
0.0
  0
ARC
  5
131
330
37
100
AcDbEntity
  8
Visible (ANSI)
100
AcDbCircle
 10
0.9824280030007795
 20
0.9580417046045075
 30
0.0
 40
0.0492499999999998
100
AcDbArc
 50
0.0
 51
78.43429361637882
  0
LINE
  5
132
330
37
100
AcDbEntity
  8
Visible (ANSI)
100
AcDbLine
 10
1.031678003000779
 20
0.9580417046045075
 30
0.0
 11
1.031678003000779
 21
0.9072917046045072
 31
0.0
  0
ARC
  5
133
330
37
100
AcDbEntity
  8
Visible (ANSI)
100
AcDbCircle
 10
1.062428003000779
 20
0.9072917046045072
 30
0.0
 40
0.03075
100
AcDbArc
 50
180.0
 51
0.0
  0
ARC
  5
134
330
37
100
AcDbEntity
  8
Visible (ANSI)
100
AcDbCircle
 10
1.096678003000779
 20
1.190291704604507
 30
0.0
 40
0.0035
100
AcDbArc
 50
90.0
 51
180.0
  0
LINE
  5
135
330
37
100
AcDbEntity
  8
Visible (ANSI)
100
AcDbLine
 10
1.096678003000779
 20
1.193791704604507
 30
0.0
 11
1.101378003000779
 21
1.193791704604507
 31
0.0
  0
LINE
  5
136
330
37
100
AcDbEntity
  8
Visible (ANSI)
100
AcDbLine
 10
1.101378003000779
 20
1.193791704604507
 30
0.0
 11
1.101378003000779
 21
1.202291704604507
 31
0.0
  0
LINE
  5
137
330
37
100
AcDbEntity
  8
Visible (ANSI)
100
AcDbLine
 10
1.093178003000779
 20
0.9072917046045072
 30
0.0
 11
1.093178003000779
 21
1.190291704604507
 31
0.0
  0
LINE
  5
138
330
37
100
AcDbEntity
  8
Visible (ANSI)
100
AcDbLine
 10
1.111678003000779
 20
1.180291704604507
 30
0.0
 11
1.111678003000779
 21
1.202291704604507
 31
0.0
  0
LINE
  5
139
330
37
100
AcDbEntity
  8
Visible (ANSI)
100
AcDbLine
 10
1.101378003000779
 20
1.202291704604507
 30
0.0
 11
1.031678003000779
 21
1.202291704604507
 31
0.0
  0
CIRCLE
  5
13A
330
37
100
AcDbEntity
  8
Visible (ANSI)
100
AcDbCircle
 10
0.7332971622007796
 20
1.103296755404507
 30
0.0
 40
0.0445
  0
CIRCLE
  5
13B
330
37
100
AcDbEntity
  8
Visible (ANSI)
100
AcDbCircle
 10
0.7332971622007796
 20
1.103296755404507
 30
0.0
 40
0.0475000000000001
  0
CIRCLE
  5
13C
330
37
100
AcDbEntity
  8
Visible (ANSI)
100
AcDbCircle
 10
0.5353072638007795
 20
1.103296755404507
 30
0.0
 40
0.0475000000000001
  0
CIRCLE
  5
13D
330
37
100
AcDbEntity
  8
Visible (ANSI)
100
AcDbCircle
 10
0.3863174130007792
 20
0.8552917046045076
 30
0.0
 40
0.0475000000000001
  0
CIRCLE
  5
13E
330
37
100
AcDbEntity
  8
Visible (ANSI)
100
AcDbCircle
 10
0.5263022130007793
 20
0.9522917046045074
 30
0.0
 40
0.0500000000000001
  0
CIRCLE
  5
13F
330
37
100
AcDbEntity
  8
Visible (ANSI)
100
AcDbCircle
 10
0.9323022130007794
 20
1.102291704604507
 30
0.0
 40
0.0500000000000001
  0
CIRCLE
  5
140
330
37
100
AcDbEntity
  8
Visible (ANSI)
100
AcDbCircle
 10
0.5353072638007795
 20
1.103296755404507
 30
0.0
 40
0.0445
  0
CIRCLE
  5
141
330
37
100
AcDbEntity
  8
Visible (ANSI)
100
AcDbCircle
 10
0.9323022130007794
 20
1.102291704604507
 30
0.0
 40
0.047
  0
CIRCLE
  5
142
330
37
100
AcDbEntity
  8
Visible (ANSI)
100
AcDbCircle
 10
0.3863174130007792
 20
0.8552917046045076
 30
0.0
 40
0.0445
  0
CIRCLE
  5
143
330
37
100
AcDbEntity
  8
Visible (ANSI)
100
AcDbCircle
 10
0.5263022130007793
 20
0.9522917046045074
 30
0.0
 40
0.047
  0
CIRCLE
  5
144
330
37
100
AcDbEntity
  8
Visible (ANSI)
100
AcDbCircle
 10
0.9323022130007792
 20
0.8552917046045076
 30
0.0
 40
0.0445
  0
CIRCLE
  5
145
330
37
100
AcDbEntity
  8
Visible (ANSI)
100
AcDbCircle
 10
0.9323022130007792
 20
0.8552917046045076
 30
0.0
 40
0.0475000000000001
  0
CIRCLE
  5
146
330
37
100
AcDbEntity
  8
Visible (ANSI)
100
AcDbCircle
 10
0.5263022130007793
 20
0.9522917046045074
 30
0.0
 40
0.046875
  0
CIRCLE
  5
147
330
37
100
AcDbEntity
  8
Visible (ANSI)
100
AcDbCircle
 10
0.9323022130007794
 20
1.102291704604507
 30
0.0
 40
0.046875
  0
LINE
  5
148
330
37
100
AcDbEntity
  8
Visible (ANSI)
100
AcDbLine
 10
1.798772458229849
 20
0.7522917046045074
 30
0.0
 11
1.348772458229849
 21
0.7522917046045074
 31
0.0
  0
LINE
  5
149
330
37
100
AcDbEntity
  8
Visible (ANSI)
100
AcDbLine
 10
1.798772458229849
 20
1.202291704604507
 30
0.0
 11
1.798772458229849
 21
0.7522917046045074
 31
0.0
  0
LINE
  5
14A
330
37
100
AcDbEntity
  8
Visible (ANSI)
100
AcDbLine
 10
1.798772458229849
 20
1.202291704604507
 30
0.0
 11
1.370772458229849
 21
1.202291704604507
 31
0.0
  0
LINE
  5
14B
330
37
100
AcDbEntity
  8
Visible (ANSI)
100
AcDbLine
 10
1.348772458229849
 20
0.7522917046045074
 30
0.0
 11
1.348772458229849
 21
1.180291704604507
 31
0.0
  0
ARC
  5
14C
330
37
100
AcDbEntity
  8
Visible (ANSI)
100
AcDbCircle
 10
1.348772458229849
 20
1.202291704604507
 30
0.0
 40
0.0220000000000001
100
AcDbArc
 50
270.0000000000005
 51
0.0
  0
LINE
  5
14D
330
37
100
AcDbEntity
  8
Visible (ANSI)
100
AcDbLine
 10
1.348772458229825
 20
1.190291704604507
 30
0.0
 11
1.348772458229826
 21
1.193791704604507
 31
0.0
  0
LINE
  5
14E
330
37
100
AcDbEntity
  8
Visible (ANSI)
100
AcDbLine
 10
1.357272458229826
 20
1.193791704604507
 30
0.0
 11
1.360772458229825
 21
1.190291704604507
 31
0.0
  0
LINE
  5
14F
330
37
100
AcDbEntity
  8
Visible (ANSI)
100
AcDbLine
 10
1.357272458229828
 20
1.193791704604507
 30
0.0
 11
1.348772458229828
 21
1.193791704604507
 31
0.0
  0
LINE
  5
150
330
37
100
AcDbEntity
  8
Visible (ANSI)
100
AcDbLine
 10
1.348772458229828
 20
1.193791704604507
 30
0.0
 11
1.348772458229828
 21
1.202291704604507
 31
0.0
  0
LINE
  5
151
330
37
100
AcDbEntity
  8
Visible (ANSI)
100
AcDbLine
 10
1.357272458229828
 20
1.202291704604507
 30
0.0
 11
1.357272458229828
 21
1.193791704604507
 31
0.0
  0
LINE
  5
152
330
37
100
AcDbEntity
  8
Visible (ANSI)
100
AcDbLine
 10
1.348772458229828
 20
1.202291704604507
 30
0.0
 11
1.357272458229828
 21
1.202291704604507
 31
0.0
  0
LINE
  5
153
330
37
100
AcDbEntity
  8
Visible (ANSI)
100
AcDbLine
 10
1.357272458229826
 20
1.202291704604507
 30
0.0
 11
1.360772458229825
 21
1.202291704604507
 31
0.0
  0
LINE
  5
154
330
37
100
AcDbEntity
  8
Visible (ANSI)
100
AcDbLine
 10
1.348772458229825
 20
1.180291704604507
 30
0.0
 11
1.348772458229825
 21
1.190291704604507
 31
0.0
  0
LINE
  5
155
330
37
100
AcDbEntity
  8
Visible (ANSI)
100
AcDbLine
 10
1.360772458229825
 20
1.202291704604507
 30
0.0
 11
1.370772458229825
 21
1.202291704604507
 31
0.0
  0
CIRCLE
  5
156
330
37
100
AcDbEntity
  8
Visible (ANSI)
100
AcDbCircle
 10
1.547646240104848
 20
1.003417922729507
 30
0.0
 40
0.03175
  0
CIRCLE
  5
157
330
37
100
AcDbEntity
  8
Visible (ANSI)
100
AcDbCircle
 10
1.547646240104849
 20
1.003417922729507
 30
0.0
 40
0.03475
  0
CIRCLE
  5
158
330
37
100
AcDbEntity
  8
Visible (ANSI)
100
AcDbCircle
 10
1.678772458229848
 20
0.8722917046045074
 30
0.0
 40
0.046
  0
CIRCLE
  5
159
330
37
100
AcDbEntity
  8
Visible (ANSI)
100
AcDbCircle
 10
1.678772458229848
 20
0.8722917046045074
 30
0.0
 40
0.043
  0
CIRCLE
  5
15A
330
37
100
AcDbEntity
  8
Hidden Narrow (ANSI)
 48
1.066956043243408
100
AcDbCircle
 10
1.678772458229848
 20
0.8722917046045074
 30
0.0
 40
0.05265
  0
CIRCLE
  5
15B
330
37
100
AcDbEntity
  8
Visible (ANSI)
100
AcDbCircle
 10
0.8322971622006932
 20
1.461076106273335
 30
0.0
 40
0.0445
  0
CIRCLE
  5
15C
330
37
100
AcDbEntity
  8
Visible (ANSI)
100
AcDbCircle
 10
0.6343072638006932
 20
1.461076106273335
 30
0.0
 40
0.0445
  0
CIRCLE
  5
15D
330
37
100
AcDbEntity
  8
Visible (ANSI)
100
AcDbCircle
 10
0.8322971622006932
 20
1.461076106273336
 30
0.0
 40
0.0475000000000001
  0
CIRCLE
  5
15E
330
37
100
AcDbEntity
  8
Visible (ANSI)
100
AcDbCircle
 10
0.6343072638006932
 20
1.461076106273336
 30
0.0
 40
0.0475000000000001
  0
CIRCLE
  5
15F
330
37
100
AcDbEntity
  8
Visible (ANSI)
100
AcDbCircle
 10
0.978302213000693
 20
1.730081157073336
 30
0.0
 40
0.0500000000000001
  0
CIRCLE
  5
160
330
37
100
AcDbEntity
  8
Visible (ANSI)
100
AcDbCircle
 10
0.4163174130006933
 20
1.612081157073336
 30
0.0
 40
0.0500000000000001
  0
CIRCLE
  5
161
330
37
100
AcDbEntity
  8
Visible (ANSI)
100
AcDbCircle
 10
0.386317413000693
 20
1.461076107073336
 30
0.0
 40
0.046
  0
CIRCLE
  5
162
330
37
100
AcDbEntity
  8
Visible (ANSI)
100
AcDbCircle
 10
0.8322971130006934
 20
1.702081157073336
 30
0.0
 40
0.046
  0
CIRCLE
  5
163
330
37
100
AcDbEntity
  8
Visible (ANSI)
100
AcDbCircle
 10
0.8322971130006934
 20
1.702081157073335
 30
0.0
 40
0.043
  0
CIRCLE
  5
164
330
37
100
AcDbEntity
  8
Visible (ANSI)
100
AcDbCircle
 10
0.978302213000693
 20
1.730081157073335
 30
0.0
 40
0.047
  0
CIRCLE
  5
165
330
37
100
AcDbEntity
  8
Visible (ANSI)
100
AcDbCircle
 10
0.386317413000693
 20
1.461076107073335
 30
0.0
 40
0.043
  0
CIRCLE
  5
166
330
37
100
AcDbEntity
  8
Visible (ANSI)
100
AcDbCircle
 10
0.4163174130006933
 20
1.612081157073335
 30
0.0
 40
0.047
  0
LINE
  5
167
330
37
100
AcDbEntity
  8
Visible (ANSI)
100
AcDbLine
 10
1.013178003000693
 20
1.362081157073336
 30
0.0
 11
0.9816780030006929
 21
1.362081157073336
 31
0.0
  0
LINE
  5
168
330
37
100
AcDbEntity
  8
Visible (ANSI)
100
AcDbLine
 10
0.9816780030006929
 20
1.362081157073331
 30
0.0
 11
0.9631780030006929
 21
1.362081157073331
 31
0.0
  0
LINE
  5
169
330
37
100
AcDbEntity
  8
Visible (ANSI)
100
AcDbLine
 10
0.9631780030006929
 20
1.362081157073336
 30
0.0
 11
0.2716780130006934
 21
1.362081157073336
 31
0.0
  0
LINE
  5
16A
330
37
100
AcDbEntity
  8
Visible (ANSI)
100
AcDbLine
 10
0.2716780130006934
 20
1.812081157073336
 30
0.0
 11
1.171678003000693
 21
1.812081157073336
 31
0.0
  0
LINE
  5
16B
330
37
100
AcDbEntity
  8
Visible (ANSI)
100
AcDbLine
 10
0.9631780030006929
 20
1.362081157073336
 30
0.0
 11
0.9631780030006932
 21
1.462081157073336
 31
0.0
  0
ARC
  5
16C
330
37
100
AcDbEntity
  8
Visible (ANSI)
100
AcDbCircle
 10
1.037428003000693
 20
1.462081157073336
 30
0.0
 40
0.0742500000000001
100
AcDbArc
 50
0.0
 51
180.0
  0
LINE
  5
16D
330
37
100
AcDbEntity
  8
Visible (ANSI)
100
AcDbLine
 10
1.111678003000693
 20
1.462081157073336
 30
0.0
 11
1.111678003000693
 21
1.384081157073336
 31
0.0
  0
LINE
  5
16E
330
37
100
AcDbEntity
  8
Visible (ANSI)
100
AcDbLine
 10
1.111678003000693
 20
1.384081157073336
 30
0.0
 11
1.171678003000693
 21
1.384081157073336
 31
0.0
  0
LINE
  5
16F
330
37
100
AcDbEntity
  8
Visible (ANSI)
100
AcDbLine
 10
1.171678003000693
 20
1.812081157073336
 30
0.0
 11
1.171678003000693
 21
1.384081157073336
 31
0.0
  0
LINE
  5
170
330
37
100
AcDbEntity
  8
Visible (ANSI)
100
AcDbLine
 10
0.2716780130006934
 20
1.812081157073336
 30
0.0
 11
0.2716780130006934
 21
1.362081157073336
 31
0.0
  0
LINE
  5
171
330
37
100
AcDbEntity
  8
Visible (ANSI)
100
AcDbLine
 10
1.171678003000693
 20
1.36208115707333
 30
0.0
 11
1.111678003000693
 21
1.36208115707333
 31
0.0
  0
LINE
  5
172
330
37
100
AcDbEntity
  8
Visible (ANSI)
100
AcDbLine
 10
1.111678003000692
 20
1.362081157073249
 30
0.0
 11
1.101378003000692
 21
1.36208115707324
 31
0.0
  0
LINE
  5
173
330
37
100
AcDbEntity
  8
Visible (ANSI)
100
AcDbLine
 10
1.171678003000693
 20
1.384081157073336
 30
0.0
 11
1.171678003000693
 21
1.36208115707333
 31
0.0
  0
LINE
  5
174
330
37
100
AcDbEntity
  8
Visible (ANSI)
100
AcDbLine
 10
1.013178003000693
 20
1.362081157073336
 30
0.0
 11
1.013178003000693
 21
1.380581157073336
 31
0.0
  0
LINE
  5
175
330
37
100
AcDbEntity
  8
Visible (ANSI)
100
AcDbLine
 10
1.013178003000693
 20
1.380581157073336
 30
0.0
 11
1.031678003000693
 21
1.380581157073336
 31
0.0
  0
LINE
  5
176
330
37
100
AcDbEntity
  8
Visible (ANSI)
100
AcDbLine
 10
1.093178003000693
 20
1.380581157073331
 30
0.0
 11
1.111678003000693
 21
1.380581157073331
 31
0.0
  0
LINE
  5
177
330
37
100
AcDbEntity
  8
Visible (ANSI)
100
AcDbLine
 10
1.031678003000693
 20
1.380581157073336
 30
0.0
 11
1.031678003000693
 21
1.362081157073336
 31
0.0
  0
LINE
  5
178
330
37
100
AcDbEntity
  8
Visible (ANSI)
100
AcDbLine
 10
1.031678003000693
 20
1.362081157073293
 30
0.0
 11
1.013178003000693
 21
1.362081157073282
 31
0.0
  0
LINE
  5
179
330
37
100
AcDbEntity
  8
Visible (ANSI)
100
AcDbLine
 10
1.101378003000692
 20
1.362081157073336
 30
0.0
 11
1.101378003000692
 21
1.370581157073336
 31
0.0
  0
LINE
  5
17A
330
37
100
AcDbEntity
  8
Visible (ANSI)
100
AcDbLine
 10
1.101378003000692
 20
1.370581157073336
 30
0.0
 11
1.096678003000693
 21
1.370581157073336
 31
0.0
  0
ARC
  5
17B
330
37
100
AcDbEntity
  8
Visible (ANSI)
100
AcDbCircle
 10
1.096678003000693
 20
1.374081157073336
 30
0.0
 40
0.0035
100
AcDbArc
 50
180.0
 51
270.0
  0
LINE
  5
17C
330
37
100
AcDbEntity
  8
Visible (ANSI)
100
AcDbLine
 10
1.093178003000693
 20
1.374081157073336
 30
0.0
 11
1.093178003000693
 21
1.462081157073336
 31
0.0
  0
ARC
  5
17D
330
37
100
AcDbEntity
  8
Visible (ANSI)
100
AcDbCircle
 10
1.037428003000693
 20
1.462081157073336
 30
0.0
 40
0.0557500000000001
100
AcDbArc
 50
0.0
 51
180.0
  0
LINE
  5
17E
330
37
100
AcDbEntity
  8
Visible (ANSI)
100
AcDbLine
 10
0.9816780030006933
 20
1.462081157073336
 30
0.0
 11
0.9816780030006929
 21
1.362081157073336
 31
0.0
  0
LINE
  5
17F
330
37
100
AcDbEntity
  8
Visible (ANSI)
100
AcDbLine
 10
1.111678003000693
 20
1.362081157073329
 30
0.0
 11
1.111678003000693
 21
1.384081157073336
 31
0.0
  0
LINE
  5
180
330
37
100
AcDbEntity
  8
Visible (ANSI)
100
AcDbLine
 10
1.101378003000692
 20
1.362081157073336
 30
0.0
 11
1.031678003000693
 21
1.362081157073336
 31
0.0
  0
CIRCLE
  5
181
330
37
100
AcDbEntity
  8
Visible (ANSI)
100
AcDbCircle
 10
0.386317413000693
 20
1.461076107073253
 30
0.0
 40
0.0002144103529895
  0
CIRCLE
  5
182
330
37
100
AcDbEntity
  8
Visible (ANSI)
100
AcDbCircle
 10
0.4163174130006933
 20
1.612081157073268
 30
0.0
 40
0.046875
  0
CIRCLE
  5
183
330
37
100
AcDbEntity
  8
Hidden Narrow (ANSI)
 48
1.066956043243408
100
AcDbCircle
 10
0.8322971130006934
 20
1.702081157073336
 30
0.0
 40
0.05265
  0
CIRCLE
  5
184
330
37
100
AcDbEntity
  8
Hidden Narrow (ANSI)
 48
1.066956043243408
100
AcDbCircle
 10
0.386317413000693
 20
1.461076107073336
 30
0.0
 40
0.05265
  0
LINE
  5
185
330
37
100
AcDbEntity
  8
Visible (ANSI)
100
AcDbLine
 10
1.904567650403342
 20
1.278351619503848
 30
0.0
 11
1.891487589164952
 21
1.270819313190114
 31
0.0
  0
LINE
  5
186
330
37
100
AcDbEntity
  8
Visible (ANSI)
100
AcDbLine
 10
1.571610017604283
 20
1.455024555656037
 30
0.0
 11
1.891487589164952
 21
1.270819313190114
 31
0.0
  0
LINE
  5
187
330
37
100
AcDbEntity
  8
Visible (ANSI)
100
AcDbLine
 10
2.526204165135102
 20
1.271786488521525
 30
0.0
 11
2.208006113601203
 21
1.088548417314948
 31
0.0
  0
LINE
  5
188
330
37
100
AcDbEntity
  8
Visible (ANSI)
100
AcDbLine
 10
1.904567650403342
 20
1.263287006876385
 30
0.0
 11
2.208006113601203
 21
1.088548417314948
 31
0.0
  0
LINE
  5
189
330
37
100
AcDbEntity
  8
Visible (ANSI)
100
AcDbLine
 10
2.095929688783118
 20
1.401827650684366
 30
0.0
 11
2.095929688783118
 21
1.520985144130166
 31
0.0
  0
LINE
  5
18A
330
37
100
AcDbEntity
  8
Visible (ANSI)
100
AcDbLine
 10
2.095929688783118
 20
1.520985144130166
 30
0.0
 11
2.073655825175739
 21
1.533811809114623
 31
0.0
  0
LINE
  5
18B
330
37
100
AcDbEntity
  8
Visible (ANSI)
100
AcDbLine
 10
2.073655825175739
 20
1.533811809114623
 30
0.0
 11
2.073655825175739
 21
1.518687187305036
 31
0.0
  0
LINE
  5
18C
330
37
100
AcDbEntity
  8
Visible (ANSI)
100
AcDbLine
 10
2.073655825175739
 20
1.518687187305036
 30
0.0
 11
2.060574349723785
 21
1.526220308010193
 31
0.0
  0
LINE
  5
18D
330
37
100
AcDbEntity
  8
Visible (ANSI)
100
AcDbLine
 10
2.060574349723785
 20
1.526220308010193
 30
0.0
 11
2.060574349723785
 21
1.54134492981978
 31
0.0
  0
LINE
  5
18E
330
37
100
AcDbEntity
  8
Visible (ANSI)
100
AcDbLine
 10
2.060574349723785
 20
1.54134492981978
 30
0.0
 11
1.571610017604284
 21
1.82292076183518
 31
0.0
  0
LINE
  5
18F
330
37
100
AcDbEntity
  8
Visible (ANSI)
100
AcDbLine
 10
1.571610017604284
 20
1.82292076183518
 30
0.0
 11
1.571610017604283
 21
1.455024555656037
 31
0.0
  0
LINE
  5
190
330
37
100
AcDbEntity
  8
Visible (ANSI)
100
AcDbLine
 10
1.891487589164952
 20
1.270819313190114
 30
0.0
 11
1.891487589164952
 21
1.344398554426445
 31
0.0
  0
LINE
  5
191
330
37
100
AcDbEntity
  8
Visible (ANSI)
100
AcDbLine
 10
1.891487589164952
 20
1.344398554426445
 30
0.0
 11
1.89148688205817
 21
1.36483763974272
 31
0.0
  0
LINE
  5
192
330
37
100
AcDbEntity
  8
Visible (ANSI)
100
AcDbLine
 10
1.89148688205817
 20
1.36483763974272
 30
0.0
 11
1.89148688205817
 21
1.446592352226975
 31
0.0
  0
ELLIPSE
  5
193
330
37
100
AcDbEntity
  8
Visible (ANSI)
100
AcDbEllipse
 10
1.926311891031613
 20
1.426537963322705
 30
0.0
 11
-0.024577336420532
 21
0.0426792342301499
 31
0.0
210
0.0
220
0.0
230
0.9999999999999998
 40
0.5780931159158102
 41
5.499720852205022
 42
7.070517178999918
  0
LINE
  5
194
330
37
100
AcDbEntity
  8
Visible (ANSI)
100
AcDbLine
 10
1.926311891031613
 20
1.4668021592212
 30
0.0
 11
2.036920538026278
 21
1.403106875619187
 31
0.0
  0
ELLIPSE
  5
195
330
37
100
AcDbEntity
  8
Visible (ANSI)
100
AcDbEllipse
 10
2.040156082802664
 20
1.394907659083113
 30
0.0
 11
-0.0044912899042599
 21
0.0077992509253071
 31
0.0
210
0.0
220
0.0
230
1.0
 40
0.5780931159158106
 41
5.499720852204967
 42
6.03306610111564
  0
LINE
  5
196
330
37
100
AcDbEntity
  8
Visible (ANSI)
100
AcDbLine
 10
2.040156082802664
 20
1.402265583206697
 30
0.0
 11
2.045653873523862
 21
1.399099616090328
 31
0.0
  0
ELLIPSE
  5
197
330
37
100
AcDbEntity
  8
Visible (ANSI)
100
AcDbEllipse
 10
2.050055577739277
 20
1.391250786902129
 30
0.0
 11
-0.0044912899042595
 21
0.0077992509253063
 31
0.0
210
0.0
220
0.0
230
1.0
 40
0.5780931159158105
 41
5.499720852205022
 42
6.263507348602885
  0
LINE
  5
198
330
37
100
AcDbEntity
  8
Visible (ANSI)
100
AcDbLine
 10
2.050055577739277
 20
1.398608711025711
 30
0.0
 11
2.054917712255987
 21
1.3958087939725
 31
0.0
  0
ELLIPSE
  5
199
330
37
100
AcDbEntity
  8
Visible (ANSI)
100
AcDbEllipse
 10
2.05995507267589
 20
1.388411461845986
 30
0.0
 11
-0.0044912899042596
 21
0.0077992509253064
 31
0.0
210
0.0
220
0.0
230
1.0
 40
0.5780931159158104
 41
5.499720852205022
 42
6.413053622618327
  0
LINE
  5
19A
330
37
100
AcDbEntity
  8
Visible (ANSI)
100
AcDbLine
 10
2.05995507267589
 20
1.395769385969569
 30
0.0
 11
2.065147460831316
 21
1.39277928849421
 31
0.0
  0
ELLIPSE
  5
19B
330
37
100
AcDbEntity
  8
Visible (ANSI)
100
AcDbEllipse
 10
2.069147460831317
 20
1.384753011816369
 30
0.0
 11
-0.0044912899042607
 21
0.0077992509253084
 31
0.0
210
0.0
220
0.0
230
1.0
 40
0.5780931159158104
 41
5.499720852205132
 42
6.179394671113164
  0
LINE
  5
19C
330
37
100
AcDbEntity
  8
Visible (ANSI)
100
AcDbLine
 10
2.069147460831317
 20
1.392110935939954
 30
0.0
 11
2.074186155261629
 21
1.38920934479457
 31
0.0
  0
ELLIPSE
  5
19D
330
37
100
AcDbEntity
  8
Visible (ANSI)
100
AcDbEllipse
 10
2.074186155261628
 20
1.414348918883479
 30
0.0
 11
0.0153452405062205
 21
-0.0266474406614642
 31
0.0
210
0.0
220
0.0
230
0.9999999999999998
 40
0.5780931159158104
 41
5.499720852205022
 42
7.070517178999907
  0
LINE
  5
19E
330
37
100
AcDbEntity
  8
Visible (ANSI)
100
AcDbLine
 10
2.526204165135102
 20
1.639682694700668
 30
0.0
 11
2.526204165135102
 21
1.271786488521525
 31
0.0
  0
LINE
  5
19F
330
37
100
AcDbEntity
  8
Visible (ANSI)
100
AcDbLine
 10
1.889808069138183
 20
2.006158833041757
 30
0.0
 11
2.526204165135102
 21
1.639682694700668
 31
0.0
  0
LINE
  5
1A0
330
37
100
AcDbEntity
  8
Visible (ANSI)
100
AcDbLine
 10
2.060574349723785
 20
1.54134492981978
 30
0.0
 11
2.13128502784243
 21
1.582064501199019
 31
0.0
  0
ELLIPSE
  5
1A1
330
37
100
AcDbEntity
  8
Visible (ANSI)
100
AcDbEllipse
 10
2.183787706345539
 20
1.551830219449943
 30
0.0
 11
0.0742500000000001
 21
-0.0000000000000044
 31
0.0
210
0.0
220
0.0
230
1.0
 40
0.5758617009853122
 41
5.497787143782528
 42
8.639379797372324
  0
LINE
  5
1A2
330
37
100
AcDbEntity
  8
Visible (ANSI)
100
AcDbLine
 10
2.236290384848648
 20
1.521595937700867
 30
0.0
 11
2.181136055916105
 21
1.48983467202506
 31
0.0
  0
LINE
  5
1A3
330
37
100
AcDbEntity
  8
Visible (ANSI)
100
AcDbLine
 10
2.181136055916105
 20
1.48983467202506
 30
0.0
 11
2.223562462787305
 21
1.465402929197524
 31
0.0
  0
LINE
  5
1A4
330
37
100
AcDbEntity
  8
Visible (ANSI)
100
AcDbLine
 10
2.526204165135102
 20
1.639682694700668
 30
0.0
 11
2.223562462787305
 21
1.465402929197524
 31
0.0
  0
LINE
  5
1A5
330
37
100
AcDbEntity
  8
Visible (ANSI)
100
AcDbLine
 10
1.889808069138183
 20
2.006158833041757
 30
0.0
 11
1.571610017604284
 21
1.82292076183518
 31
0.0
  0
LINE
  5
1A6
330
37
100
AcDbEntity
  8
Visible (ANSI)
100
AcDbLine
 10
1.904567650403342
 20
1.336866248112134
 30
0.0
 11
1.904567650403342
 21
1.263287006876385
 31
0.0
  0
LINE
  5
1A7
330
37
100
AcDbEntity
  8
Visible (ANSI)
100
AcDbLine
 10
2.208006113601203
 20
1.088548417314948
 30
0.0
 11
2.208006113601203
 21
1.438458586747555
 31
0.0
  0
LINE
  5
1A8
330
37
100
AcDbEntity
  8
Visible (ANSI)
100
AcDbLine
 10
2.208006113601203
 20
1.438458586747555
 30
0.0
 11
2.165579706730004
 21
1.462890329575091
 31
0.0
  0
LINE
  5
1A9
330
37
100
AcDbEntity
  8
Visible (ANSI)
100
AcDbLine
 10
2.165579706730004
 20
1.462890329575091
 30
0.0
 11
2.165579706730004
 21
1.239699964493078
 31
0.0
  0
ELLIPSE
  5
1AA
330
37
100
AcDbEntity
  8
Visible (ANSI)
100
AcDbEllipse
 10
2.130754697756561
 20
1.259754353397347
 30
0.0
 11
0.024577336420532
 21
-0.0426792342301499
 31
0.0
210
0.0
220
0.0
230
0.9999999999999998
 40
0.5780931159158102
 41
3.928924525410121
 42
7.070517178999918
  0
LINE
  5
1AB
330
37
100
AcDbEntity
  8
Visible (ANSI)
100
AcDbLine
 10
2.095929688783118
 20
1.279808742301617
 30
0.0
 11
2.095929688783118
 21
1.321299258887376
 31
0.0
  0
ELLIPSE
  5
1AC
330
37
100
AcDbEntity
  8
Visible (ANSI)
100
AcDbEllipse
 10
2.074186155261628
 20
1.333820527086488
 30
0.0
 11
-0.0153452405062221
 21
0.0266474406614633
 31
0.0
210
0.0
220
0.0
230
1.0
 40
0.5780931159158103
 41
3.928924525409893
 42
5.499720852204769
  0
LINE
  5
1AD
330
37
100
AcDbEntity
  8
Visible (ANSI)
100
AcDbLine
 10
2.074186155261629
 20
1.358960101175396
 30
0.0
 11
2.069147460831317
 21
1.36186169232078
 31
0.0
  0
ELLIPSE
  5
1AE
330
37
100
AcDbEntity
  8
Visible (ANSI)
100
AcDbEllipse
 10
2.069147460831317
 20
1.369219616444364
 30
0.0
 11
-0.00449128990426
 21
0.0077992509253082
 31
0.0
210
0.0
220
0.0
230
1.0
 40
0.5780931159158105
 41
1.678454379707162
 42
2.358128198615457
  0
LINE
  5
1AF
330
37
100
AcDbEntity
  8
Visible (ANSI)
100
AcDbLine
 10
2.065147460831316
 20
1.365800233374406
 30
0.0
 11
2.05995507267589
 21
1.368790330849765
 31
0.0
  0
ELLIPSE
  5
1B0
330
37
100
AcDbEntity
  8
Visible (ANSI)
100
AcDbEllipse
 10
2.05995507267589
 20
1.376148254973348
 30
0.0
 11
-0.0044912899042592
 21
0.0077992509253069
 31
0.0
210
0.0
220
0.0
230
1.0
 40
0.5780931159158103
 41
1.44479542820212
 42
2.35812819861551
  0
LINE
  5
1B1
330
37
100
AcDbEntity
  8
Visible (ANSI)
100
AcDbLine
 10
2.054917712255987
 20
1.374552568726594
 30
0.0
 11
2.050055577739277
 21
1.377352485779805
 31
0.0
  0
ELLIPSE
  5
1B2
330
37
100
AcDbEntity
  8
Visible (ANSI)
100
AcDbEllipse
 10
2.050055577739277
 20
1.384710409903388
 30
0.0
 11
-0.004491289904259
 21
0.0077992509253066
 31
0.0
210
0.0
220
0.0
230
1.0
 40
0.5780931159158104
 41
1.594341702217471
 42
2.358128198615457
  0
LINE
  5
1B3
330
37
100
AcDbEntity
  8
Visible (ANSI)
100
AcDbLine
 10
2.045653873523862
 20
1.381931126468634
 30
0.0
 11
2.040156082802664
 21
1.385097093585004
 31
0.0
  0
ELLIPSE
  5
1B4
330
37
100
AcDbEntity
  8
Visible (ANSI)
100
AcDbEllipse
 10
2.040156082802664
 20
1.392455017708587
 30
0.0
 11
-0.0044912899042594
 21
0.0077992509253072
 31
0.0
210
0.0
220
0.0
230
1.0
 40
0.5780931159158104
 41
1.824782949704719
 42
2.358128198615457
  0
LINE
  5
1B5
330
37
100
AcDbEntity
  8
Visible (ANSI)
100
AcDbLine
 10
2.036920538026278
 20
1.3879822538096
 30
0.0
 11
1.926311891031613
 21
1.451677537411613
 31
0.0
  0
ELLIPSE
  5
1B6
330
37
100
AcDbEntity
  8
Visible (ANSI)
100
AcDbEllipse
 10
1.926311891031613
 20
1.426537963322705
 30
0.0
 11
-0.0153452405062205
 21
0.0266474406614642
 31
0.0
210
0.0
220
0.0
230
0.9999999999999998
 40
0.5780931159158104
 41
5.499720852205022
 42
7.070517178999907
  0
LINE
  5
1B7
330
37
100
AcDbEntity
  8
Visible (ANSI)
100
AcDbLine
 10
1.904568357510123
 20
1.439059231521817
 30
0.0
 11
1.904568357510123
 21
1.357304519037563
 31
0.0
  0
LINE
  5
1B8
330
37
100
AcDbEntity
  8
Visible (ANSI)
100
AcDbLine
 10
1.904568357510123
 20
1.357304519037563
 30
0.0
 11
1.904567650403342
 21
1.336866248112134
 31
0.0
  0
ELLIPSE
  5
1B9
330
37
100
AcDbEntity
  8
Visible (ANSI)
100
AcDbEllipse
 10
2.208006113601203
 20
1.456444623494091
 30
0.0
 11
-0.0109787086548532
 21
-0.0190648355951961
 31
0.0
210
0.0
220
0.0
230
1.0
 40
0.5780931159156388
 41
0.7834644549746557
 42
2.354260781769561
  0
ELLIPSE
  5
1BA
330
37
100
AcDbEntity
  8
Visible (ANSI)
100
AcDbEllipse
 10
2.087267630713578
 20
1.421882039588637
 30
0.0
 11
0.0153452405062203
 21
-0.0266474406614638
 31
0.0
210
0.0
220
0.0
230
1.0
 40
0.5780931159158104
 41
0.0
 42
0.7873318718203457
  0
LINE
  5
1BB
330
37
100
AcDbEntity
  8
Visible Narrow (ANSI)
100
AcDbLine
 10
2.109011164235067
 20
1.409360771389525
 30
0.0
 11
2.095929688783118
 21
1.401827650684366
 31
0.0
  0
LINE
  5
1BC
330
37
100
AcDbEntity
  8
Visible (ANSI)
100
AcDbLine
 10
2.109011164235067
 20
1.513452023425009
 30
0.0
 11
2.109011164235067
 21
1.528518264835325
 31
0.0
  0
LINE
  5
1BD
330
37
100
AcDbEntity
  8
Visible (ANSI)
100
AcDbLine
 10
2.095929688783118
 20
1.520985144130166
 30
0.0
 11
2.109011164235067
 21
1.528518264835325
 31
0.0
  0
LINE
  5
1BE
330
37
100
AcDbEntity
  8
Visible (ANSI)
100
AcDbLine
 10
2.109011164235067
 20
1.528518264835325
 30
0.0
 11
2.12209263968702
 21
1.520985144130168
 31
0.0
  0
ELLIPSE
  5
1BF
330
37
100
AcDbEntity
  8
Visible (ANSI)
100
AcDbEllipse
 10
1.939393366483562
 20
1.434071084027864
 30
0.0
 11
-0.024577336420532
 21
0.0426792342301499
 31
0.0
210
0.0
220
0.0
230
1.0
 40
0.5780931159158104
 41
0.2683092717563138
 42
0.7873318718203283
  0
LINE
  5
1C0
330
37
100
AcDbEntity
  8
Visible (ANSI)
100
AcDbLine
 10
1.904568357510119
 20
1.439059231521817
 30
0.0
 11
1.904568357510119
 21
1.454125472932134
 31
0.0
  0
ELLIPSE
  5
1C1
330
37
100
AcDbEntity
  8
Visible (ANSI)
100
AcDbEllipse
 10
1.939393366483562
 20
1.434071084027864
 30
0.0
 11
-0.0153452405062205
 21
0.0266474406614642
 31
0.0
210
0.0
220
0.0
230
1.0
 40
0.5780931159158104
 41
5.499720852205022
 42
6.283185307179591
  0
LINE
  5
1C2
330
37
100
AcDbEntity
  8
Visible (ANSI)
100
AcDbLine
 10
2.050002013478227
 20
1.39551537451476
 30
0.0
 11
1.939393366483562
 21
1.459210658116772
 31
0.0
  0
ELLIPSE
  5
1C3
330
37
100
AcDbEntity
  8
Visible (ANSI)
100
AcDbEllipse
 10
2.053237558254613
 20
1.399988138413746
 30
0.0
 11
-0.0044912899042594
 21
0.0077992509253072
 31
0.0
210
0.0
220
0.0
230
1.0
 40
0.5780931159158104
 41
1.824782949704719
 42
2.358128198615457
  0
LINE
  5
1C4
330
37
100
AcDbEntity
  8
Visible (ANSI)
100
AcDbLine
 10
2.058735348975811
 20
1.389464247173794
 30
0.0
 11
2.053237558254613
 21
1.392630214290163
 31
0.0
  0
ELLIPSE
  5
1C5
330
37
100
AcDbEntity
  8
Visible (ANSI)
100
AcDbEllipse
 10
2.063137053191227
 20
1.392243530608547
 30
0.0
 11
-0.004491289904259
 21
0.0077992509253066
 31
0.0
210
0.0
220
0.0
230
1.0
 40
0.5780931159158104
 41
1.594341702217471
 42
2.358128198615457
  0
LINE
  5
1C6
330
37
100
AcDbEntity
  8
Visible (ANSI)
100
AcDbLine
 10
2.067999187707936
 20
1.382085689431754
 30
0.0
 11
2.063137053191227
 21
1.384885606484965
 31
0.0
  0
ELLIPSE
  5
1C7
330
37
100
AcDbEntity
  8
Visible (ANSI)
100
AcDbEllipse
 10
2.07303654812784
 20
1.383681375678507
 30
0.0
 11
-0.0044912899042592
 21
0.0077992509253069
 31
0.0
210
0.0
220
0.0
230
1.0
 40
0.5780931159158104
 41
1.44479542820212
 42
2.35812819861551
  0
LINE
  5
1C8
330
37
100
AcDbEntity
  8
Visible (ANSI)
100
AcDbLine
 10
2.078228936283265
 20
1.373333354079566
 30
0.0
 11
2.07303654812784
 21
1.376323451554924
 31
0.0
  0
ELLIPSE
  5
1C9
330
37
100
AcDbEntity
  8
Visible (ANSI)
100
AcDbEllipse
 10
2.082228936283267
 20
1.376752737149524
 30
0.0
 11
-0.0044912899042603
 21
0.0077992509253088
 31
0.0
210
0.0
220
0.0
230
1.0
 40
0.5780931159158103
 41
1.678454379707137
 42
2.190680119396262
  0
ELLIPSE
  5
1CA
330
37
100
AcDbEntity
  8
Visible (ANSI)
100
AcDbEllipse
 10
2.14383617320851
 20
1.267287474102505
 30
0.0
 11
0.0245773364205311
 21
-0.0426792342301484
 31
0.0
210
0.0
220
0.0
230
0.9999999999999998
 40
0.5780931159158103
 41
5.284959686257382
 42
6.014876035423282
  0
LINE
  5
1CB
330
37
100
AcDbEntity
  8
Visible (ANSI)
100
AcDbLine
 10
2.165579706729999
 20
1.480817985922356
 30
0.0
 11
2.176575681020565
 21
1.474485825463402
 31
0.0
  0
LINE
  5
1CC
330
37
100
AcDbEntity
  8
Visible (ANSI)
100
AcDbLine
 10
2.165579706729999
 20
1.462890329575091
 30
0.0
 11
2.165579706729999
 21
1.480817985922356
 31
0.0
  0
ELLIPSE
  5
1CD
330
37
100
AcDbEntity
  8
Visible (ANSI)
100
AcDbEllipse
 10
2.14383617320851
 20
1.267287474102506
 30
0.0
 11
0.0153452405062203
 21
-0.0266474406614638
 31
0.0
210
0.0
220
0.0
230
1.0
 40
0.5780931159158105
 41
0.0000000000000017
 42
0.7873318718203456
  0
ELLIPSE
  5
1CE
330
37
100
AcDbEntity
  8
Visible (ANSI)
100
AcDbEllipse
 10
2.087267630713578
 20
1.421882039588634
 30
0.0
 11
0.0245773364205301
 21
-0.0426792342301466
 31
0.0
210
0.0
220
0.0
230
1.0
 40
0.5780931159158103
 41
5.701580508918132
 42
6.014876035423272
  0
LINE
  5
1CF
330
37
100
AcDbEntity
  8
Visible (ANSI)
100
AcDbLine
 10
2.12209263968702
 20
1.520985144130168
 30
0.0
 11
2.109011164235071
 21
1.513452023425009
 31
0.0
  0
LINE
  5
1D0
330
37
100
AcDbEntity
  8
Visible (ANSI)
100
AcDbLine
 10
2.109011164235071
 20
1.513452023425009
 30
0.0
 11
2.109011164235071
 21
1.394294529979209
 31
0.0
  0
ELLIPSE
  5
1D1
330
37
100
AcDbEntity
  8
Visible (ANSI)
100
AcDbEllipse
 10
2.074186155261629
 20
1.414348918883478
 30
0.0
 11
0.024577336420532
 21
-0.0426792342301499
 31
0.0
210
0.0
220
0.0
230
0.9999999999999998
 40
0.5780931159158102
 41
5.701580508918148
 42
7.070517178999918
  0
LINE
  5
1D2
330
37
100
AcDbEntity
  8
Visible (ANSI)
100
AcDbLine
 10
2.094249751563439
 20
1.378414655021807
 30
0.0
 11
2.08116827611149
 21
1.370881534316648
 31
0.0
  0
LINE
  5
1D3
330
37
100
AcDbEntity
  8
Visible (ANSI)
100
AcDbLine
 10
2.08116827611149
 20
1.370881534316648
 30
0.0
 11
2.08116827611149
 21
1.369246439675149
 31
0.0
  0
ELLIPSE
  5
1D4
330
37
100
AcDbEntity
  8
Visible (ANSI)
100
AcDbEllipse
 10
2.074186155261629
 20
1.333820527086488
 30
0.0
 11
0.0245773364205293
 21
-0.0426792342301511
 31
0.0
210
0.0
220
0.0
230
1.0
 40
0.5780931159158103
 41
0.7873318718205163
 42
2.156268541902251
  0
LINE
  5
1D5
330
37
100
AcDbEntity
  8
Visible (ANSI)
100
AcDbLine
 10
2.109011164235071
 20
1.313766138182219
 30
0.0
 11
2.109011164235071
 21
1.27227562159646
 31
0.0
  0
ELLIPSE
  5
1D6
330
37
100
AcDbEntity
  8
Visible (ANSI)
100
AcDbEllipse
 10
2.130754697756561
 20
1.259754353397347
 30
0.0
 11
0.015345240506222
 21
-0.0266474406614632
 31
0.0
210
0.0
220
0.0
230
1.0
 40
0.5780931159158106
 41
3.928924525409893
 42
7.070517178999686
  0
LINE
  5
1D7
330
37
100
AcDbEntity
  8
Visible Narrow (ANSI)
100
AcDbLine
 10
2.15249823127805
 20
1.247233085198235
 30
0.0
 11
2.165579706729999
 21
1.254766205903394
 31
0.0
  0
ELLIPSE
  5
1D8
330
37
100
AcDbEntity
  8
Visible (ANSI)
100
AcDbEllipse
 10
2.154973105012203
 20
1.477173736530401
 30
0.0
 11
-0.0017466127405454
 21
0.0030330420265081
 31
0.0
210
0.0
220
0.0
230
1.0
 40
0.5780931159158104
 41
5.499720852205022
 42
7.070517178999851
  0
LINE
  5
1D9
330
37
100
AcDbEntity
  8
Visible Narrow (ANSI)
100
AcDbLine
 10
2.154982694936645
 20
1.480029628997149
 30
0.0
 11
2.15249823127805
 21
1.478598921528674
 31
0.0
  0
LINE
  5
1DA
330
37
100
AcDbEntity
  8
Visible (ANSI)
100
AcDbLine
 10
2.154973105012203
 20
1.480035151467349
 30
0.0
 11
2.158296506883781
 21
1.478121331612526
 31
0.0
  0
LINE
  5
1DB
330
37
100
AcDbEntity
  8
Visible (ANSI)
100
AcDbLine
 10
2.164306914523866
 20
1.481582495179761
 30
0.0
 11
2.158296506883781
 21
1.478121331612526
 31
0.0
  0
LINE
  5
1DC
330
37
100
AcDbEntity
  8
Visible (ANSI)
100
AcDbLine
 10
2.158296506883781
 20
1.478121331612526
 30
0.0
 11
2.158296506883781
 21
1.485070482173687
 31
0.0
  0
LINE
  5
1DD
330
37
100
AcDbEntity
  8
Visible (ANSI)
100
AcDbLine
 10
2.164306914523866
 20
1.488531645740923
 30
0.0
 11
2.164306914523866
 21
1.481582495179761
 31
0.0
  0
LINE
  5
1DE
330
37
100
AcDbEntity
  8
Visible (ANSI)
100
AcDbLine
 10
2.158296506883781
 20
1.485070482173687
 30
0.0
 11
2.164306914523866
 21
1.488531645740923
 31
0.0
  0
LINE
  5
1DF
330
37
100
AcDbEntity
  8
Visible (ANSI)
100
AcDbLine
 10
2.164306914523866
 20
1.488531645740923
 30
0.0
 11
2.160983512652288
 21
1.490445465595747
 31
0.0
  0
ELLIPSE
  5
1E0
330
37
100
AcDbEntity
  8
Visible (ANSI)
100
AcDbEllipse
 10
2.163458386386441
 20
1.49187065059402
 30
0.0
 11
-0.0035
 21
0.0
 31
0.0
210
0.0
220
0.0
230
1.0
 40
0.5758617009853123
 41
5.497787143782351
 42
7.068583470577217
  0
LINE
  5
1E1
330
37
100
AcDbEntity
  8
Visible Narrow (ANSI)
100
AcDbLine
 10
2.160983512652288
 20
1.490445465595747
 30
0.0
 11
2.160983512652288
 21
1.493295835592293
 31
0.0
  0
LINE
  5
1E2
330
37
100
AcDbEntity
  8
Visible (ANSI)
100
AcDbLine
 10
2.15249823127805
 20
1.247233085198235
 30
0.0
 11
2.15249823127805
 21
1.478598921528674
 31
0.0
  0
LINE
  5
1E3
330
37
100
AcDbEntity
  8
Visible (ANSI)
100
AcDbLine
 10
2.181135973967418
 20
1.489776244434681
 30
0.0
 11
2.165579706729999
 21
1.480817985922356
 31
0.0
  0
LINE
  5
1E4
330
37
100
AcDbEntity
  8
Visible Narrow (ANSI)
100
AcDbLine
 10
2.223208909396695
 20
1.514062816995705
 30
0.0
 11
2.223208909396695
 21
1.529129058406024
 31
0.0
  0
LINE
  5
1E5
330
37
100
AcDbEntity
  8
Visible (ANSI)
100
AcDbLine
 10
2.160983512652288
 20
1.493295835592293
 30
0.0
 11
2.223208909396695
 21
1.529129058406024
 31
0.0
  0
ELLIPSE
  5
1E6
330
37
100
AcDbEntity
  8
Visible (ANSI)
100
AcDbEllipse
 10
2.183787706345539
 20
1.551830219449943
 30
0.0
 11
0.0557500000000001
 21
0.0
 31
0.0
210
0.0
220
0.0
230
1.0
 40
0.5758617009853122
 41
5.497787143782289
 42
8.639379797372082
  0
ELLIPSE
  5
1E7
330
37
100
AcDbEntity
  8
Visible (ANSI)
100
AcDbEllipse
 10
2.183787706345539
 20
1.536705597640356
 30
0.0
 11
0.0557500000000008
 21
0.0
 31
0.0
210
0.0
220
0.0
230
1.0
 40
0.5758617009853122
 41
5.548504434163961
 42
6.28318530717958
  0
LINE
  5
1E8
330
37
100
AcDbEntity
  8
Visible (ANSI)
100
AcDbLine
 10
2.144366503294383
 20
1.574531380493862
 30
0.0
 11
2.073655825175739
 21
1.533811809114623
 31
0.0
  0
ELLIPSE
  5
1E9
330
37
100
AcDbEntity
  8
Visible (ANSI)
100
AcDbEllipse
 10
2.183787706345539
 20
1.536705597640356
 30
0.0
 11
0.0742500000000003
 21
0.0
 31
0.0
210
0.0
220
0.0
230
1.0
 40
0.5758617009853122
 41
0.1777994818270363
 42
0.9165237544497484
  0
LINE
  5
1EA
330
37
100
AcDbEntity
  8
Visible (ANSI)
100
AcDbLine
 10
2.073655825175739
 20
1.533753428715354
 30
0.0
 11
2.060574349723785
 21
1.526220308010193
 31
0.0
  0
LINE
  5
1EB
330
37
100
AcDbEntity
  8
Visible Narrow (ANSI)
100
AcDbLine
 10
2.13128502784243
 20
1.566998259788701
 30
0.0
 11
2.13128502784243
 21
1.582064501199019
 31
0.0
  0
ELLIPSE
  5
1EC
330
37
100
AcDbEntity
  8
Visible (ANSI)
100
AcDbEllipse
 10
2.165579706730004
 20
1.480876366321627
 30
0.0
 11
0.0109787086548509
 21
0.0190648355951974
 31
0.0
210
0.0
220
0.0
230
1.0
 40
0.5780931159156389
 41
3.925057108563969
 42
5.495853435358864
  0
LINE
  5
1ED
330
37
100
AcDbEntity
  8
Visible Narrow (ANSI)
100
AcDbLine
 10
1.891487589164952
 20
1.344398554426445
 30
0.0
 11
1.90456817160702
 21
1.351931160881415
 31
0.0
  0
LINE
  5
1EE
330
37
100
AcDbEntity
  8
Visible Narrow (ANSI)
100
AcDbLine
 10
1.904568357510119
 20
1.37237076044788
 30
0.0
 11
1.89148688205817
 21
1.36483763974272
 31
0.0
  0
LINE
  5
1EF
330
37
100
AcDbEntity
  8
Visible (ANSI)
100
AcDbLine
 10
2.054917712255987
 20
1.3958087939725
 30
0.0
 11
2.05608549598768
 21
1.396481275898616
 31
0.0
  0
LINE
  5
1F0
330
37
100
AcDbEntity
  8
Visible Narrow (ANSI)
100
AcDbLine
 10
1.904568357510119
 20
1.454125472932134
 30
0.0
 11
1.89148688205817
 21
1.446592352226975
 31
0.0
  0
LINE
  5
1F1
330
37
100
AcDbEntity
  8
Visible Narrow (ANSI)
100
AcDbLine
 10
1.939393366483562
 20
1.459210658116772
 30
0.0
 11
1.926311891031613
 21
1.451677537411613
 31
0.0
  0
LINE
  5
1F2
330
37
100
AcDbEntity
  8
Visible Narrow (ANSI)
100
AcDbLine
 10
2.107164064656519
 20
1.327768705687343
 30
0.0
 11
2.095929688783118
 21
1.321299258887376
 31
0.0
  0
LINE
  5
1F3
330
37
100
AcDbEntity
  8
Visible Narrow (ANSI)
100
AcDbLine
 10
2.074186155261629
 20
1.358960101175396
 30
0.0
 11
2.085441929788689
 21
1.365441870640458
 31
0.0
  0
LINE
  5
1F4
330
37
100
AcDbEntity
  8
Visible Narrow (ANSI)
100
AcDbLine
 10
2.081499950271021
 20
1.368975017900934
 30
0.0
 11
2.069147460831317
 21
1.36186169232078
 31
0.0
  0
LINE
  5
1F5
330
37
100
AcDbEntity
  8
Visible Narrow (ANSI)
100
AcDbLine
 10
2.053237558254613
 20
1.392630214290163
 30
0.0
 11
2.040156082802664
 21
1.385097093585004
 31
0.0
  0
LINE
  5
1F6
330
37
100
AcDbEntity
  8
Visible (ANSI)
100
AcDbLine
 10
2.050002013478227
 20
1.39551537451476
 30
0.0
 11
2.036920538026278
 21
1.3879822538096
 31
0.0
  0
LINE
  5
1F7
330
37
100
AcDbEntity
  8
Visible Narrow (ANSI)
100
AcDbLine
 10
2.063137053191227
 20
1.384885606484965
 30
0.0
 11
2.050055577739277
 21
1.377352485779805
 31
0.0
  0
LINE
  5
1F8
330
37
100
AcDbEntity
  8
Visible (ANSI)
100
AcDbLine
 10
2.058735348975811
 20
1.389464247173794
 30
0.0
 11
2.045653873523862
 21
1.381931126468634
 31
0.0
  0
LINE
  5
1F9
330
37
100
AcDbEntity
  8
Visible Narrow (ANSI)
100
AcDbLine
 10
2.07303654812784
 20
1.376323451554924
 30
0.0
 11
2.05995507267589
 21
1.368790330849765
 31
0.0
  0
LINE
  5
1FA
330
37
100
AcDbEntity
  8
Visible (ANSI)
100
AcDbLine
 10
2.067999187707936
 20
1.382085689431754
 30
0.0
 11
2.054917712255987
 21
1.374552568726594
 31
0.0
  0
LINE
  5
1FB
330
37
100
AcDbEntity
  8
Visible (ANSI)
100
AcDbLine
 10
2.078228936283265
 20
1.373333354079566
 30
0.0
 11
2.065147460831316
 21
1.365800233374406
 31
0.0
  0
LINE
  5
1FC
330
37
100
AcDbEntity
  8
Visible Narrow (ANSI)
100
AcDbLine
 10
2.109011164235067
 20
1.287341863006776
 30
0.0
 11
2.095929688783118
 21
1.279808742301617
 31
0.0
  0
LINE
  5
1FD
330
37
100
AcDbEntity
  8
Visible (ANSI)
100
AcDbLine
 10
2.158296506883781
 20
1.485070482173687
 30
0.0
 11
2.109011164235071
 21
1.513452023425009
 31
0.0
  0
LINE
  5
1FE
330
37
100
AcDbEntity
  8
Visible (ANSI)
100
AcDbLine
 10
2.089531395767849
 20
1.387701478222014
 30
0.0
 11
2.102612871219799
 21
1.395234598927173
 31
0.0
  0
LINE
  5
1FF
330
37
100
AcDbEntity
  8
Visible (ANSI)
100
AcDbLine
 10
2.15918141371473
 20
1.240640033441042
 30
0.0
 11
2.146099938262782
 21
1.233106912735883
 31
0.0
  0
LINE
  5
200
330
37
100
AcDbEntity
  8
Visible (ANSI)
100
AcDbLine
 10
2.239537706345539
 20
1.536705597640356
 30
0.0
 11
2.239537706345539
 21
1.551830219449943
 31
0.0
  0
LINE
  5
201
330
37
100
AcDbEntity
  8
Visible (ANSI)
100
AcDbLine
 10
1.924048125977342
 20
1.460718524689328
 30
0.0
 11
1.910966650525392
 21
1.453185403984169
 31
0.0
  0
ELLIPSE
  5
202
330
37
100
AcDbEntity
  8
Visible (ANSI)
100
AcDbEllipse
 10
2.038027619549223
 20
1.632496724837877
 30
0.0
 11
-0.0445
 21
0.0
 31
0.0
210
0.0
220
0.0
230
1.0
 40
0.5758617009853121
 41
2.393467717764051
 42
7.031310243005332
  0
ELLIPSE
  5
203
330
37
100
AcDbEntity
  8
Visible (ANSI)
100
AcDbEllipse
 10
1.898027619784126
 20
1.713117362840525
 30
0.0
 11
-0.0445
 21
0.0
 31
0.0
210
0.0
220
0.0
230
1.0
 40
0.5758617009853121
 41
2.393467717764046
 42
7.031310243005333
  0
ELLIPSE
  5
204
330
37
100
AcDbEntity
  8
Visible (ANSI)
100
AcDbEllipse
 10
1.900145368672776
 20
1.555239973925488
 30
0.0
 11
0.022206933415506
 21
-0.0385629629084601
 31
0.0
210
0.0
220
0.0
230
0.9999999999999998
 40
0.5780931159158106
 41
2.387296791170317
 42
7.037481169599053
  0
ELLIPSE
  5
205
330
37
100
AcDbEntity
  8
Visible (ANSI)
100
AcDbEllipse
 10
1.898024048329217
 20
1.55401838678411
 30
0.0
 11
-0.0237040300502617
 21
0.0411627132168945
 31
0.0
210
0.0
220
0.0
230
1.0
 40
0.5780931159158103
 41
0.0
 42
6.283185307179377
  0
ELLIPSE
  5
206
330
37
100
AcDbEntity
  8
Visible (ANSI)
100
AcDbEllipse
 10
1.75802404856412
 20
1.634639024786758
 30
0.0
 11
-0.0237040300502617
 21
0.0411627132168945
 31
0.0
210
0.0
220
0.0
230
1.0
 40
0.5780931159158103
 41
0.0
 42
6.283185307179377
  0
ELLIPSE
  5
207
330
37
100
AcDbEntity
  8
Visible (ANSI)
100
AcDbEllipse
 10
1.652672314735452
 20
1.492551237203101
 30
0.0
 11
-0.0237040300502617
 21
0.0411627132168945
 31
0.0
210
0.0
220
0.0
230
1.0
 40
0.5780931159158103
 41
0.0
 42
6.283185307179373
  0
ELLIPSE
  5
208
330
37
100
AcDbEntity
  8
Visible (ANSI)
100
AcDbEllipse
 10
1.75165651607851
 20
1.514852097756758
 30
0.0
 11
-0.0249516105792229
 21
0.0433291718072573
 31
0.0
210
0.0
220
0.0
230
1.0
 40
0.5780931159158103
 41
0.0
 42
6.28318530717938
  0
ELLIPSE
  5
209
330
37
100
AcDbEntity
  8
Visible (ANSI)
100
AcDbEllipse
 10
2.038741869240291
 20
1.472162706683476
 30
0.0
 11
-0.0249516105792229
 21
0.0433291718072573
 31
0.0
210
0.0
220
0.0
230
1.0
 40
0.5780931159158103
 41
0.0
 42
6.28318530717938
  0
ELLIPSE
  5
20A
330
37
100
AcDbEntity
  8
Visible (ANSI)
100
AcDbEllipse
 10
1.76014536890768
 20
1.635860611928135
 30
0.0
 11
0.0222069334155061
 21
-0.0385629629084604
 31
0.0
210
0.0
220
0.0
230
0.9999999999999998
 40
0.5780931159158106
 41
2.387296791170316
 42
7.037481169599069
  0
ELLIPSE
  5
20B
330
37
100
AcDbEntity
  8
Visible (ANSI)
100
AcDbEllipse
 10
2.04086318958385
 20
1.473384293824853
 30
0.0
 11
0.023454513944467
 21
-0.0407294214988232
 31
0.0
210
0.0
220
0.0
230
1.0
 40
0.5780931159158104
 41
2.385565739418536
 42
7.03921222135085
  0
ELLIPSE
  5
20C
330
37
100
AcDbEntity
  8
Visible (ANSI)
100
AcDbEllipse
 10
1.654793635079012
 20
1.493772824344478
 30
0.0
 11
0.022206933415506
 21
-0.0385629629084603
 31
0.0
210
0.0
220
0.0
230
1.0
 40
0.5780931159158104
 41
2.387296791170306
 42
7.037481169599063
  0
ELLIPSE
  5
20D
330
37
100
AcDbEntity
  8
Visible (ANSI)
100
AcDbEllipse
 10
1.753777836422069
 20
1.516073684898135
 30
0.0
 11
0.023454513944467
 21
-0.0407294214988232
 31
0.0
210
0.0
220
0.0
230
1.0
 40
0.5780931159158103
 41
2.385565739418536
 42
7.039212221350849
  0
ELLIPSE
  5
20E
330
37
100
AcDbEntity
  8
Visible (ANSI)
100
AcDbEllipse
 10
2.038027619549223
 20
1.634949366212405
 30
0.0
 11
-0.0475000000000001
 21
0.0
 31
0.0
210
0.0
220
0.0
230
1.0
 40
0.5758617009853123
 41
0.0000000000000002
 42
6.283185307179586
  0
ELLIPSE
  5
20F
330
37
100
AcDbEntity
  8
Visible (ANSI)
100
AcDbEllipse
 10
1.898027619784126
 20
1.715570004215052
 30
0.0
 11
-0.0475000000000001
 21
0.0
 31
0.0
210
0.0
220
0.0
230
1.0
 40
0.5758617009853123
 41
0.0000000000000002
 42
6.283185307179586
  0
ELLIPSE
  5
210
330
37
100
AcDbEntity
  8
Visible (ANSI)
100
AcDbEllipse
 10
2.331484076651487
 20
1.685034439008887
 30
0.0
 11
-0.0500000000000001
 21
0.0
 31
0.0
210
0.0
220
0.0
230
1.0
 40
0.5758617009853123
 41
0.0
 42
6.283185307179586
  0
ELLIPSE
  5
211
330
37
100
AcDbEntity
  8
Visible (ANSI)
100
AcDbEllipse
 10
1.850662213467663
 20
1.865823146557792
 30
0.0
 11
-0.0500000000000001
 21
0.0
 31
0.0
210
0.0
220
0.0
230
1.0
 40
0.5758617009853123
 41
0.0
 42
6.283185307179586
  0
ELLIPSE
  5
212
330
37
100
AcDbEntity
  8
Visible (ANSI)
100
AcDbEllipse
 10
1.722672315183666
 20
1.816550408850555
 30
0.0
 11
-0.046
 21
0.0
 31
0.0
210
0.0
220
0.0
230
1.0
 40
0.5758617009853122
 41
0.0000000000000002
 42
6.283185307179586
  0
ELLIPSE
  5
213
330
37
100
AcDbEntity
  8
Visible (ANSI)
100
AcDbEllipse
 10
2.208443890480432
 20
1.733085609934512
 30
0.0
 11
-0.046
 21
0.0
 31
0.0
210
0.0
220
0.0
230
1.0
 40
0.5758617009853124
 41
0.0000000000000004
 42
6.283185307179586
  0
ELLIPSE
  5
214
330
37
100
AcDbEntity
  8
Visible (ANSI)
100
AcDbEllipse
 10
2.208443890480432
 20
1.730632968559985
 30
0.0
 11
-0.043
 21
0.0
 31
0.0
210
0.0
220
0.0
230
1.0
 40
0.5758617009853123
 41
2.394614649145722
 42
7.030163311623646
  0
ELLIPSE
  5
215
330
37
100
AcDbEntity
  8
Visible (ANSI)
100
AcDbEllipse
 10
2.331484076651487
 20
1.682581797634359
 30
0.0
 11
-0.047
 21
0.0
 31
0.0
210
0.0
220
0.0
230
1.0
 40
0.5758617009853121
 41
2.391716496308696
 42
7.033061464460692
  0
ELLIPSE
  5
216
330
37
100
AcDbEntity
  8
Visible (ANSI)
100
AcDbEllipse
 10
1.722672315183666
 20
1.814097767476027
 30
0.0
 11
-0.0430000000000001
 21
0.0
 31
0.0
210
0.0
220
0.0
230
1.0
 40
0.5758617009853122
 41
2.394614649145722
 42
7.030163311623656
  0
ELLIPSE
  5
217
330
37
100
AcDbEntity
  8
Visible (ANSI)
100
AcDbEllipse
 10
1.850662213467663
 20
1.863370505183265
 30
0.0
 11
-0.047
 21
0.0
 31
0.0
210
0.0
220
0.0
230
1.0
 40
0.5758617009853121
 41
2.391716496308696
 42
7.033061464460692
  0
ELLIPSE
  5
218
330
37
100
AcDbEntity
  8
Visible (ANSI)
100
AcDbEllipse
 10
2.04086318958385
 20
1.271450153988747
 30
0.0
 11
0.0222069334155061
 21
-0.0385629629084605
 31
0.0
210
0.0
220
0.0
230
1.0
 40
0.5780931159158105
 41
2.387296791170328
 42
7.03748116959905
  0
ELLIPSE
  5
219
330
37
100
AcDbEntity
  8
Visible (ANSI)
100
AcDbEllipse
 10
2.03874186924029
 20
1.270228566847369
 30
0.0
 11
-0.0237040300502617
 21
0.0411627132168945
 31
0.0
210
0.0
220
0.0
230
1.0
 40
0.5780931159158103
 41
0.0
 42
6.283185307179373
  0
ELLIPSE
  5
21A
330
37
100
AcDbEntity
  8
Visible (ANSI)
100
AcDbEllipse
 10
2.346509793021648
 20
1.376058073622182
 30
0.0
 11
0.0158442727177978
 21
0.0275140240976133
 31
0.0
210
0.0
220
0.0
230
1.0
 40
0.578093115915639
 41
2.400276132138168
 42
7.024501828631223
  0
ELLIPSE
  5
21B
330
37
100
AcDbEntity
  8
Visible (ANSI)
100
AcDbEllipse
 10
2.348631113365209
 20
1.374836486480806
 30
0.0
 11
-0.0173413693525486
 21
-0.0301137744060503
 31
0.0
210
0.0
220
0.0
230
1.0
 40
0.578093115915639
 41
0.0
 42
6.283185307179381
  0
ELLIPSE
  5
21C
330
37
100
AcDbEntity
  8
Visible (ANSI)
100
AcDbEllipse
 10
2.441351351392729
 20
1.321028657847543
 30
0.0
 11
-0.02295548173287
 21
-0.0398628380626853
 31
0.0
210
0.0
220
0.0
230
1.0
 40
0.5780931159156389
 41
0.0
 42
6.283185307179385
  0
ELLIPSE
  5
21D
330
37
100
AcDbEntity
  8
Visible (ANSI)
100
AcDbEllipse
 10
2.439230031049169
 20
1.32225024498892
 30
0.0
 11
0.0214583850981197
 21
0.0372630877542478
 31
0.0
210
0.0
220
0.0
230
1.0
 40
0.578093115915639
 41
2.388430511571696
 42
7.036347449197688
  0
DIMENSION
  5
21E
330
37
100
AcDbEntity
  8
Dimension (ANSI)
100
AcDbDimension
  2
*D5
 10
0.1878324021018217
 20
1.362081157073336
 30
0.0
 11
0.1878324021018215
 21
1.597916776887888
 31
0.0
 70
   160
  1
<>
 42
0.45
  3
Default (ANSI)
100
AcDbAlignedDimension
 13
0.2716780130006934
 23
1.812081157073336
 33
0.0
 14
0.2716780130006934
 24
1.362081157073336
 34
0.0
 50
90.0
100
AcDbRotatedDimension
1001
ACAD
1000
DSTYLE
1002
{
1070
   271
1070
     3
1070
   272
1070
     3
1070
    48
1040
0.0
1070
    47
1040
0.0
1002
}
  0
DIMENSION
  5
2EB
330
37
100
AcDbEntity
  8
Dimension (ANSI)
100
AcDbDimension
  2
*D6
 10
0.1732528161503858
 20
0.7522917046045075
 30
0.0
 11
0.1732528161503857
 21
0.9772917046045074
 31
0.0
 70
   160
  1
<>
 42
0.4500000000000002
  3
Default (ANSI)
100
AcDbAlignedDimension
 13
0.2716780130007796
 23
1.202291704604507
 33
0.0
 14
0.2716780130007794
 24
0.7522917046045074
 34
0.0
 50
90.0
100
AcDbRotatedDimension
1001
ACAD
1000
DSTYLE
1002
{
1070
   271
1070
     3
1070
   272
1070
     3
1070
    48
1040
0.0
1070
    47
1040
0.0
1002
}
  0
DIMENSION
  5
3B7
330
37
100
AcDbEntity
  8
Dimension (ANSI)
100
AcDbDimension
  2
*D7
 10
1.171678003000693
 20
1.924388050071007
 30
0.0
 11
0.7057203865549645
 21
1.924388050071007
 31
0.0
 70
   160
  1
<>
 42
0.8999999899999998
  3
Default (ANSI)
100
AcDbAlignedDimension
 13
0.2716780130006934
 23
1.812081157073336
 33
0.0
 14
1.171678003000693
 24
1.812081157073336
 34
0.0
 50
180.0
100
AcDbRotatedDimension
1001
ACAD
1000
DSTYLE
1002
{
1070
   271
1070
     3
1070
   272
1070
     3
1070
    48
1040
0.0
1070
    47
1040
0.0
1002
}
  0
INSERT
  5
4B3
330
37
100
AcDbEntity
  8
0
100
AcDbBlockReference
 66
     1
  2
Title Blocks ANSI A
 10
-0.1575056471456691
 20
-1.154649044694601
 30
0.0
 41
0.25
 42
0.25
 43
0.25
  0
ATTRIB
  5
4B5
330
4B3
100
AcDbEntity
  8
Title (ANSI)
100
AcDbText
 10
1.09749686269685
 20
0.5403710544905531
 30
0.0
 40
0.0250000007978575
  1
D Chow
  7
Note Text (ANSI)
 11
1.09749686269685
 21
0.5375
 31
0.0
100
AcDbAttribute
  2
AUTHOR
 70
     0
 74
     1
  0
ATTRIB
  5
4B6
330
4B3
100
AcDbEntity
  8
Title (ANSI)
100
AcDbText
 10
1.09749686269685
 20
0.477871054490553
 30
0.0
 40
0.0250000007978575
  1

  7
Note Text (ANSI)
 11
1.09749686269685
 21
0.4749999999999999
 31
0.0
100
AcDbAttribute
  2
CHECKED_BY
 70
     0
 74
     1
  0
ATTRIB
  5
4B7
330
4B3
100
AcDbEntity
  8
Title (ANSI)
100
AcDbText
 10
1.09749686269685
 20
0.3528710544905532
 30
0.0
 40
0.0250000007978575
  1

  7
Note Text (ANSI)
 11
1.09749686269685
 21
0.3500000000000001
 31
0.0
100
AcDbAttribute
  2
MFG_APPROVED_BY
 70
     0
 74
     1
  0
ATTRIB
  5
4B8
330
4B3
100
AcDbEntity
  8
Title (ANSI)
100
AcDbText
 10
1.09749686269685
 20
0.2903710544905534
 30
0.0
 40
0.0250000007978575
  1

  7
Note Text (ANSI)
 11
1.09749686269685
 21
0.2875000000000003
 31
0.0
100
AcDbAttribute
  2
ENG_APPROVED_BY
 70
     0
 74
     1
  0
ATTRIB
  5
4B9
330
4B3
100
AcDbEntity
  8
Title (ANSI)
100
AcDbText
 10
1.40999749015748
 20
0.5403710544905538
 30
0.0
 40
0.0250000007978575
  1
12/17/2008
  7
Note Text (ANSI)
 11
1.40999749015748
 21
0.5375000000000007
 31
0.0
100
AcDbAttribute
  2
CREATION_DATE
 70
     0
 74
     1
  0
ATTRIB
  5
4BA
330
4B3
100
AcDbEntity
  8
Title (ANSI)
100
AcDbText
 10
1.40999749015748
 20
0.4778710544905537
 30
0.0
 40
0.0250000007978575
  1
1/14/2009
  7
Note Text (ANSI)
 11
1.40999749015748
 21
0.4750000000000006
 31
0.0
100
AcDbAttribute
  2
CHECKED_DATE
 70
     0
 74
     1
  0
ATTRIB
  5
4BB
330
4B3
100
AcDbEntity
  8
Title (ANSI)
100
AcDbText
 10
1.40999749015748
 20
0.352871054490554
 30
0.0
 40
0.0250000007978575
  1

  7
Note Text (ANSI)
 11
1.40999749015748
 21
0.3500000000000009
 31
0.0
100
AcDbAttribute
  2
MFG_APPROVED_DATE
 70
     0
 74
     1
  0
ATTRIB
  5
4BC
330
4B3
100
AcDbEntity
  8
Title (ANSI)
100
AcDbText
 10
1.40999749015748
 20
0.2903710544905541
 30
0.0
 40
0.0250000007978575
  1

  7
Note Text (ANSI)
 11
1.40999749015748
 21
0.287500000000001
 31
0.0
100
AcDbAttribute
  2
ENG_APPROVAL_DATE
 70
     0
 74
     1
  0
ATTRIB
  5
4BD
330
4B3
100
AcDbEntity
  8
Title (ANSI)
100
AcDbText
 10
1.82015014128863
 20
0.5025002834268216
 30
0.0
 40
0.0300000003707691
  1
RADIO ASTRONOMY LABORATORY
  7
Note Text (ANSI)
 72
     1
 11
2.140005753032178
 21
0.5175002836122062
 31
0.0
100
AcDbAttribute
  2
COMPANY
 70
     0
 74
     2
  0
ATTRIB
  5
4BE
330
4B3
100
AcDbEntity
  8
Title (ANSI)
100
AcDbText
 10
1.630011506064358
 20
0.3150003762909956
 30
0.0
 40
0.0300000003707691
  1

  7
Note Text (ANSI)
 11
1.630011506064358
 21
0.3300003764763801
 31
0.0
100
AcDbAttribute
  2
TITLE
 70
     0
 74
     2
  0
ATTRIB
  5
4BF
330
4B3
100
AcDbEntity
  8
Title (ANSI)
100
AcDbText
 10
1.664418993133777
 20
0.1762500926787902
 30
0.0
 40
0.0300000003707691
  1
A
  7
Note Text (ANSI)
 72
     1
 11
1.676789711889756
 21
0.1912500928641747
 31
0.0
100
AcDbAttribute
  2
Sheet_Size
 70
     0
 74
     2
  0
ATTRIB
  5
4C0
330
4B3
100
AcDbEntity
  8
Title (ANSI)
100
AcDbText
 10
1.972498619586613
 20
0.1659452653212929
 30
0.0
 40
0.0300000003707691
  1
Block1-V61
  7
Note Text (ANSI)
 11
1.972498619586613
 21
0.1625000000000024
 31
0.0
100
AcDbAttribute
  2
PART_NUMBER
 70
     0
 74
     1
  0
ATTRIB
  5
4C1
330
4B3
100
AcDbEntity
  8
Title (ANSI)
100
AcDbText
 10
2.607499904625985
 20
0.1762500926787916
 30
0.0
 40
0.0300000003707691
  1

  7
Note Text (ANSI)
 72
     1
 11
2.607499904625985
 21
0.1912500928641761
 31
0.0
100
AcDbAttribute
  2
REVISION_NUMBER
 70
     0
 74
     2
  0
SEQEND
  5
4B4
330
4B3
100
AcDbEntity
  8
0
  0
MTEXT
  5
4C2
330
37
100
AcDbEntity
  8
Symbol (ANSI)
100
AcDbMText
 10
2.609822549190341
 20
0.1963021973626472
 30
0.0
 40
0.0300000003707691
 41
0.0
 71
     1
 72
     1
  1
{3}
  7
Note Text (ANSI)
 73
     1
 44
1.0
1001
ACAD
1000
MTEXTBEGIN
1070
    73
1070
     1
1070
    44
1040
1.0
1070
    74
1070
     0
1000
MTEXTEND
  0
MTEXT
  5
4C3
330
37
100
AcDbEntity
  8
Symbol (ANSI)
100
AcDbMText
 10
2.234189818044666
 20
1.981959171677805
 30
0.0
 40
0.0300000003707691
 41
0.311572110559058
 71
     1
 72
     1
  1
{1 OF 3 (BLOCK1)}
  7
Note Text (ANSI)
 73
     1
 44
1.0
1001
ACAD
1000
MTEXTBEGIN
1070
    73
1070
     1
1070
    44
1040
1.0
1070
    74
1070
     0
1000
MTEXTEND
  0
ENDSEC
  0
SECTION
  2
OBJECTS
  0
DICTIONARY
  5
C
330
0
100
AcDbDictionary
281
     1
  3
ACAD_COLOR
350
30
  3
ACAD_GROUP
350
D
  3
ACAD_LAYOUT
350
2F
  3
ACAD_MATERIAL
350
10
  3
ACAD_MLINESTYLE
350
2C
  3
ACAD_PLOTSETTINGS
350
2E
  3
ACAD_PLOTSTYLENAME
350
E
  3
ACAD_TABLESTYLE
350
31
  3
ACAD_VISUALSTYLE
350
14
  3
AcDbVariableDictionary
350
4C4
  3
DWGPROPS
350
4CA
  0
DICTIONARY
  5
30
102
{ACAD_REACTORS
330
C
102
}
330
C
100
AcDbDictionary
281
     1
  0
DICTIONARY
  5
D
102
{ACAD_REACTORS
330
C
102
}
330
C
100
AcDbDictionary
281
     1
  0
DICTIONARY
  5
2F
102
{ACAD_REACTORS
330
C
102
}
330
C
100
AcDbDictionary
281
     1
  3
Layout1
350
36
  3
Layout2
350
3E
  3
Model
350
3A
  0
DICTIONARY
  5
10
102
{ACAD_REACTORS
330
C
102
}
330
C
100
AcDbDictionary
281
     1
  3
ByBlock
350
12
  3
ByLayer
350
11
  3
Global
350
13
  0
DICTIONARY
  5
2C
102
{ACAD_REACTORS
330
C
102
}
330
C
100
AcDbDictionary
281
     1
  3
Standard
350
2D
  0
DICTIONARY
  5
2E
102
{ACAD_REACTORS
330
C
102
}
330
C
100
AcDbDictionary
281
     1
  0
ACDBDICTIONARYWDFLT
  5
E
102
{ACAD_REACTORS
330
C
102
}
330
C
100
AcDbDictionary
281
     1
  3
Normal
350
F
100
AcDbDictionaryWithDefault
340
F
  0
DICTIONARY
  5
31
102
{ACAD_REACTORS
330
C
102
}
330
C
100
AcDbDictionary
281
     1
  3
Standard
350
32
  0
DICTIONARY
  5
14
102
{ACAD_REACTORS
330
C
102
}
330
C
100
AcDbDictionary
281
     1
  3
2dWireframe
350
1A
  3
3D Hidden
350
1C
  3
3dWireframe
350
1B
  3
Basic
350
19
  3
Brighten
350
20
  3
ColorChange
350
24
  3
Conceptual
350
1D
  3
Dim
350
1F
  3
Facepattern
350
23
  3
Flat
350
15
  3
FlatWithEdges
350
16
  3
Gouraud
350
17
  3
GouraudWithEdges
350
18
  3
Linepattern
350
22
  3
Realistic
350
1E
  3
Thicken
350
21
  0
DICTIONARY
  5
4C4
102
{ACAD_REACTORS
330
C
102
}
330
C
100
AcDbDictionary
281
     1
  3
CTABLESTYLE
350
4C5
  3
DIMASSOC
350
4C9
  3
HIDETEXT
350
4C8
  3
INDEXCTL
350
4C7
  3
SORTENTS
350
4C6
  0
XRECORD
  5
4CA
102
{ACAD_REACTORS
330
C
102
}
330
C
100
AcDbXrecord
280
     1
  1
DWGPROPS COOKIE
  2

  3

  4
D Chow
  6

  7

  8

  9

300
Manager=
301
Company=RADIO ASTRONOMY LABORATORY
302
Category=
303
Part Number=Block1-V61
304
Description=
305
Project=
306
Designer=D Chow
307
Engineer=
308
Authority=
309
Cost Center=
 40
0.0000191666666667
 41
2454846.694465961
 42
2454846.694465961
  1

 90
       17
300
Vendor=
300
User Status=
300
Design Status=WorkInProgress
300
Checked by=
300
Date Checked=01/14/2009
300
Engr Approved by=
300
Mfg Approved by=
  0
LAYOUT
  5
36
102
{ACAD_XDICTIONARY
360
4D3
102
}
102
{ACAD_REACTORS
330
2F
102
}
330
2F
100
AcDbPlotSettings
  1

  2

  4

  6

 40
0.0
 41
0.0
 42
0.0
 43
0.0
 44
0.0
 45
0.0
 46
0.0
 47
0.0
 48
0.0
 49
0.0
140
0.0
141
0.0
142
1.0
143
1.0
 70
   688
 72
     0
 73
     0
 74
     5
  7

 75
    16
147
1.0
148
0.0
149
0.0
100
AcDbLayout
  1
Layout1
 70
     1
 71
     1
 10
0.0
 20
0.0
 11
12.0
 21
9.0
 12
0.0
 22
0.0
 32
0.0
 14
0.0
 24
0.0
 34
0.0
 15
0.0
 25
0.0
 35
0.0
146
0.0
 13
0.0
 23
0.0
 33
0.0
 16
1.0
 26
0.0
 36
0.0
 17
0.0
 27
1.0
 37
0.0
 76
     0
330
33
  0
LAYOUT
  5
3E
102
{ACAD_XDICTIONARY
360
4D7
102
}
102
{ACAD_REACTORS
330
2F
102
}
330
2F
100
AcDbPlotSettings
  1

  2

  4

  6

 40
0.0
 41
0.0
 42
0.0
 43
0.0
 44
0.0
 45
0.0
 46
0.0
 47
0.0
 48
0.0
 49
0.0
140
0.0
141
0.0
142
1.0
143
1.0
 70
   688
 72
     0
 73
     0
 74
     5
  7

 75
    16
147
1.0
148
0.0
149
0.0
100
AcDbLayout
  1
Layout2
 70
     1
 71
     2
 10
0.0
 20
0.0
 11
12.0
 21
9.0
 12
0.0
 22
0.0
 32
0.0
 14
0.0
 24
0.0
 34
0.0
 15
0.0
 25
0.0
 35
0.0
146
0.0
 13
0.0
 23
0.0
 33
0.0
 16
1.0
 26
0.0
 36
0.0
 17
0.0
 27
1.0
 37
0.0
 76
     0
330
3B
  0
LAYOUT
  5
3A
102
{ACAD_XDICTIONARY
360
4D5
102
}
102
{ACAD_REACTORS
330
2F
102
}
330
2F
100
AcDbPlotSettings
  1

  2

  4

  6

 40
0.0
 41
0.0
 42
0.0
 43
0.0
 44
0.0
 45
0.0
 46
0.0
 47
0.0
 48
0.0
 49
0.0
140
0.0
141
0.0
142
1.0
143
1.0
 70
  1712
 72
     0
 73
     0
 74
     0
  7

 75
     0
147
1.0
148
0.0
149
0.0
100
AcDbLayout
  1
Model
 70
     1
 71
     0
 10
0.0
 20
0.0
 11
12.0
 21
9.0
 12
0.0
 22
0.0
 32
0.0
 14
0.0
 24
0.0
 34
0.0
 15
0.0
 25
0.0
 35
0.0
146
0.0
 13
0.0
 23
0.0
 33
0.0
 16
1.0
 26
0.0
 36
0.0
 17
0.0
 27
1.0
 37
0.0
 76
     0
330
37
  0
MATERIAL
  5
12
102
{ACAD_XDICTIONARY
360
4CD
102
}
102
{ACAD_REACTORS
330
10
102
}
330
10
100
AcDbMaterial
  1
ByBlock
  0
MATERIAL
  5
11
102
{ACAD_XDICTIONARY
360
4CB
102
}
102
{ACAD_REACTORS
330
10
102
}
330
10
100
AcDbMaterial
  1
ByLayer
  0
MATERIAL
  5
13
102
{ACAD_XDICTIONARY
360
4CF
102
}
102
{ACAD_REACTORS
330
10
102
}
330
10
100
AcDbMaterial
  1
Global
  0
MLINESTYLE
  5
2D
102
{ACAD_REACTORS
330
2C
102
}
330
2C
100
AcDbMlineStyle
  2
STANDARD
 70
     0
  3

 62
   256
 51
90.0
 52
90.0
 71
     2
 49
0.5
 62
   256
  6
BYLAYER
 49
-0.5
 62
   256
  6
BYLAYER
  0
ACDBPLACEHOLDER
  5
F
102
{ACAD_REACTORS
330
E
102
}
330
E
  0
TABLESTYLE
  5
32
102
{ACAD_XDICTIONARY
360
4D1
102
}
102
{ACAD_REACTORS
330
31
102
}
330
31
100
AcDbTableStyle
  3
Standard
 70
     0
 71
     0
 40
0.06
 41
0.06
280
     0
281
     0
  7
Standard
140
0.18
170
     2
 62
     0
 63
     7
283
     0
274
    -2
284
     1
 64
     0
275
    -2
285
     1
 65
     0
276
    -2
286
     1
 66
     0
277
    -2
287
     1
 67
     0
278
    -2
288
     1
 68
     0
279
    -2
289
     1
 69
     0
  7
Standard
140
0.25
170
     5
 62
     0
 63
     7
283
     0
274
    -2
284
     1
 64
     0
275
    -2
285
     1
 65
     0
276
    -2
286
     1
 66
     0
277
    -2
287
     1
 67
     0
278
    -2
288
     1
 68
     0
279
    -2
289
     1
 69
     0
  7
Standard
140
0.18
170
     5
 62
     0
 63
     7
283
     0
274
    -2
284
     1
 64
     0
275
    -2
285
     1
 65
     0
276
    -2
286
     1
 66
     0
277
    -2
287
     1
 67
     0
278
    -2
288
     1
 68
     0
279
    -2
289
     1
 69
     0
  0
VISUALSTYLE
  5
1A
102
{ACAD_REACTORS
330
14
102
}
330
14
100
AcDbVisualStyle
  2
2dWireframe
 70
     4
 71
     0
 72
     2
 73
     0
 90
        0
 40
-0.6
 41
-30.0
 62
     5
 63
     7
 74
     1
 91
        4
 64
     7
 65
   257
 75
     1
175
     1
 42
1.0
 92
        0
 66
   257
 43
1.0
 76
     1
 77
     6
 78
     2
 67
     7
 79
     5
170
     0
171
     0
290
     0
174
     0
 93
        1
 44
0.0
173
     0
291
     0
 45
0.0
1001
ACAD
1000
AcDbSavedByObjectVersion
1070
     0
  0
VISUALSTYLE
  5
1C
102
{ACAD_REACTORS
330
14
102
}
330
14
100
AcDbVisualStyle
  2
3D Hidden
 70
     6
 71
     1
 72
     2
 73
     2
 90
        0
 40
-0.6
 41
-30.0
 62
     5
 63
     7
 74
     2
 91
        2
 64
     7
 65
   257
 75
     2
175
     1
 42
40.0
 92
        0
 66
   257
 43
1.0
 76
     1
 77
     6
 78
     2
 67
     7
 79
     3
170
     0
171
     0
290
     0
174
     0
 93
        1
 44
0.0
173
     0
291
     0
 45
0.0
1001
ACAD
1000
AcDbSavedByObjectVersion
1070
     0
  0
VISUALSTYLE
  5
1B
102
{ACAD_REACTORS
330
14
102
}
330
14
100
AcDbVisualStyle
  2
3dWireframe
 70
     5
 71
     0
 72
     2
 73
     0
 90
        0
 40
-0.6
 41
-30.0
 62
     5
 63
     7
 74
     1
 91
        4
 64
     7
 65
   257
 75
     1
175
     1
 42
1.0
 92
        0
 66
   257
 43
1.0
 76
     1
 77
     6
 78
     2
 67
     7
 79
     5
170
     0
171
     0
290
     0
174
     0
 93
        1
 44
0.0
173
     0
291
     0
 45
0.0
1001
ACAD
1000
AcDbSavedByObjectVersion
1070
     0
  0
VISUALSTYLE
  5
19
102
{ACAD_REACTORS
330
14
102
}
330
14
100
AcDbVisualStyle
  2
Basic
 70
     7
 71
     1
 72
     0
 73
     1
 90
        0
 40
-0.6
 41
-30.0
 62
     5
 63
     7
 74
     0
 91
        4
 64
     7
 65
   257
 75
     1
175
     1
 42
1.0
 92
        8
 66
     7
 43
1.0
 76
     1
 77
     6
 78
     2
 67
     7
 79
     5
170
     0
171
     0
290
     0
174
     0
 93
        1
 44
0.0
173
     0
291
     1
 45
0.0
1001
ACAD
1000
AcDbSavedByObjectVersion
1070
     0
  0
VISUALSTYLE
  5
20
102
{ACAD_REACTORS
330
14
102
}
330
14
100
AcDbVisualStyle
  2
Brighten
 70
    12
 71
     2
 72
     2
 73
     0
 90
        0
 40
-0.6
 41
-30.0
 62
     5
 63
     7
 74
     1
 91
        4
 64
     7
 65
   257
 75
     1
175
     1
 42
1.0
 92
        8
 66
     7
 43
1.0
 76
     1
 77
     6
 78
     2
 67
     7
 79
     5
170
     0
171
     0
290
     0
174
     0
 93
        1
 44
50.0
173
     0
291
     1
 45
0.0
1001
ACAD
1000
AcDbSavedByObjectVersion
1070
     0
  0
VISUALSTYLE
  5
24
102
{ACAD_REACTORS
330
14
102
}
330
14
100
AcDbVisualStyle
  2
ColorChange
 70
    16
 71
     2
 72
     2
 73
     3
 90
        0
 40
-0.6
 41
-30.0
 62
     5
 63
     8
 74
     1
 91
        4
 64
     7
 65
   257
 75
     1
175
     1
 42
1.0
 92
        8
 66
     8
 43
1.0
 76
     1
 77
     6
 78
     2
 67
     7
 79
     5
170
     0
171
     0
290
     0
174
     0
 93
        1
 44
0.0
173
     0
291
     1
 45
0.0
1001
ACAD
1000
AcDbSavedByObjectVersion
1070
     0
  0
VISUALSTYLE
  5
1D
102
{ACAD_REACTORS
330
14
102
}
330
14
100
AcDbVisualStyle
  2
Conceptual
 70
     9
 71
     3
 72
     2
 73
     0
 90
        0
 40
-0.6
 41
-30.0
 62
     5
 63
     7
 74
     2
 91
        2
 64
     7
 65
   257
 75
     1
175
     1
 42
40.0
 92
        8
 66
     7
 43
1.0
 76
     1
 77
     6
 78
     2
 67
     7
 79
     3
170
     0
171
     0
290
     0
174
     0
 93
        1
 44
0.0
173
     0
291
     0
 45
0.0
1001
ACAD
1000
AcDbSavedByObjectVersion
1070
     0
  0
VISUALSTYLE
  5
1F
102
{ACAD_REACTORS
330
14
102
}
330
14
100
AcDbVisualStyle
  2
Dim
 70
    11
 71
     2
 72
     2
 73
     0
 90
        0
 40
-0.6
 41
-30.0
 62
     5
 63
     7
 74
     1
 91
        4
 64
     7
 65
   257
 75
     1
175
     1
 42
1.0
 92
        8
 66
     7
 43
1.0
 76
     1
 77
     6
 78
     2
 67
     7
 79
     5
170
     0
171
     0
290
     0
174
     0
 93
        1
 44
-50.0
173
     0
291
     1
 45
0.0
1001
ACAD
1000
AcDbSavedByObjectVersion
1070
     0
  0
VISUALSTYLE
  5
23
102
{ACAD_REACTORS
330
14
102
}
330
14
100
AcDbVisualStyle
  2
Facepattern
 70
    15
 71
     2
 72
     2
 73
     0
 90
        0
 40
-0.6
 41
-30.0
 62
     5
 63
     7
 74
     1
 91
        4
 64
     7
 65
   257
 75
     1
175
     1
 42
1.0
 92
        8
 66
     7
 43
1.0
 76
     1
 77
     6
 78
     2
 67
     7
 79
     5
170
     0
171
     0
290
     0
174
     0
 93
        1
 44
0.0
173
     0
291
     1
 45
0.0
1001
ACAD
1000
AcDbSavedByObjectVersion
1070
     0
  0
VISUALSTYLE
  5
15
102
{ACAD_REACTORS
330
14
102
}
330
14
100
AcDbVisualStyle
  2
Flat
 70
     0
 71
     2
 72
     1
 73
     1
 90
        2
 40
-0.6
 41
30.0
 62
     5
 63
     7
 74
     0
 91
        4
 64
     7
 65
   257
 75
     1
175
     1
 42
1.0
 92
        8
 66
     7
 43
1.0
 76
     1
 77
     6
 78
     2
 67
     7
 79
     5
170
     0
171
     0
290
     0
174
     0
 93
       13
 44
0.0
173
     0
291
     1
 45
0.0
1001
ACAD
1000
AcDbSavedByObjectVersion
1070
     0
  0
VISUALSTYLE
  5
16
102
{ACAD_REACTORS
330
14
102
}
330
14
100
AcDbVisualStyle
  2
FlatWithEdges
 70
     1
 71
     2
 72
     1
 73
     1
 90
        2
 40
-0.6
 41
30.0
 62
     5
 63
     7
 74
     1
 91
        4
 64
     7
 65
   257
 75
     1
175
     1
 42
1.0
 92
        0
 66
   257
 43
1.0
 76
     1
 77
     6
 78
     2
 67
     7
 79
     5
170
     0
171
     0
290
     0
174
     0
 93
       13
 44
0.0
173
     0
291
     1
 45
0.0
1001
ACAD
1000
AcDbSavedByObjectVersion
1070
     0
  0
VISUALSTYLE
  5
17
102
{ACAD_REACTORS
330
14
102
}
330
14
100
AcDbVisualStyle
  2
Gouraud
 70
     2
 71
     2
 72
     2
 73
     1
 90
        2
 40
-0.6
 41
30.0
 62
     5
 63
     7
 74
     0
 91
        4
 64
     7
 65
   257
 75
     1
175
     1
 42
1.0
 92
        0
 66
     7
 43
1.0
 76
     1
 77
     6
 78
     2
 67
     7
 79
     5
170
     0
171
     0
290
     0
174
     0
 93
       13
 44
0.0
173
     0
291
     1
 45
0.0
1001
ACAD
1000
AcDbSavedByObjectVersion
1070
     0
  0
VISUALSTYLE
  5
18
102
{ACAD_REACTORS
330
14
102
}
330
14
100
AcDbVisualStyle
  2
GouraudWithEdges
 70
     3
 71
     2
 72
     2
 73
     1
 90
        2
 40
-0.6
 41
30.0
 62
     5
 63
     7
 74
     1
 91
        4
 64
     7
 65
   257
 75
     1
175
     1
 42
1.0
 92
        0
 66
   257
 43
1.0
 76
     1
 77
     6
 78
     2
 67
     7
 79
     5
170
     0
171
     0
290
     0
174
     0
 93
       13
 44
0.0
173
     0
291
     1
 45
0.0
1001
ACAD
1000
AcDbSavedByObjectVersion
1070
     0
  0
VISUALSTYLE
  5
22
102
{ACAD_REACTORS
330
14
102
}
330
14
100
AcDbVisualStyle
  2
Linepattern
 70
    14
 71
     2
 72
     2
 73
     0
 90
        0
 40
-0.6
 41
-30.0
 62
     5
 63
     7
 74
     1
 91
        4
 64
     7
 65
   257
 75
     7
175
     7
 42
1.0
 92
        8
 66
     7
 43
1.0
 76
     1
 77
     6
 78
     2
 67
     7
 79
     5
170
     0
171
     0
290
     0
174
     0
 93
        1
 44
0.0
173
     0
291
     1
 45
0.0
1001
ACAD
1000
AcDbSavedByObjectVersion
1070
     0
  0
VISUALSTYLE
  5
1E
102
{ACAD_REACTORS
330
14
102
}
330
14
100
AcDbVisualStyle
  2
Realistic
 70
     8
 71
     2
 72
     2
 73
     0
 90
        0
 40
-0.6
 41
-30.0
 62
     5
 63
     7
 74
     1
 91
        0
 64
     7
 65
   257
 75
     1
175
     1
 42
1.0
 92
        8
 66
     8
 43
1.0
 76
     1
 77
     6
 78
     2
 67
     7
 79
     5
170
     0
171
     0
290
     0
174
     0
 93
       13
 44
0.0
173
     0
291
     0
 45
0.0
1001
ACAD
1000
AcDbSavedByObjectVersion
1070
     0
  0
VISUALSTYLE
  5
21
102
{ACAD_REACTORS
330
14
102
}
330
14
100
AcDbVisualStyle
  2
Thicken
 70
    13
 71
     2
 72
     2
 73
     0
 90
        0
 40
-0.6
 41
-30.0
 62
     5
 63
     7
 74
     1
 91
        4
 64
     7
 65
   257
 75
     1
175
     1
 42
1.0
 92
       12
 66
     7
 43
1.0
 76
     1
 77
     6
 78
     2
 67
     7
 79
     5
170
     0
171
     0
290
     0
174
     0
 93
        1
 44
0.0
173
     0
291
     1
 45
0.0
1001
ACAD
1000
AcDbSavedByObjectVersion
1070
     0
  0
DICTIONARYVAR
  5
4C5
102
{ACAD_REACTORS
330
4C4
102
}
330
4C4
100
DictionaryVariables
280
     0
  1
STANDARD
  0
DICTIONARYVAR
  5
4C9
102
{ACAD_REACTORS
330
4C4
102
}
330
4C4
100
DictionaryVariables
280
     0
  1
1
  0
DICTIONARYVAR
  5
4C8
102
{ACAD_REACTORS
330
4C4
102
}
330
4C4
100
DictionaryVariables
280
     0
  1
1
  0
DICTIONARYVAR
  5
4C7
102
{ACAD_REACTORS
330
4C4
102
}
330
4C4
100
DictionaryVariables
280
     0
  1
0
  0
DICTIONARYVAR
  5
4C6
102
{ACAD_REACTORS
330
4C4
102
}
330
4C4
100
DictionaryVariables
280
     0
  1
127
  0
DICTIONARY
  5
4D3
330
36
100
AcDbDictionary
280
     1
281
     1
  3
ACAD_XREC_ROUNDTRIP
360
4D4
  0
DICTIONARY
  5
4D7
330
3E
100
AcDbDictionary
280
     1
281
     1
  3
ACAD_XREC_ROUNDTRIP
360
4D8
  0
DICTIONARY
  5
4D5
330
3A
100
AcDbDictionary
280
     1
281
     1
  3
ACAD_XREC_ROUNDTRIP
360
4D6
  0
DICTIONARY
  5
4CD
330
12
100
AcDbDictionary
280
     1
281
     1
  3
ACAD_XREC_ROUNDTRIP
360
4CE
  0
DICTIONARY
  5
4CB
330
11
100
AcDbDictionary
280
     1
281
     1
  3
ACAD_XREC_ROUNDTRIP
360
4CC
  0
DICTIONARY
  5
4CF
330
13
100
AcDbDictionary
280
     1
281
     1
  3
ACAD_XREC_ROUNDTRIP
360
4D0
  0
DICTIONARY
  5
4D1
330
32
100
AcDbDictionary
280
     1
281
     1
  3
ACAD_XREC_ROUNDTRIP
360
4D2
  0
XRECORD
  5
4D4
102
{ACAD_REACTORS
330
4D3
102
}
330
4D3
100
AcDbXrecord
280
     1
102
SHADEPLOT
 70
     0
102
SHADEPLOTRESLEVEL
 70
     2
102
SHADEPLOTCUSTOMDPI
 70
   300
  0
XRECORD
  5
4D8
102
{ACAD_REACTORS
330
4D7
102
}
330
4D7
100
AcDbXrecord
280
     1
102
SHADEPLOT
 70
     0
102
SHADEPLOTRESLEVEL
 70
     2
102
SHADEPLOTCUSTOMDPI
 70
   300
  0
XRECORD
  5
4D6
102
{ACAD_REACTORS
330
4D5
102
}
330
4D5
100
AcDbXrecord
280
     1
102
SHADEPLOT
 70
     0
102
SHADEPLOTRESLEVEL
 70
     2
102
SHADEPLOTCUSTOMDPI
 70
   300
  0
XRECORD
  5
4CE
102
{ACAD_REACTORS
330
4CD
102
}
330
4CD
100
AcDbXrecord
280
     1
102
MATERIAL
148
0.0
149
0.0
149
0.0
 93
        0
 94
       63
282
     0
 72
     1
 77
     1
171
     1
175
     1
179
     1
273
     0
  0
XRECORD
  5
4CC
102
{ACAD_REACTORS
330
4CB
102
}
330
4CB
100
AcDbXrecord
280
     1
102
MATERIAL
148
0.0
149
0.0
149
0.0
 93
        0
 94
       63
282
     0
 72
     1
 77
     1
171
     1
175
     1
179
     1
273
     0
  0
XRECORD
  5
4D0
102
{ACAD_REACTORS
330
4CF
102
}
330
4CF
100
AcDbXrecord
280
     1
102
MATERIAL
148
0.0
149
0.0
149
0.0
 93
        0
 94
       63
282
     0
 72
     1
 77
     1
171
     1
175
     1
179
     1
273
     0
  0
XRECORD
  5
4D2
102
{ACAD_REACTORS
330
4D1
102
}
330
4D1
100
AcDbXrecord
280
     1
102
ACAD_ROUNDTRIP_PRE2007_TABLESTYLE
 90
      512
 91
        0
  1

 92
      512
 93
        0
  2

 94
      512
 95
        0
  3

  0
ENDSEC
  0
EOF
