  0
SECTION
  2
HEADER
  9
$ACADVER
  1
AC1015
  9
$ACADMAINTVER
 70
    18
  9
$DWGCODEPAGE
  3
ANSI_1252
  9
$INSBASE
 10
0.0
 20
0.0
 30
0.0
  9
$EXTMIN
 10
0.0
 20
0.0
 30
0.0
  9
$EXTMAX
 10
2.2
 20
1.7
 30
0.0
  9
$LIMMIN
 10
0.0
 20
0.0
  9
$LIMMAX
 10
2.2
 20
1.7
  9
$ORTHOMODE
 70
     0
  9
$REGENMODE
 70
     1
  9
$FILLMODE
 70
     1
  9
$QTEXTMODE
 70
     0
  9
$MIRRTEXT
 70
     0
  9
$LTSCALE
 40
0.2
  9
$ATTMODE
 70
     1
  9
$TEXTSIZE
 40
0.2
  9
$TRACEWID
 40
0.05
  9
$TEXTSTYLE
  7
Standard
  9
$CLAYER
  8
0
  9
$CELTYPE
  6
ByLayer
  9
$CECOLOR
 62
   256
  9
$CELTSCALE
 40
1.0
  9
$DISPSILH
 70
     0
  9
$DIMSCALE
 40
1.0
  9
$DIMASZ
 40
0.0708661417322835
  9
$DIMEXO
 40
0.0625
  9
$DIMDLI
 40
0.38
  9
$DIMRND
 40
0.0
  9
$DIMDLE
 40
0.0
  9
$DIMEXE
 40
0.18
  9
$DIMTP
 40
0.0
  9
$DIMTM
 40
0.0
  9
$DIMTXT
 40
0.3048000037670135
  9
$DIMCEN
 40
0.09
  9
$DIMTSZ
 40
0.0
  9
$DIMTOL
 70
     0
  9
$DIMLIM
 70
     0
  9
$DIMTIH
 70
     1
  9
$DIMTOH
 70
     1
  9
$DIMSE1
 70
     0
  9
$DIMSE2
 70
     0
  9
$DIMTAD
 70
     0
  9
$DIMZIN
 70
     0
  9
$DIMBLK
  1

  9
$DIMASO
 70
     1
  9
$DIMSHO
 70
     1
  9
$DIMPOST
  1

  9
$DIMAPOST
  1

  9
$DIMALT
 70
     0
  9
$DIMALTD
 70
     2
  9
$DIMALTF
 40
25.4
  9
$DIMLFAC
 40
1.0
  9
$DIMTOFL
 70
     0
  9
$DIMTVP
 40
0.0
  9
$DIMTIX
 70
     0
  9
$DIMSOXD
 70
     0
  9
$DIMSAH
 70
     0
  9
$DIMBLK1
  1

  9
$DIMBLK2
  1

  9
$DIMSTYLE
  2
Standard
  9
$DIMCLRD
 70
     0
  9
$DIMCLRE
 70
     0
  9
$DIMCLRT
 70
     0
  9
$DIMTFAC
 40
1.0
  9
$DIMGAP
 40
0.09
  9
$DIMJUST
 70
     0
  9
$DIMSD1
 70
     0
  9
$DIMSD2
 70
     0
  9
$DIMTOLJ
 70
     1
  9
$DIMTZIN
 70
     0
  9
$DIMALTZ
 70
     0
  9
$DIMALTTZ
 70
     0
  9
$DIMUPT
 70
     0
  9
$DIMDEC
 70
     4
  9
$DIMTDEC
 70
     4
  9
$DIMALTU
 70
     2
  9
$DIMALTTD
 70
     2
  9
$DIMTXSTY
  7
Standard
  9
$DIMAUNIT
 70
     0
  9
$DIMADEC
 70
     0
  9
$DIMALTRND
 40
0.0
  9
$DIMAZIN
 70
     0
  9
$DIMDSEP
 70
    46
  9
$DIMATFIT
 70
     3
  9
$DIMFRAC
 70
     0
  9
$DIMLDRBLK
  1

  9
$DIMLUNIT
 70
     2
  9
$DIMLWD
 70
    -2
  9
$DIMLWE
 70
    -2
  9
$DIMTMOVE
 70
     0
  9
$LUNITS
 70
     2
  9
$LUPREC
 70
     4
  9
$SKETCHINC
 40
0.1
  9
$FILLETRAD
 40
0.0
  9
$AUNITS
 70
     0
  9
$AUPREC
 70
     0
  9
$MENU
  1
.
  9
$ELEVATION
 40
0.0
  9
$PELEVATION
 40
0.0
  9
$THICKNESS
 40
0.0
  9
$LIMCHECK
 70
     0
  9
$CHAMFERA
 40
0.0
  9
$CHAMFERB
 40
0.0
  9
$CHAMFERC
 40
0.0
  9
$CHAMFERD
 40
0.0
  9
$SKPOLY
 70
     0
  9
$TDCREATE
 40
2454846.693007628
  9
$TDUCREATE
 40
2454847.026340960
  9
$TDUPDATE
 40
2454846.693007628
  9
$TDUUPDATE
 40
2454847.026340960
  9
$TDINDWG
 40
0.0000368866
  9
$TDUSRTIMER
 40
0.0000368866
  9
$USRTIMER
 70
     1
  9
$ANGBASE
 50
0.0
  9
$ANGDIR
 70
     0
  9
$PDMODE
 70
     0
  9
$PDSIZE
 40
0.0
  9
$PLINEWID
 40
0.0
  9
$SPLFRAME
 70
     0
  9
$SPLINETYPE
 70
     6
  9
$SPLINESEGS
 70
     8
  9
$HANDSEED
  5
B1C
  9
$SURFTAB1
 70
     6
  9
$SURFTAB2
 70
     6
  9
$SURFTYPE
 70
     6
  9
$SURFU
 70
     6
  9
$SURFV
 70
     6
  9
$UCSBASE
  2

  9
$UCSNAME
  2

  9
$UCSORG
 10
0.0
 20
0.0
 30
0.0
  9
$UCSXDIR
 10
1.0
 20
0.0
 30
0.0
  9
$UCSYDIR
 10
0.0
 20
1.0
 30
0.0
  9
$UCSORTHOREF
  2

  9
$UCSORTHOVIEW
 70
     0
  9
$UCSORGTOP
 10
0.0
 20
0.0
 30
0.0
  9
$UCSORGBOTTOM
 10
0.0
 20
0.0
 30
0.0
  9
$UCSORGLEFT
 10
0.0
 20
0.0
 30
0.0
  9
$UCSORGRIGHT
 10
0.0
 20
0.0
 30
0.0
  9
$UCSORGFRONT
 10
0.0
 20
0.0
 30
0.0
  9
$UCSORGBACK
 10
0.0
 20
0.0
 30
0.0
  9
$PUCSBASE
  2

  9
$PUCSNAME
  2

  9
$PUCSORG
 10
0.0
 20
0.0
 30
0.0
  9
$PUCSXDIR
 10
1.0
 20
0.0
 30
0.0
  9
$PUCSYDIR
 10
0.0
 20
1.0
 30
0.0
  9
$PUCSORTHOREF
  2

  9
$PUCSORTHOVIEW
 70
     0
  9
$PUCSORGTOP
 10
0.0
 20
0.0
 30
0.0
  9
$PUCSORGBOTTOM
 10
0.0
 20
0.0
 30
0.0
  9
$PUCSORGLEFT
 10
0.0
 20
0.0
 30
0.0
  9
$PUCSORGRIGHT
 10
0.0
 20
0.0
 30
0.0
  9
$PUCSORGFRONT
 10
0.0
 20
0.0
 30
0.0
  9
$PUCSORGBACK
 10
0.0
 20
0.0
 30
0.0
  9
$USERI1
 70
     0
  9
$USERI2
 70
     0
  9
$USERI3
 70
     0
  9
$USERI4
 70
     0
  9
$USERI5
 70
     0
  9
$USERR1
 40
0.0
  9
$USERR2
 40
0.0
  9
$USERR3
 40
0.0
  9
$USERR4
 40
0.0
  9
$USERR5
 40
0.0
  9
$WORLDVIEW
 70
     1
  9
$SHADEDGE
 70
     3
  9
$SHADEDIF
 70
    70
  9
$TILEMODE
 70
     1
  9
$MAXACTVP
 70
    64
  9
$PINSBASE
 10
0.0
 20
0.0
 30
0.0
  9
$PLIMCHECK
 70
     0
  9
$PEXTMIN
 10
0.0
 20
0.0
 30
0.0
  9
$PEXTMAX
 10
2.2
 20
1.7
 30
0.0
  9
$PLIMMIN
 10
0.0
 20
0.0
  9
$PLIMMAX
 10
2.2
 20
1.7
  9
$UNITMODE
 70
     0
  9
$VISRETAIN
 70
     1
  9
$PLINEGEN
 70
     0
  9
$PSLTSCALE
 70
     1
  9
$TREEDEPTH
 70
  3020
  9
$CMLSTYLE
  2
Standard
  9
$CMLJUST
 70
     0
  9
$CMLSCALE
 40
1.0
  9
$PROXYGRAPHICS
 70
     1
  9
$MEASUREMENT
 70
     0
  9
$CELWEIGHT
370
    -1
  9
$ENDCAPS
280
     0
  9
$JOINSTYLE
280
     0
  9
$LWDISPLAY
290
     0
  9
$INSUNITS
 70
     0
  9
$HYPERLINKBASE
  1

  9
$STYLESHEET
  1

  9
$XEDIT
290
     1
  9
$CEPSNTYPE
380
     0
  9
$PSTYLEMODE
290
     1
  9
$FINGERPRINTGUID
  2
{DDA894E3-F989-4318-B47F-78DF4D7F465B}
  9
$VERSIONGUID
  2
{BC3F10FA-3B54-4058-A068-B2813E98E0B0}
  9
$EXTNAMES
290
     1
  9
$PSVPSCALE
 40
0.0
  9
$OLESTARTUP
290
     0
  0
ENDSEC
  0
SECTION
  2
CLASSES
  0
CLASS
  1
ACDBDICTIONARYWDFLT
  2
AcDbDictionaryWithDefault
  3
ObjectDBX Classes
 90
        0
280
     0
281
     0
  0
CLASS
  1
MATERIAL
  2
AcDbMaterial
  3
ObjectDBX Classes
 90
     1024
280
     0
281
     0
  0
CLASS
  1
VISUALSTYLE
  2
AcDbVisualStyle
  3
ObjectDBX Classes
 90
     4095
280
     0
281
     0
  0
CLASS
  1
TABLESTYLE
  2
AcDbTableStyle
  3
ObjectDBX Classes
 90
     4095
280
     0
281
     0
  0
CLASS
  1
DICTIONARYVAR
  2
AcDbDictionaryVar
  3
ObjectDBX Classes
 90
        0
280
     0
281
     0
  0
CLASS
  1
ACDBPLACEHOLDER
  2
AcDbPlaceHolder
  3
ObjectDBX Classes
 90
        0
280
     0
281
     0
  0
CLASS
  1
LAYOUT
  2
AcDbLayout
  3
ObjectDBX Classes
 90
        0
280
     0
281
     0
  0
ENDSEC
  0
SECTION
  2
TABLES
  0
TABLE
  2
VPORT
  5
8
330
0
100
AcDbSymbolTable
 70
     1
  0
VPORT
  5
28
330
8
100
AcDbSymbolTableRecord
100
AcDbViewportTableRecord
  2
*Active
 70
     0
 10
0.0
 20
0.0
 11
1.0
 21
1.0
 12
1.1
 22
0.85
 13
0.0
 23
0.0
 14
1.0
 24
1.0
 15
0.0
 25
0.0
 16
0.0
 26
0.0
 36
1.0
 17
0.0
 27
0.0
 37
0.0
 40
1.7
 41
1.294117647058823
 42
50.0
 43
0.0
 44
0.0
 50
0.0
 51
0.0
 71
     0
 72
   100
 73
     1
 74
     1
 75
     0
 76
     0
 77
     0
 78
     0
281
     0
 65
     1
110
0.0
120
0.0
130
0.0
111
1.0
121
0.0
131
0.0
112
0.0
122
1.0
132
0.0
 79
     0
146
0.0
  0
ENDTAB
  0
TABLE
  2
LTYPE
  5
5
330
0
100
AcDbSymbolTable
 70
    59
  0
LTYPE
  5
29
330
5
100
AcDbSymbolTableRecord
100
AcDbLinetypeTableRecord
  2
ByBlock
 70
     0
  3

 72
    65
 73
     0
 40
0.0
  0
LTYPE
  5
2A
330
5
100
AcDbSymbolTableRecord
100
AcDbLinetypeTableRecord
  2
ByLayer
 70
     0
  3

 72
    65
 73
     0
 40
0.0
  0
LTYPE
  5
2B
330
5
100
AcDbSymbolTableRecord
100
AcDbLinetypeTableRecord
  2
Continuous
 70
     0
  3
Solid line
 72
    65
 73
     0
 40
0.0
  0
LTYPE
  5
40
330
5
100
AcDbSymbolTableRecord
100
AcDbLinetypeTableRecord
  2
BY_STANDARD
 70
     0
  3
By Standard ____________    ____    ____   _
 72
    65
 73
     6
 40
1.240299999999999
 49
0.6614
 74
     0
 49
-0.0827
 74
     0
 49
0.1654
 74
     0
 49
-0.0827
 74
     0
 49
0.1654
 74
     0
 49
-0.0827
 74
     0
  0
LTYPE
  5
41
330
5
100
AcDbSymbolTableRecord
100
AcDbLinetypeTableRecord
  2
CHAIN
 70
     0
  3
Chain ____ _ ____ _ ____ _ ____ _ ____ _ ____
 72
    65
 73
     4
 40
0.7087
 49
0.4724000000000001
 74
     0
 49
-0.0591
 74
     0
 49
0.1181
 74
     0
 49
-0.0591
 74
     0
  0
LTYPE
  5
42
330
5
100
AcDbSymbolTableRecord
100
AcDbLinetypeTableRecord
  2
DASH_DOT
 70
     0
  3
Dash dot __ . __ . __ . __ . __ . __ . __ . __
 72
    65
 73
     4
 40
0.37
 49
0.24
 74
     0
 49
-0.06
 74
     0
 49
0.01
 74
     0
 49
-0.06
 74
     0
  0
LTYPE
  5
43
330
5
100
AcDbSymbolTableRecord
100
AcDbLinetypeTableRecord
  2
DOUBLE_DASH_DOT
 70
     0
  3
Double-Dash Dot __ __ . __ __ . __ __ . __ _
 72
    65
 73
     6
 40
0.4398
 49
0.24
 74
     0
 49
-0.06
 74
     0
 49
0.0098
 74
     0
 49
-0.06
 74
     0
 49
0.01
 74
     0
 49
-0.06
 74
     0
  0
LTYPE
  5
44
330
5
100
AcDbSymbolTableRecord
100
AcDbLinetypeTableRecord
  2
DASH_TRIPLE_DOT
 70
     0
  3
Dash Triple-Dot _ . . . _ . . . _ . . . _
 72
    65
 73
     8
 40
0.51
 49
0.24
 74
     0
 49
-0.06
 74
     0
 49
0.01
 74
     0
 49
-0.06
 74
     0
 49
0.01
 74
     0
 49
-0.06
 74
     0
 49
0.01
 74
     0
 49
-0.06
 74
     0
  0
LTYPE
  5
45
330
5
100
AcDbSymbolTableRecord
100
AcDbLinetypeTableRecord
  2
DASHED
 70
     0
  3
Dashed __ __ __ __ __ __ __ __ __ __ __ __ __ _
 72
    65
 73
     2
 40
0.2067
 49
0.1654
 74
     0
 49
-0.0413
 74
     0
  0
LTYPE
  5
46
330
5
100
AcDbSymbolTableRecord
100
AcDbLinetypeTableRecord
  2
DASH_DOUBLE_DOT
 70
     0
  3
Dash Double-Dot __ . . __ . . __ . . __ . .
 72
    65
 73
     6
 40
0.4398
 49
0.24
 74
     0
 49
-0.06
 74
     0
 49
0.0098
 74
     0
 49
-0.06
 74
     0
 49
0.01
 74
     0
 49
-0.06
 74
     0
  0
LTYPE
  5
47
330
5
100
AcDbSymbolTableRecord
100
AcDbLinetypeTableRecord
  2
DASHED_SPACE
 70
     0
  3
Dashed Space __ __ __ __ __ __ __ __ __ __ __ _
 72
    65
 73
     2
 40
0.2067
 49
0.1654
 74
     0
 49
-0.0413
 74
     0
  0
LTYPE
  5
48
330
5
100
AcDbSymbolTableRecord
100
AcDbLinetypeTableRecord
  2
DOTTED
 70
     0
  3
Dotted . . . . . . . . . . . . . . . . . . . . 
 72
    65
 73
     2
 40
0.0482
 49
0.0069
 74
     0
 49
-0.0413
 74
     0
  0
LTYPE
  5
49
330
5
100
AcDbSymbolTableRecord
100
AcDbLinetypeTableRecord
  2
DOUBLE_DASH_CHAIN
 70
     0
  3
Double-Dash Chain ______  __  __  ______  __  _
 72
    65
 73
     6
 40
1.240299999999999
 49
0.6614
 74
     0
 49
-0.0827
 74
     0
 49
0.1654
 74
     0
 49
-0.0827
 74
     0
 49
0.1654
 74
     0
 49
-0.0827
 74
     0
  0
LTYPE
  5
4B
330
5
100
AcDbSymbolTableRecord
100
AcDbLinetypeTableRecord
  2
DOUBLE_DASH_DOUBLE_DOT
 70
     0
  3
Double-Dash Double-dot _ _ . . _ _ . . _
 72
    65
 73
     8
 40
0.7400000000000001
 49
0.24
 74
     0
 49
-0.06
 74
     0
 49
0.24
 74
     0
 49
-0.06
 74
     0
 49
0.01
 74
     0
 49
-0.06
 74
     0
 49
0.01
 74
     0
 49
-0.06
 74
     0
  0
LTYPE
  5
4C
330
5
100
AcDbSymbolTableRecord
100
AcDbLinetypeTableRecord
  2
DOUBLE_DASH_TRIPLE_DOT
 70
     0
  3
Double Dash Triple Dot __ __ . . . __ __ . .
 72
    65
 73
    10
 40
0.8100000000000001
 49
0.24
 74
     0
 49
-0.06
 74
     0
 49
0.24
 74
     0
 49
-0.06
 74
     0
 49
0.01
 74
     0
 49
-0.06
 74
     0
 49
0.01
 74
     0
 49
-0.06
 74
     0
 49
0.01
 74
     0
 49
-0.06
 74
     0
  0
LTYPE
  5
4D
330
5
100
AcDbSymbolTableRecord
100
AcDbLinetypeTableRecord
  2
LONG_DASH_DOTTED
 70
     0
  3
Long Dash Dotted ____ . ____ . ____ . ____ . _
 72
    65
 73
     4
 40
0.3543
 49
0.2362
 74
     0
 49
-0.0295
 74
     0
 49
0.0591
 74
     0
 49
-0.0295
 74
     0
  0
LTYPE
  5
4E
330
5
100
AcDbSymbolTableRecord
100
AcDbLinetypeTableRecord
  2
LONG_DASH_DOUBLE_DOT
 70
     0
  3
Long Dash Double Dot ________  .  .  ________  
 72
    65
 73
     6
 40
0.6799999999999999
 49
0.48
 74
     0
 49
-0.06
 74
     0
 49
0.01
 74
     0
 49
-0.06
 74
     0
 49
0.01
 74
     0
 49
-0.06
 74
     0
  0
LTYPE
  5
4F
330
5
100
AcDbSymbolTableRecord
100
AcDbLinetypeTableRecord
  2
LONG_DASH_TRIPLE_DOT
 70
     0
  3
Long Dash Triple Dot ____ ... ____ ... ____
 72
    65
 73
     8
 40
0.3689
 49
0.2362
 74
     0
 49
-0.0295
 74
     0
 49
0.0049
 74
     0
 49
-0.0295
 74
     0
 49
0.0049
 74
     0
 49
-0.0295
 74
     0
 49
0.0049
 74
     0
 49
-0.0295
 74
     0
  0
LTYPE
  5
50
330
5
100
AcDbSymbolTableRecord
100
AcDbLinetypeTableRecord
  2
BORDER
 70
     0
  3
Border __ __ . __ __ . __ __ . __ __ . __ __ .
 72
    65
 73
     6
 40
1.75
 49
0.5
 74
     0
 49
-0.25
 74
     0
 49
0.5
 74
     0
 49
-0.25
 74
     0
 49
0.0
 74
     0
 49
-0.25
 74
     0
  0
LTYPE
  5
51
330
5
100
AcDbSymbolTableRecord
100
AcDbLinetypeTableRecord
  2
BORDER2
 70
     0
  3
Border (.5x) __.__.__.__.__.__.__.__.__.__.__.
 72
    65
 73
     6
 40
0.875
 49
0.25
 74
     0
 49
-0.125
 74
     0
 49
0.25
 74
     0
 49
-0.125
 74
     0
 49
0.0
 74
     0
 49
-0.125
 74
     0
  0
LTYPE
  5
52
330
5
100
AcDbSymbolTableRecord
100
AcDbLinetypeTableRecord
  2
BORDERX2
 70
     0
  3
Border (2x) ____  ____  .  ____  ____  .  ___
 72
    65
 73
     6
 40
3.5
 49
1.0
 74
     0
 49
-0.5
 74
     0
 49
1.0
 74
     0
 49
-0.5
 74
     0
 49
0.0
 74
     0
 49
-0.5
 74
     0
  0
LTYPE
  5
53
330
5
100
AcDbSymbolTableRecord
100
AcDbLinetypeTableRecord
  2
CENTER
 70
     0
  3
Center ____ _ ____ _ ____ _ ____ _ ____ _ ____
 72
    65
 73
     4
 40
2.0
 49
1.25
 74
     0
 49
-0.25
 74
     0
 49
0.25
 74
     0
 49
-0.25
 74
     0
  0
LTYPE
  5
54
330
5
100
AcDbSymbolTableRecord
100
AcDbLinetypeTableRecord
  2
CENTER2
 70
     0
  3
Center (.5x) ___ _ ___ _ ___ _ ___ _ ___ _ ___
 72
    65
 73
     4
 40
1.125
 49
0.75
 74
     0
 49
-0.125
 74
     0
 49
0.125
 74
     0
 49
-0.125
 74
     0
  0
LTYPE
  5
55
330
5
100
AcDbSymbolTableRecord
100
AcDbLinetypeTableRecord
  2
CENTERX2
 70
     0
  3
Center (2x) ________  __  ________  __  _____
 72
    65
 73
     4
 40
4.0
 49
2.5
 74
     0
 49
-0.5
 74
     0
 49
0.5
 74
     0
 49
-0.5
 74
     0
  0
LTYPE
  5
56
330
5
100
AcDbSymbolTableRecord
100
AcDbLinetypeTableRecord
  2
DASHDOT2
 70
     0
  3
Dash dot (.5x) _._._._._._._._._._._._._._._.
 72
    65
 73
     4
 40
0.5
 49
0.25
 74
     0
 49
-0.125
 74
     0
 49
0.0
 74
     0
 49
-0.125
 74
     0
  0
LTYPE
  5
57
330
5
100
AcDbSymbolTableRecord
100
AcDbLinetypeTableRecord
  2
DASHDOTX2
 70
     0
  3
Dash dot (2x) ____  .  ____  .  ____  .  ___
 72
    65
 73
     4
 40
2.0
 49
1.0
 74
     0
 49
-0.5
 74
     0
 49
0.0
 74
     0
 49
-0.5
 74
     0
  0
LTYPE
  5
59
330
5
100
AcDbSymbolTableRecord
100
AcDbLinetypeTableRecord
  2
DASHED2
 70
     0
  3
Dashed (.5x) _ _ _ _ _ _ _ _ _ _ _ _ _ _ _ _ _
 72
    65
 73
     2
 40
0.375
 49
0.25
 74
     0
 49
-0.125
 74
     0
  0
LTYPE
  5
5A
330
5
100
AcDbSymbolTableRecord
100
AcDbLinetypeTableRecord
  2
DASHEDX2
 70
     0
  3
Dashed (2x) ____  ____  ____  ____  ____  ___
 72
    65
 73
     2
 40
1.5
 49
1.0
 74
     0
 49
-0.5
 74
     0
  0
LTYPE
  5
5B
330
5
100
AcDbSymbolTableRecord
100
AcDbLinetypeTableRecord
  2
DIVIDE
 70
     0
  3
Divide ____ . . ____ . . ____ . . ____ . . ____
 72
    65
 73
     6
 40
1.25
 49
0.5
 74
     0
 49
-0.25
 74
     0
 49
0.0
 74
     0
 49
-0.25
 74
     0
 49
0.0
 74
     0
 49
-0.25
 74
     0
  0
LTYPE
  5
5C
330
5
100
AcDbSymbolTableRecord
100
AcDbLinetypeTableRecord
  2
DIVIDE2
 70
     0
  3
Divide (.5x) __..__..__..__..__..__..__..__.._
 72
    65
 73
     6
 40
0.625
 49
0.25
 74
     0
 49
-0.125
 74
     0
 49
0.0
 74
     0
 49
-0.125
 74
     0
 49
0.0
 74
     0
 49
-0.125
 74
     0
  0
LTYPE
  5
5D
330
5
100
AcDbSymbolTableRecord
100
AcDbLinetypeTableRecord
  2
DIVIDEX2
 70
     0
  3
Divide (2x) ________  .  .  ________  .  .  _
 72
    65
 73
     6
 40
2.5
 49
1.0
 74
     0
 49
-0.5
 74
     0
 49
0.0
 74
     0
 49
-0.5
 74
     0
 49
0.0
 74
     0
 49
-0.5
 74
     0
  0
LTYPE
  5
5E
330
5
100
AcDbSymbolTableRecord
100
AcDbLinetypeTableRecord
  2
DOT
 70
     0
  3
Dot . . . . . . . . . . . . . . . . . . . . . .
 72
    65
 73
     2
 40
0.25
 49
0.0
 74
     0
 49
-0.25
 74
     0
  0
LTYPE
  5
5F
330
5
100
AcDbSymbolTableRecord
100
AcDbLinetypeTableRecord
  2
DOT2
 70
     0
  3
Dot (.5x) .....................................
 72
    65
 73
     2
 40
0.125
 49
0.0
 74
     0
 49
-0.125
 74
     0
  0
LTYPE
  5
60
330
5
100
AcDbSymbolTableRecord
100
AcDbLinetypeTableRecord
  2
DOTX2
 70
     0
  3
Dot (2x) .  .  .  .  .  .  .  .  .  .  .  .  . 
 72
    65
 73
     2
 40
0.5
 49
0.0
 74
     0
 49
-0.5
 74
     0
  0
LTYPE
  5
61
330
5
100
AcDbSymbolTableRecord
100
AcDbLinetypeTableRecord
  2
HIDDEN
 70
     0
  3
Hidden __ __ __ __ __ __ __ __ __ __ __ __ __ _
 72
    65
 73
     2
 40
0.375
 49
0.25
 74
     0
 49
-0.125
 74
     0
  0
LTYPE
  5
62
330
5
100
AcDbSymbolTableRecord
100
AcDbLinetypeTableRecord
  2
HIDDEN2
 70
     0
  3
Hidden (.5x) _ _ _ _ _ _ _ _ _ _ _ _ _ _ _ _ _
 72
    65
 73
     2
 40
0.1875
 49
0.125
 74
     0
 49
-0.0625
 74
     0
  0
LTYPE
  5
63
330
5
100
AcDbSymbolTableRecord
100
AcDbLinetypeTableRecord
  2
HIDDENX2
 70
     0
  3
Hidden (2x) ____ ____ ____ ____ ____ ____ ____
 72
    65
 73
     2
 40
0.75
 49
0.5
 74
     0
 49
-0.25
 74
     0
  0
LTYPE
  5
64
330
5
100
AcDbSymbolTableRecord
100
AcDbLinetypeTableRecord
  2
PHANTOM
 70
     0
  3
Phantom ______  __  __  ______  __  __  ______
 72
    65
 73
     6
 40
2.5
 49
1.25
 74
     0
 49
-0.25
 74
     0
 49
0.25
 74
     0
 49
-0.25
 74
     0
 49
0.25
 74
     0
 49
-0.25
 74
     0
  0
LTYPE
  5
65
330
5
100
AcDbSymbolTableRecord
100
AcDbLinetypeTableRecord
  2
PHANTOM2
 70
     0
  3
Phantom (.5x) ___ _ _ ___ _ _ ___ _ _ ___ _ _
 72
    65
 73
     6
 40
1.25
 49
0.625
 74
     0
 49
-0.125
 74
     0
 49
0.125
 74
     0
 49
-0.125
 74
     0
 49
0.125
 74
     0
 49
-0.125
 74
     0
  0
LTYPE
  5
66
330
5
100
AcDbSymbolTableRecord
100
AcDbLinetypeTableRecord
  2
PHANTOMX2
 70
     0
  3
Phantom (2x) ____________    ____    ____   _
 72
    65
 73
     6
 40
5.0
 49
2.5
 74
     0
 49
-0.5
 74
     0
 49
0.5
 74
     0
 49
-0.5
 74
     0
 49
0.5
 74
     0
 49
-0.5
 74
     0
  0
LTYPE
  5
67
330
5
100
AcDbSymbolTableRecord
100
AcDbLinetypeTableRecord
  2
ACAD_ISO02W100
 70
     0
  3
ISO dash __ __ __ __ __ __ __ __ __ __ __ __ __
 72
    65
 73
     2
 40
0.59
 49
0.47
 74
     0
 49
-0.12
 74
     0
  0
LTYPE
  5
68
330
5
100
AcDbSymbolTableRecord
100
AcDbLinetypeTableRecord
  2
ACAD_ISO03W100
 70
     0
  3
ISO dash space __    __    __    __    __    __
 72
    65
 73
     2
 40
1.179999999999999
 49
0.47
 74
     0
 49
-0.71
 74
     0
  0
LTYPE
  5
69
330
5
100
AcDbSymbolTableRecord
100
AcDbLinetypeTableRecord
  2
ACAD_ISO04W100
 70
     0
  3
ISO long-dash dot ____ . ____ . ____ . ____ . _
 72
    65
 73
     4
 40
1.179999999999999
 49
0.9399999999999998
 74
     0
 49
-0.12
 74
     0
 49
0.0
 74
     0
 49
-0.12
 74
     0
  0
LTYPE
  5
6A
330
5
100
AcDbSymbolTableRecord
100
AcDbLinetypeTableRecord
  2
ACAD_ISO05W100
 70
     0
  3
ISO long-dash double-dot ____ .. ____ .. ____ .
 72
    65
 73
     6
 40
1.299999999999999
 49
0.9399999999999998
 74
     0
 49
-0.12
 74
     0
 49
0.0
 74
     0
 49
-0.12
 74
     0
 49
0.0
 74
     0
 49
-0.12
 74
     0
  0
LTYPE
  5
6B
330
5
100
AcDbSymbolTableRecord
100
AcDbLinetypeTableRecord
  2
ACAD_ISO06W100
 70
     0
  3
ISO long-dash triple-dot ____ ... ____ ... ____
 72
    65
 73
     8
 40
1.419999999999999
 49
0.9399999999999998
 74
     0
 49
-0.12
 74
     0
 49
0.0
 74
     0
 49
-0.12
 74
     0
 49
0.0
 74
     0
 49
-0.12
 74
     0
 49
0.0
 74
     0
 49
-0.12
 74
     0
  0
LTYPE
  5
6C
330
5
100
AcDbSymbolTableRecord
100
AcDbLinetypeTableRecord
  2
ACAD_ISO07W100
 70
     0
  3
ISO dot . . . . . . . . . . . . . . . . . . . .
 72
    65
 73
     2
 40
0.12
 49
0.0
 74
     0
 49
-0.12
 74
     0
  0
LTYPE
  5
6D
330
5
100
AcDbSymbolTableRecord
100
AcDbLinetypeTableRecord
  2
ACAD_ISO08W100
 70
     0
  3
ISO long-dash short-dash ____ __ ____ __ ____ _
 72
    65
 73
     4
 40
0.95
 49
0.47
 74
     0
 49
-0.12
 74
     0
 49
0.24
 74
     0
 49
-0.12
 74
     0
  0
LTYPE
  5
6E
330
5
100
AcDbSymbolTableRecord
100
AcDbLinetypeTableRecord
  2
ACAD_ISO09W100
 70
     0
  3
ISO long-dash double-short-dash ____ __ __ ____
 72
    65
 73
     6
 40
1.31
 49
0.47
 74
     0
 49
-0.12
 74
     0
 49
0.24
 74
     0
 49
-0.12
 74
     0
 49
0.24
 74
     0
 49
-0.12
 74
     0
  0
LTYPE
  5
6F
330
5
100
AcDbSymbolTableRecord
100
AcDbLinetypeTableRecord
  2
ACAD_ISO10W100
 70
     0
  3
ISO dash dot __ . __ . __ . __ . __ . __ . __ .
 72
    65
 73
     4
 40
0.71
 49
0.47
 74
     0
 49
-0.12
 74
     0
 49
0.0
 74
     0
 49
-0.12
 74
     0
  0
LTYPE
  5
70
330
5
100
AcDbSymbolTableRecord
100
AcDbLinetypeTableRecord
  2
ACAD_ISO11W100
 70
     0
  3
ISO double-dash dot __ __ . __ __ . __ __ . __ 
 72
    65
 73
     6
 40
1.299999999999999
 49
0.47
 74
     0
 49
-0.12
 74
     0
 49
0.47
 74
     0
 49
-0.12
 74
     0
 49
0.0
 74
     0
 49
-0.12
 74
     0
  0
LTYPE
  5
71
330
5
100
AcDbSymbolTableRecord
100
AcDbLinetypeTableRecord
  2
ACAD_ISO12W100
 70
     0
  3
ISO dash double-dot __ . . __ . . __ . . __ . .
 72
    65
 73
     6
 40
0.8299999999999998
 49
0.47
 74
     0
 49
-0.12
 74
     0
 49
0.0
 74
     0
 49
-0.12
 74
     0
 49
0.0
 74
     0
 49
-0.12
 74
     0
  0
LTYPE
  5
72
330
5
100
AcDbSymbolTableRecord
100
AcDbLinetypeTableRecord
  2
ACAD_ISO13W100
 70
     0
  3
ISO double-dash double-dot __ __ . . __ __ . . 
 72
    65
 73
     8
 40
1.419999999999999
 49
0.47
 74
     0
 49
-0.12
 74
     0
 49
0.47
 74
     0
 49
-0.12
 74
     0
 49
0.0
 74
     0
 49
-0.12
 74
     0
 49
0.0
 74
     0
 49
-0.12
 74
     0
  0
LTYPE
  5
73
330
5
100
AcDbSymbolTableRecord
100
AcDbLinetypeTableRecord
  2
ACAD_ISO14W100
 70
     0
  3
ISO dash triple-dot __ . . . __ . . . __ . . . 
 72
    65
 73
     8
 40
0.95
 49
0.47
 74
     0
 49
-0.12
 74
     0
 49
0.0
 74
     0
 49
-0.12
 74
     0
 49
0.0
 74
     0
 49
-0.12
 74
     0
 49
0.0
 74
     0
 49
-0.12
 74
     0
  0
LTYPE
  5
74
330
5
100
AcDbSymbolTableRecord
100
AcDbLinetypeTableRecord
  2
ACAD_ISO15W100
 70
     0
  3
ISO double-dash triple-dot __ __ . . . __ __ . 
 72
    65
 73
    10
 40
1.539999999999999
 49
0.47
 74
     0
 49
-0.12
 74
     0
 49
0.47
 74
     0
 49
-0.12
 74
     0
 49
0.0
 74
     0
 49
-0.12
 74
     0
 49
0.0
 74
     0
 49
-0.12
 74
     0
 49
0.0
 74
     0
 49
-0.12
 74
     0
  0
LTYPE
  5
77
330
5
100
AcDbSymbolTableRecord
100
AcDbLinetypeTableRecord
  2
FENCELINE1
 70
     0
  3
Fenceline circle ----0-----0----0-----0----0---
 72
    65
 73
     4
 40
1.45
 49
0.25
 74
     0
 49
-0.1
 74
     4
 75
   133
340
76
 46
0.1
 50
0.0
 44
-0.1
 45
0.0
 49
-0.1
 74
     0
 49
1.0
 74
     0
  0
LTYPE
  5
78
330
5
100
AcDbSymbolTableRecord
100
AcDbLinetypeTableRecord
  2
FENCELINE2
 70
     0
  3
Fenceline square ----[]-----[]----[]-----[]----
 72
    65
 73
     4
 40
1.45
 49
0.25
 74
     0
 49
-0.1
 74
     4
 75
   132
340
76
 46
0.1
 50
0.0
 44
-0.1
 45
0.0
 49
-0.1
 74
     0
 49
1.0
 74
     0
  0
LTYPE
  5
79
330
5
100
AcDbSymbolTableRecord
100
AcDbLinetypeTableRecord
  2
TRACKS
 70
     0
  3
Tracks -|-|-|-|-|-|-|-|-|-|-|-|-|-|-|-|-|-|-|-|
 72
    65
 73
     2
 40
0.3
 49
0.15
 74
     4
 75
   130
340
76
 46
0.25
 50
0.0
 44
0.0
 45
0.0
 49
0.15
 74
     0
  0
LTYPE
  5
7A
330
5
100
AcDbSymbolTableRecord
100
AcDbLinetypeTableRecord
  2
BATTING
 70
     0
  3
Batting SSSSSSSSSSSSSSSSSSSSSSSSSSSSSSSSSSSSSSS
 72
    65
 73
     4
 40
0.4001000000000001
 49
0.0001
 74
     0
 49
-0.1
 74
     4
 75
   134
340
76
 46
0.1
 50
0.0
 44
-0.1
 45
0.0
 49
-0.2
 74
     4
 75
   134
340
76
 46
0.1
 50
180.0
 44
0.1
 45
0.0
 49
-0.1
 74
     0
  0
LTYPE
  5
7B
330
5
100
AcDbSymbolTableRecord
100
AcDbLinetypeTableRecord
  2
HOT_WATER_SUPPLY
 70
     0
  3
Hot water supply ---- HW ---- HW ---- HW ----
 72
    65
 73
     3
 40
0.9
 49
0.5
 74
     0
 49
-0.2
 74
     2
 75
     0
340
26
 46
0.1
 50
0.0
 44
-0.1
 45
-0.05
  9
HW
 49
-0.2
 74
     0
  0
LTYPE
  5
7C
330
5
100
AcDbSymbolTableRecord
100
AcDbLinetypeTableRecord
  2
GAS_LINE
 70
     0
  3
Gas line ----GAS----GAS----GAS----GAS----GAS---
 72
    65
 73
     3
 40
0.95
 49
0.5
 74
     0
 49
-0.2
 74
     2
 75
     0
340
26
 46
0.1
 50
0.0
 44
-0.1
 45
-0.05
  9
GAS
 49
-0.25
 74
     0
  0
LTYPE
  5
7D
330
5
100
AcDbSymbolTableRecord
100
AcDbLinetypeTableRecord
  2
ZIGZAG
 70
     0
  3
Zig zag /\/\/\/\/\/\/\/\/\/\/\/\/\/\/\/\/\/\/\/
 72
    65
 73
     4
 40
0.8001000000000001
 49
0.0001
 74
     0
 49
-0.2
 74
     4
 75
   131
340
76
 46
0.2
 50
0.0
 44
-0.2
 45
0.0
 49
-0.4
 74
     4
 75
   131
340
76
 46
0.2
 50
180.0
 44
0.2
 45
0.0
 49
-0.2
 74
     0
  0
ENDTAB
  0
TABLE
  2
LAYER
  5
2
330
0
100
AcDbSymbolTable
 70
    26
  0
LAYER
  5
25
330
2
100
AcDbSymbolTableRecord
100
AcDbLayerTableRecord
  2
0
 70
     0
 62
     7
  6
Continuous
370
    -3
390
F
  0
LAYER
  5
81
330
2
100
AcDbSymbolTableRecord
100
AcDbLayerTableRecord
  2
Border (ANSI)
 70
     0
 62
     7
  6
Continuous
370
    70
390
F
  0
LAYER
  5
83
330
2
100
AcDbSymbolTableRecord
100
AcDbLayerTableRecord
  2
Center Mark (ANSI)
 70
     0
 62
     7
  6
Continuous
370
    25
390
F
  0
LAYER
  5
84
330
2
100
AcDbSymbolTableRecord
100
AcDbLayerTableRecord
  2
Centerline (ANSI)
 70
     0
 62
     7
  6
Continuous
370
    25
390
F
  0
LAYER
  5
86
330
2
100
AcDbSymbolTableRecord
100
AcDbLayerTableRecord
  2
Dimension (ANSI)
 70
     0
 62
     7
  6
Continuous
370
    25
390
F
  0
LAYER
  5
89
330
2
100
AcDbSymbolTableRecord
100
AcDbLayerTableRecord
  2
Hidden Narrow (ANSI)
 70
     0
 62
     7
  6
DASHED
370
    25
390
F
  0
LAYER
  5
8D
330
2
100
AcDbSymbolTableRecord
100
AcDbLayerTableRecord
  2
Sketch Geometry (ANSI)
 70
     0
 62
     7
  6
Continuous
370
    25
390
F
  0
LAYER
  5
8E
330
2
100
AcDbSymbolTableRecord
100
AcDbLayerTableRecord
  2
Symbol (ANSI)
 70
     0
 62
     7
  6
Continuous
370
    25
390
F
  0
LAYER
  5
91
330
2
100
AcDbSymbolTableRecord
100
AcDbLayerTableRecord
  2
Visible (ANSI)
 70
     0
 62
     7
  6
Continuous
370
    50
390
F
  0
LAYER
  5
154
330
2
100
AcDbSymbolTableRecord
100
AcDbLayerTableRecord
  2
Defpoints
 70
     0
 62
     7
  6
Continuous
290
     0
370
    -3
390
F
  0
ENDTAB
  0
TABLE
  2
STYLE
  5
3
330
0
100
AcDbSymbolTable
 70
    13
  0
STYLE
  5
26
330
3
100
AcDbSymbolTableRecord
100
AcDbTextStyleTableRecord
  2
Standard
 70
     0
 40
0.0
 41
1.0
 50
0.0
 71
     0
 42
0.2
  3
TAHOMA.TTF
  4

1001
ACAD
1000
Tahoma
1071
      256
  0
STYLE
  5
76
330
3
100
AcDbSymbolTableRecord
100
AcDbTextStyleTableRecord
  2

 70
     1
 40
0.0
 41
1.0
 50
0.0
 71
     0
 42
0.2
  3
ltypeshp.shx
  4

  0
STYLE
  5
96
330
3
100
AcDbSymbolTableRecord
100
AcDbTextStyleTableRecord
  2
Label Text (ANSI)
 70
     0
 40
0.0
 41
1.0
 50
0.0
 71
     0
 42
0.2
  3
TAHOMA.TTF
  4

1001
ACAD
1000
Tahoma
1071
      256
  0
STYLE
  5
97
330
3
100
AcDbSymbolTableRecord
100
AcDbTextStyleTableRecord
  2
Label Text (DIN)
 70
     0
 40
0.0
 41
1.0
 50
0.0
 71
     0
 42
0.2
  3
isocpeur.ttf
  4

1001
ACAD
1000
ISOCPEUR
1071
      256
  0
STYLE
  5
98
330
3
100
AcDbSymbolTableRecord
100
AcDbTextStyleTableRecord
  2
Label Text (ISO)
 70
     0
 40
0.0
 41
1.0
 50
0.0
 71
     0
 42
0.2
  3
TAHOMA.TTF
  4

1001
ACAD
1000
Tahoma
1071
      256
  0
STYLE
  5
99
330
3
100
AcDbSymbolTableRecord
100
AcDbTextStyleTableRecord
  2
Label Text (JIS)
 70
     0
 40
0.0
 41
1.0
 50
0.0
 71
     0
 42
0.2
  3
TAHOMA.TTF
  4

1001
ACAD
1000
Tahoma
1071
      256
  0
STYLE
  5
9A
330
3
100
AcDbSymbolTableRecord
100
AcDbTextStyleTableRecord
  2
Note Text (ANSI)
 70
     0
 40
0.0
 41
1.0
 50
0.0
 71
     0
 42
0.2
  3
TAHOMA.TTF
  4

1001
ACAD
1000
Tahoma
1071
      256
  0
STYLE
  5
9B
330
3
100
AcDbSymbolTableRecord
100
AcDbTextStyleTableRecord
  2
Note Text (DIN)
 70
     0
 40
0.0
 41
1.0
 50
0.0
 71
     0
 42
0.2
  3
isocpeur.ttf
  4

1001
ACAD
1000
ISOCPEUR
1071
      256
  0
STYLE
  5
9C
330
3
100
AcDbSymbolTableRecord
100
AcDbTextStyleTableRecord
  2
Note Text (ISO)
 70
     0
 40
0.0
 41
1.0
 50
0.0
 71
     0
 42
0.2
  3
TAHOMA.TTF
  4

1001
ACAD
1000
Tahoma
1071
      256
  0
STYLE
  5
9D
330
3
100
AcDbSymbolTableRecord
100
AcDbTextStyleTableRecord
  2
Note Text (JIS)
 70
     0
 40
0.0
 41
1.0
 50
0.0
 71
     0
 42
0.2
  3
TAHOMA.TTF
  4

1001
ACAD
1000
Tahoma
1071
      256
  0
STYLE
  5
F3
330
3
100
AcDbSymbolTableRecord
100
AcDbTextStyleTableRecord
  2
Text Style29
 70
     0
 40
0.0
 41
1.0
 50
0.0
 71
     0
 42
0.2
  3
TAHOMA.TTF
  4

1001
ACAD
1000
Tahoma
1071
      256
  0
STYLE
  5
7D9
330
3
100
AcDbSymbolTableRecord
100
AcDbTextStyleTableRecord
  2
Text Style30
 70
     0
 40
0.0
 41
1.0
 50
0.0
 71
     0
 42
0.2
  3
TAHOMA.TTF
  4

1001
ACAD
1000
Tahoma
1071
      256
  0
STYLE
  5
A53
330
3
100
AcDbSymbolTableRecord
100
AcDbTextStyleTableRecord
  2
Text Style6
 70
     0
 40
0.0
 41
1.0
 50
0.0
 71
     0
 42
0.2
  3
AIGDT___.TTF
  4

1001
ACAD
1000
AIGDT
1071
      514
  0
ENDTAB
  0
TABLE
  2
VIEW
  5
6
330
0
100
AcDbSymbolTable
 70
     0
  0
ENDTAB
  0
TABLE
  2
UCS
  5
7
330
0
100
AcDbSymbolTable
 70
     0
  0
ENDTAB
  0
TABLE
  2
APPID
  5
9
330
0
100
AcDbSymbolTable
 70
     1
  0
APPID
  5
27
330
9
100
AcDbSymbolTableRecord
100
AcDbRegAppTableRecord
  2
ACAD
 70
     0
  0
ENDTAB
  0
TABLE
  2
DIMSTYLE
  5
A
330
0
100
AcDbSymbolTable
 70
    17
100
AcDbDimStyleTable
 71
     2
340
A6
340
3F
  0
DIMSTYLE
105
3F
330
A
100
AcDbSymbolTableRecord
100
AcDbDimStyleTableRecord
  2
Standard
 70
     0
340
26
  0
DIMSTYLE
105
9E
330
A
100
AcDbSymbolTableRecord
100
AcDbDimStyleTableRecord
  2
Architectural (ANSI)
 70
     0
 40
0.2
 41
0.0984251946210861
 42
0.0625
 43
0.2362204724409449
 44
0.125
 45
0.00000001
 46
0.3937007874015748
 78
     4
 79
     3
140
0.1200000047683716
144
0.0833333333333333
147
0.031496062992126
171
     1
176
   256
177
   256
178
   256
272
     2
274
     1
276
     2
277
     4
284
    12
286
    12
340
9A
371
    -1
372
    -1
  0
DIMSTYLE
105
9F
330
A
100
AcDbSymbolTableRecord
100
AcDbDimStyleTableRecord
  2
Architectural (ANSI)$7
 70
     0
 40
0.2
 41
0.0984251946210861
 42
0.0625
 43
0.2362204724409449
 44
0.125
 45
0.00000001
 46
0.3937007874015748
 78
     4
 79
     3
140
0.1200000047683716
144
0.0833333333333333
147
0.031496062992126
171
     1
176
   256
177
   256
178
   256
272
     2
274
     1
276
     2
277
     4
284
    12
286
    12
340
9A
371
    -1
372
    -1
  0
DIMSTYLE
105
A0
330
A
100
AcDbSymbolTableRecord
100
AcDbDimStyleTableRecord
  2
Default - Fraction (ANSI)
 70
     0
 40
0.2
 41
0.0984251946210861
 42
0.0625
 43
0.2362204724409449
 44
0.125
 45
0.00000001
 46
0.3937007874015748
 78
    12
 79
     3
140
0.1200000047683716
147
0.031496062992126
171
     1
176
   256
177
   256
178
   256
272
     2
274
     1
276
     2
277
     5
284
    12
286
    12
340
9A
371
    -1
372
    -1
  0
DIMSTYLE
105
A1
330
A
100
AcDbSymbolTableRecord
100
AcDbDimStyleTableRecord
  2
Default - Fraction (ANSI)$7
 70
     0
 40
0.2
 41
0.0984251946210861
 42
0.0625
 43
0.2362204724409449
 44
0.125
 45
0.00000001
 46
0.3937007874015748
 78
    12
 79
     3
140
0.1200000047683716
147
0.031496062992126
171
     1
176
   256
177
   256
178
   256
272
     2
274
     1
276
     2
277
     5
284
    12
286
    12
340
9A
371
    -1
372
    -1
  0
DIMSTYLE
105
A2
330
A
100
AcDbSymbolTableRecord
100
AcDbDimStyleTableRecord
  2
Default - mm (ANSI)
 70
     0
 40
0.2
 41
0.0984251946210861
 42
0.063
 43
0.2362204724409449
 44
0.125
 45
0.00000001
 46
0.3937007874015748
 73
     0
140
0.1200000047683716
143
1.0
144
25.4
147
0.031496062992126
171
     1
176
   256
177
   256
178
   256
179
     1
271
     2
272
     2
274
     1
340
9A
371
    -1
372
    -1
  0
DIMSTYLE
105
A3
330
A
100
AcDbSymbolTableRecord
100
AcDbDimStyleTableRecord
  2
Default - mm (ANSI)$7
 70
     0
 40
0.2
 41
0.0984251946210861
 42
0.063
 43
0.2362204724409449
 44
0.125
 45
0.00000001
 46
0.3937007874015748
 73
     0
140
0.1200000047683716
143
1.0
144
25.4
147
0.031496062992126
171
     1
176
   256
177
   256
178
   256
179
     1
271
     2
272
     2
274
     1
340
9A
371
    -1
372
    -1
  0
DIMSTYLE
105
A4
330
A
100
AcDbSymbolTableRecord
100
AcDbDimStyleTableRecord
  2
Default - mm [in] (ANSI)
 70
     0
  4
 in
 40
0.2
 41
0.0984251946210861
 42
0.063
 43
0.25
 44
0.125
 45
0.00000001
 46
0.3937007874015748
 73
     0
 78
     4
 79
     1
140
0.1200000047683716
143
0.03937
144
25.4
147
0.031496062992126
170
     1
171
     3
176
   256
177
   256
178
   256
179
     1
271
     2
272
     2
274
     3
284
     4
286
     4
340
9A
371
    -1
372
    -1
  0
DIMSTYLE
105
A5
330
A
100
AcDbSymbolTableRecord
100
AcDbDimStyleTableRecord
  2
Default - mm [in] (ANSI)$7
 70
     0
  4
 in
 40
0.2
 41
0.0984251946210861
 42
0.063
 43
0.25
 44
0.125
 45
0.00000001
 46
0.3937007874015748
 73
     0
 78
     4
 79
     1
140
0.1200000047683716
143
0.03937
144
25.4
147
0.031496062992126
170
     1
171
     3
176
   256
177
   256
178
   256
179
     1
271
     2
272
     2
274
     3
284
     4
286
     4
340
9A
371
    -1
372
    -1
  0
DIMSTYLE
105
A6
102
{ACAD_REACTORS
330
153
330
234
330
301
330
3D6
330
4A2
330
539
330
619
330
6F9
330
7E1
330
877
330
957
330
A70
102
}
330
A
100
AcDbSymbolTableRecord
100
AcDbDimStyleTableRecord
  2
Default (ANSI)
 70
     0
  3
 in
 40
0.2
 41
0.0984251946210861
 42
0.0625
 43
0.2362204724409449
 44
0.125
 45
0.00000001
 46
0.3937007874015748
140
0.1200000047683716
143
1.0
147
0.031496062992126
171
     3
176
   256
177
   256
178
   256
271
     3
272
     3
274
     3
340
9A
371
    -1
372
    -1
  0
DIMSTYLE
105
A7
330
A
100
AcDbSymbolTableRecord
100
AcDbDimStyleTableRecord
  2
Default (ANSI)$7
 70
     0
  3
 in
 40
0.2
 41
0.0984251946210861
 42
0.0625
 43
0.2362204724409449
 44
0.125
 45
0.00000001
 46
0.3937007874015748
140
0.1200000047683716
143
1.0
147
0.031496062992126
171
     3
176
   256
177
   256
178
   256
271
     3
272
     3
274
     3
340
9A
371
    -1
372
    -1
  0
DIMSTYLE
105
A8
330
A
100
AcDbSymbolTableRecord
100
AcDbDimStyleTableRecord
  2
Default (ANSI)-01
 70
     0
  3
 in
 40
0.2
 41
0.0984251946210861
 42
0.0625
 43
0.2362204724409449
 44
0.125
 45
0.00000001
 46
0.3937007874015748
140
0.1200000047683716
143
1.0
147
0.031496062992126
171
     3
176
   256
177
   256
178
   256
271
     3
272
     3
274
     3
340
9A
371
    -1
372
    -1
  0
DIMSTYLE
105
A9
330
A
100
AcDbSymbolTableRecord
100
AcDbDimStyleTableRecord
  2
Default (ANSI)-01$7
 70
     0
  3
 in
 40
0.2
 41
0.0984251946210861
 42
0.0625
 43
0.2362204724409449
 44
0.125
 45
0.00000001
 46
0.3937007874015748
140
0.1200000047683716
143
1.0
147
0.031496062992126
171
     3
176
   256
177
   256
178
   256
271
     3
272
     3
274
     3
340
9A
371
    -1
372
    -1
  0
DIMSTYLE
105
B8
330
A
100
AcDbSymbolTableRecord
100
AcDbDimStyleTableRecord
  2
Miscellaneous Object (ANSI)
 70
     0
 40
0.2
 41
0.1968503892421722
 42
0.0625
 43
0.2362204724409449
 44
0.125
 45
0.00000001
 46
0.3937007874015748
140
0.1799999922513962
146
0.666666721856155
147
0.031496062992126
171
     1
176
   256
177
   256
178
   256
271
     3
272
     2
274
     1
340
96
341
AA
371
    -1
372
    -1
  0
DIMSTYLE
105
B9
330
A
100
AcDbSymbolTableRecord
100
AcDbDimStyleTableRecord
  2
Miscellaneous Object (ANSI)$7
 70
     0
 40
0.2
 41
0.1959999948740005
 42
0.0625
 43
0.2362204724409449
 44
0.125
 45
0.00000001
 46
0.3937007874015748
140
0.1799999922513962
146
0.666666721856155
147
0.031496062992126
171
     1
176
   256
177
   256
178
   256
271
     3
272
     2
274
     1
340
96
341
AA
371
    -1
372
    -1
  0
DIMSTYLE
105
BA
330
A
100
AcDbSymbolTableRecord
100
AcDbDimStyleTableRecord
  2
Alternate (ANSI)
 70
     0
 40
0.2
 41
0.0979999974370003
340
26
342
BB
  0
DIMSTYLE
105
CC
330
A
100
AcDbSymbolTableRecord
100
AcDbDimStyleTableRecord
  2
Datum (ANSI)
 70
     0
 40
0.2
 41
0.0979999974370003
340
26
342
BB
  0
ENDTAB
  0
TABLE
  2
BLOCK_RECORD
  5
1
330
0
100
AcDbSymbolTable
 70
    21
  0
BLOCK_RECORD
  5
37
330
1
100
AcDbSymbolTableRecord
100
AcDbBlockTableRecord
  2
*Model_Space
340
3A
  0
BLOCK_RECORD
  5
33
330
1
100
AcDbSymbolTableRecord
100
AcDbBlockTableRecord
  2
*Paper_Space
340
36
  0
BLOCK_RECORD
  5
3B
330
1
100
AcDbSymbolTableRecord
100
AcDbBlockTableRecord
  2
*Paper_Space0
340
3E
  0
BLOCK_RECORD
  5
AA
330
1
100
AcDbSymbolTableRecord
100
AcDbBlockTableRecord
  2
Filled-1
340
0
  0
BLOCK_RECORD
  5
BB
330
1
100
AcDbSymbolTableRecord
100
AcDbBlockTableRecord
  2
_Closed
340
0
  0
BLOCK_RECORD
  5
C2
330
1
100
AcDbSymbolTableRecord
100
AcDbBlockTableRecord
  2
DatumFilled45
340
0
  0
BLOCK_RECORD
  5
CD
330
1
100
AcDbSymbolTableRecord
100
AcDbBlockTableRecord
  2
Borders Default Border
340
0
102
{BLKREFS
331
FE
102
}
  0
BLOCK_RECORD
  5
155
330
1
100
AcDbSymbolTableRecord
100
AcDbBlockTableRecord
  2
*D5
340
0
  0
BLOCK_RECORD
  5
235
330
1
100
AcDbSymbolTableRecord
100
AcDbBlockTableRecord
  2
*D6
340
0
  0
BLOCK_RECORD
  5
302
330
1
100
AcDbSymbolTableRecord
100
AcDbBlockTableRecord
  2
*D7
340
0
  0
BLOCK_RECORD
  5
3D7
330
1
100
AcDbSymbolTableRecord
100
AcDbBlockTableRecord
  2
*D8
340
0
  0
BLOCK_RECORD
  5
4A3
330
1
100
AcDbSymbolTableRecord
100
AcDbBlockTableRecord
  2
*D9
340
0
  0
BLOCK_RECORD
  5
53A
330
1
100
AcDbSymbolTableRecord
100
AcDbBlockTableRecord
  2
*D10
340
0
  0
BLOCK_RECORD
  5
61A
330
1
100
AcDbSymbolTableRecord
100
AcDbBlockTableRecord
  2
*D11
340
0
  0
BLOCK_RECORD
  5
6FA
330
1
100
AcDbSymbolTableRecord
100
AcDbBlockTableRecord
  2
*D12
340
0
  0
BLOCK_RECORD
  5
7E2
330
1
100
AcDbSymbolTableRecord
100
AcDbBlockTableRecord
  2
*D13
340
0
  0
BLOCK_RECORD
  5
878
330
1
100
AcDbSymbolTableRecord
100
AcDbBlockTableRecord
  2
*D14
340
0
  0
BLOCK_RECORD
  5
958
330
1
100
AcDbSymbolTableRecord
100
AcDbBlockTableRecord
  2
*D15
340
0
  0
BLOCK_RECORD
  5
9F0
330
1
100
AcDbSymbolTableRecord
100
AcDbBlockTableRecord
  2
_Dot
340
0
  0
BLOCK_RECORD
  5
A07
330
1
100
AcDbSymbolTableRecord
100
AcDbBlockTableRecord
  2
Origin Indicator Symbol4
340
0
102
{BLKREFS
331
A2D
102
}
  0
BLOCK_RECORD
  5
A2E
330
1
100
AcDbSymbolTableRecord
100
AcDbBlockTableRecord
  2
Hole Table4
340
0
102
{BLKREFS
331
A5D
102
}
  0
BLOCK_RECORD
  5
A5E
330
1
100
AcDbSymbolTableRecord
100
AcDbBlockTableRecord
  2
Leader Text15
340
0
102
{BLKREFS
331
A6F
102
}
  0
BLOCK_RECORD
  5
A71
330
1
100
AcDbSymbolTableRecord
100
AcDbBlockTableRecord
  2
*D20
340
0
  0
ENDTAB
  0
ENDSEC
  0
SECTION
  2
BLOCKS
  0
BLOCK
  5
38
330
37
100
AcDbEntity
  8
0
100
AcDbBlockBegin
  2
*Model_Space
 70
     0
 10
0.0
 20
0.0
 30
0.0
  3
*Model_Space
  1

  0
ENDBLK
  5
39
330
37
100
AcDbEntity
  8
0
100
AcDbBlockEnd
  0
BLOCK
  5
34
330
33
100
AcDbEntity
 67
     1
  8
0
100
AcDbBlockBegin
  2
*Paper_Space
 70
     0
 10
0.0
 20
0.0
 30
0.0
  3
*Paper_Space
  1

  0
ENDBLK
  5
35
330
33
100
AcDbEntity
 67
     1
  8
0
100
AcDbBlockEnd
  0
BLOCK
  5
3C
330
3B
100
AcDbEntity
 67
     1
  8
0
100
AcDbBlockBegin
  2
*Paper_Space0
 70
     0
 10
0.0
 20
0.0
 30
0.0
  3
*Paper_Space0
  1

  0
ENDBLK
  5
3D
330
3B
100
AcDbEntity
 67
     1
  8
0
100
AcDbBlockEnd
  0
BLOCK
  5
AB
330
AA
100
AcDbEntity
  8
0
100
AcDbBlockBegin
  2
Filled-1
 70
     0
 10
0.0
 20
0.0
 30
0.0
  3
Filled-1
  1

  0
LINE
  5
AD
330
AA
100
AcDbEntity
  8
0
 62
     0
100
AcDbLine
 10
-0.9999999999999998
 20
0.0
 30
0.0
 11
0.0
 21
0.0
 31
0.0
  0
POLYLINE
  5
AE
330
AA
100
AcDbEntity
  8
0
 62
     0
100
AcDb2dPolyline
 66
     1
 10
0.0
 20
0.0
 30
0.0
 70
   128
  0
VERTEX
  5
AF
330
AE
100
AcDbEntity
  8
0
 62
     0
100
AcDbVertex
100
AcDb2dVertex
 10
-0.9999999999999998
 20
-0.0994897959183674
 30
0.0
  0
VERTEX
  5
B0
330
AE
100
AcDbEntity
  8
0
 62
     0
100
AcDbVertex
100
AcDb2dVertex
 10
0.0
 20
0.0
 30
0.0
  0
VERTEX
  5
B2
330
AE
100
AcDbEntity
  8
0
 62
     0
100
AcDbVertex
100
AcDb2dVertex
 10
-0.9999999999999998
 20
0.0994897959183674
 30
0.0
  0
VERTEX
  5
B3
330
AE
100
AcDbEntity
  8
0
 62
     0
100
AcDbVertex
100
AcDb2dVertex
 10
-0.9999999999999998
 20
-0.0994897959183674
 30
0.0
  0
SEQEND
  5
B1
330
AE
100
AcDbEntity
  8
0
 62
     0
  0
SOLID
  5
B4
330
AA
100
AcDbEntity
  8
0
 62
     0
100
AcDbTrace
 10
-0.9999999999999998
 20
-0.0994897959183674
 30
0.0
 11
0.0
 21
0.0
 31
0.0
 12
-0.9999999999999998
 22
0.0994897959183674
 32
0.0
 13
-0.9999999999999998
 23
-0.0994897959183674
 33
0.0
  0
LINE
  5
B5
330
AA
100
AcDbEntity
  8
0
 62
     0
100
AcDbLine
 10
-0.9999999999999998
 20
-0.0994897959183674
 30
0.0
 11
0.0
 21
0.0
 31
0.0
  0
LINE
  5
B6
330
AA
100
AcDbEntity
  8
0
 62
     0
100
AcDbLine
 10
0.0
 20
0.0
 30
0.0
 11
-0.9999999999999998
 21
0.0994897959183674
 31
0.0
  0
LINE
  5
B7
330
AA
100
AcDbEntity
  8
0
 62
     0
100
AcDbLine
 10
-0.9999999999999998
 20
0.0994897959183674
 30
0.0
 11
-0.9999999999999998
 21
-0.0994897959183674
 31
0.0
  0
ENDBLK
  5
AC
330
AA
100
AcDbEntity
  8
0
100
AcDbBlockEnd
  0
BLOCK
  5
C0
330
BB
100
AcDbEntity
  8
0
100
AcDbBlockBegin
  2
_Closed
 70
     0
 10
0.0
 20
0.0
 30
0.0
  3
_Closed
  1

  0
LINE
  5
BC
330
BB
100
AcDbEntity
  8
0
  6
ByBlock
 62
     0
370
    -2
100
AcDbLine
 10
-1.0
 20
0.1666666666666666
 30
0.0
 11
0.0
 21
0.0
 31
0.0
  0
LINE
  5
BD
330
BB
100
AcDbEntity
  8
0
  6
ByBlock
 62
     0
370
    -2
100
AcDbLine
 10
0.0
 20
0.0
 30
0.0
 11
-1.0
 21
-0.1666666666666666
 31
0.0
  0
LINE
  5
BE
330
BB
100
AcDbEntity
  8
0
  6
ByBlock
 62
     0
370
    -2
100
AcDbLine
 10
-1.0
 20
0.1666666666666666
 30
0.0
 11
-1.0
 21
-0.1666666666666666
 31
0.0
  0
LINE
  5
BF
330
BB
100
AcDbEntity
  8
0
  6
ByBlock
 62
     0
370
    -2
100
AcDbLine
 10
0.0
 20
0.0
 30
0.0
 11
-1.0
 21
0.0
 31
0.0
  0
ENDBLK
  5
C1
330
BB
100
AcDbEntity
  8
0
100
AcDbBlockEnd
  0
BLOCK
  5
C3
330
C2
100
AcDbEntity
  8
0
100
AcDbBlockBegin
  2
DatumFilled45
 70
     0
 10
0.0
 20
0.0
 30
0.0
  3
DatumFilled45
  1

  0
POLYLINE
  5
C5
330
C2
100
AcDbEntity
  8
0
 62
     0
100
AcDb2dPolyline
 66
     1
 10
0.0
 20
0.0
 30
0.0
 70
   128
  0
VERTEX
  5
C6
330
C5
100
AcDbEntity
  8
0
 62
     0
100
AcDbVertex
100
AcDb2dVertex
 10
0.0
 20
0.9999999999999998
 30
0.0
  0
VERTEX
  5
C7
330
C5
100
AcDbEntity
  8
0
 62
     0
100
AcDbVertex
100
AcDb2dVertex
 10
0.0
 20
-0.9999999999999998
 30
0.0
  0
VERTEX
  5
C9
330
C5
100
AcDbEntity
  8
0
 62
     0
100
AcDbVertex
100
AcDb2dVertex
 10
-0.9999999999999998
 20
0.0
 30
0.0
  0
VERTEX
  5
CA
330
C5
100
AcDbEntity
  8
0
 62
     0
100
AcDbVertex
100
AcDb2dVertex
 10
0.0
 20
0.9999999999999998
 30
0.0
  0
SEQEND
  5
C8
330
C5
100
AcDbEntity
  8
0
 62
     0
  0
SOLID
  5
CB
330
C2
100
AcDbEntity
  8
0
 62
     0
100
AcDbTrace
 10
0.0
 20
0.9999999999999998
 30
0.0
 11
0.0
 21
-0.9999999999999998
 31
0.0
 12
-0.9999999999999998
 22
0.0
 32
0.0
 13
0.0
 23
0.9999999999999998
 33
0.0
  0
ENDBLK
  5
C4
330
C2
100
AcDbEntity
  8
0
100
AcDbBlockEnd
  0
BLOCK
  5
CE
330
CD
100
AcDbEntity
  8
0
100
AcDbBlockBegin
  2
Borders Default Border
 70
     0
 10
0.0
 20
0.0
 30
0.0
  3
Borders Default Border
  1

  0
POLYLINE
  5
D0
330
CD
100
AcDbEntity
  8
Border (ANSI)
100
AcDb2dPolyline
 66
     1
 10
0.0
 20
0.0
 30
0.0
 70
   128
  0
VERTEX
  5
D1
330
D0
100
AcDbEntity
  8
Border (ANSI)
100
AcDbVertex
100
AcDb2dVertex
 10
0.380000002740875
 20
0.380000002740875
 30
0.0
  0
VERTEX
  5
D2
330
D0
100
AcDbEntity
  8
Border (ANSI)
100
AcDbVertex
100
AcDb2dVertex
 10
0.380000002740875
 20
8.119999893068328
 30
0.0
  0
VERTEX
  5
D4
330
D0
100
AcDbEntity
  8
Border (ANSI)
100
AcDbVertex
100
AcDb2dVertex
 10
10.62000004325326
 20
8.119999893068328
 30
0.0
  0
VERTEX
  5
D5
330
D0
100
AcDbEntity
  8
Border (ANSI)
100
AcDbVertex
100
AcDb2dVertex
 10
10.62000004325326
 20
0.380000002740875
 30
0.0
  0
VERTEX
  5
D6
330
D0
100
AcDbEntity
  8
Border (ANSI)
100
AcDbVertex
100
AcDb2dVertex
 10
0.380000002740875
 20
0.380000002740875
 30
0.0
  0
SEQEND
  5
D3
330
D0
100
AcDbEntity
  8
Border (ANSI)
  0
POLYLINE
  5
D7
330
CD
100
AcDbEntity
  8
Border (ANSI)
100
AcDb2dPolyline
 66
     1
 10
0.0
 20
0.0
 30
0.0
 70
   128
  0
VERTEX
  5
D8
330
D7
100
AcDbEntity
  8
Border (ANSI)
100
AcDbVertex
100
AcDb2dVertex
 10
5.500000105129451
 20
0.1299999947623005
 30
0.0
  0
VERTEX
  5
D9
330
D7
100
AcDbEntity
  8
Border (ANSI)
100
AcDbVertex
100
AcDb2dVertex
 10
5.500000105129451
 20
0.380000002740875
 30
0.0
  0
VERTEX
  5
DB
330
D7
100
AcDbEntity
  8
Border (ANSI)
100
AcDbVertex
100
AcDb2dVertex
 10
5.413397466103861
 20
0.2300000096869281
 30
0.0
  0
VERTEX
  5
DC
330
D7
100
AcDbEntity
  8
Border (ANSI)
100
AcDbVertex
100
AcDb2dVertex
 10
5.586602368692712
 20
0.2300000096869281
 30
0.0
  0
VERTEX
  5
DD
330
D7
100
AcDbEntity
  8
Border (ANSI)
100
AcDbVertex
100
AcDb2dVertex
 10
5.500000105129451
 20
0.380000002740875
 30
0.0
  0
SEQEND
  5
DA
330
D7
100
AcDbEntity
  8
Border (ANSI)
  0
POLYLINE
  5
DE
330
CD
100
AcDbEntity
  8
Border (ANSI)
100
AcDb2dPolyline
 66
     1
 10
0.0
 20
0.0
 30
0.0
 70
   128
  0
VERTEX
  5
DF
330
DE
100
AcDbEntity
  8
Border (ANSI)
100
AcDbVertex
100
AcDb2dVertex
 10
5.500000105129451
 20
8.369999983179287
 30
0.0
  0
VERTEX
  5
E0
330
DE
100
AcDbEntity
  8
Border (ANSI)
100
AcDbVertex
100
AcDb2dVertex
 10
5.500000105129451
 20
8.119999893068328
 30
0.0
  0
VERTEX
  5
E2
330
DE
100
AcDbEntity
  8
Border (ANSI)
100
AcDbVertex
100
AcDb2dVertex
 10
5.413397466103861
 20
8.270000097319835
 30
0.0
  0
VERTEX
  5
E3
330
DE
100
AcDbEntity
  8
Border (ANSI)
100
AcDbVertex
100
AcDb2dVertex
 10
5.586602368692712
 20
8.270000097319835
 30
0.0
  0
VERTEX
  5
E4
330
DE
100
AcDbEntity
  8
Border (ANSI)
100
AcDbVertex
100
AcDb2dVertex
 10
5.500000105129451
 20
8.119999893068328
 30
0.0
  0
SEQEND
  5
E1
330
DE
100
AcDbEntity
  8
Border (ANSI)
  0
POLYLINE
  5
E5
330
CD
100
AcDbEntity
  8
Border (ANSI)
100
AcDb2dPolyline
 66
     1
 10
0.0
 20
0.0
 30
0.0
 70
   128
  0
VERTEX
  5
E6
330
E5
100
AcDbEntity
  8
Border (ANSI)
100
AcDbVertex
100
AcDb2dVertex
 10
0.1299999947623005
 20
4.250000030036986
 30
0.0
  0
VERTEX
  5
E7
330
E5
100
AcDbEntity
  8
Border (ANSI)
100
AcDbVertex
100
AcDb2dVertex
 10
0.380000002740875
 20
4.250000030036986
 30
0.0
  0
VERTEX
  5
E9
330
E5
100
AcDbEntity
  8
Border (ANSI)
100
AcDbVertex
100
AcDb2dVertex
 10
0.2300000096869281
 20
4.336602669062576
 30
0.0
  0
VERTEX
  5
EA
330
E5
100
AcDbEntity
  8
Border (ANSI)
100
AcDbVertex
100
AcDb2dVertex
 10
0.2300000096869281
 20
4.163397391011395
 30
0.0
  0
VERTEX
  5
EB
330
E5
100
AcDbEntity
  8
Border (ANSI)
100
AcDbVertex
100
AcDb2dVertex
 10
0.380000002740875
 20
4.250000030036986
 30
0.0
  0
SEQEND
  5
E8
330
E5
100
AcDbEntity
  8
Border (ANSI)
  0
POLYLINE
  5
EC
330
CD
100
AcDbEntity
  8
Border (ANSI)
100
AcDb2dPolyline
 66
     1
 10
0.0
 20
0.0
 30
0.0
 70
   128
  0
VERTEX
  5
ED
330
EC
100
AcDbEntity
  8
Border (ANSI)
100
AcDbVertex
100
AcDb2dVertex
 10
10.87000013336422
 20
4.250000030036986
 30
0.0
  0
VERTEX
  5
EE
330
EC
100
AcDbEntity
  8
Border (ANSI)
100
AcDbVertex
100
AcDb2dVertex
 10
10.62000004325326
 20
4.250000030036986
 30
0.0
  0
VERTEX
  5
F0
330
EC
100
AcDbEntity
  8
Border (ANSI)
100
AcDbVertex
100
AcDb2dVertex
 10
10.77000024750476
 20
4.336602669062576
 30
0.0
  0
VERTEX
  5
F1
330
EC
100
AcDbEntity
  8
Border (ANSI)
100
AcDbVertex
100
AcDb2dVertex
 10
10.77000024750476
 20
4.163397391011395
 30
0.0
  0
VERTEX
  5
F2
330
EC
100
AcDbEntity
  8
Border (ANSI)
100
AcDbVertex
100
AcDb2dVertex
 10
10.62000004325326
 20
4.250000030036986
 30
0.0
  0
SEQEND
  5
EF
330
EC
100
AcDbEntity
  8
Border (ANSI)
  0
MTEXT
  5
F4
330
CD
100
AcDbEntity
  8
Border (ANSI)
100
AcDbMText
 10
8.24092395498058
 20
8.16
 30
0.0
 40
0.1200000014830762
 41
0.0
 71
     7
 72
     1
  1
1
  7
Text Style29
 73
     1
 44
2.927434206008911
1001
ACAD
1000
MTEXTBEGIN
1070
    73
1070
     1
1070
    44
1040
2.927434206008911
1070
    74
1070
     0
1000
MTEXTEND
  0
MTEXT
  5
F7
330
CD
100
AcDbEntity
  8
Border (ANSI)
100
AcDbMText
 10
8.24092395498058
 20
0.2199999985169238
 30
0.0
 40
0.1200000014830762
 41
0.0
 71
     7
 72
     1
  1
1
  7
Text Style29
 73
     1
 44
1.0
1001
ACAD
1000
MTEXTBEGIN
1070
    73
1070
     1
1070
    44
1040
1.0
1070
    74
1070
     0
1000
MTEXTEND
  0
MTEXT
  5
F8
330
CD
100
AcDbEntity
  8
Border (ANSI)
100
AcDbMText
 10
2.722276993858532
 20
8.16
 30
0.0
 40
0.1200000014830762
 41
0.0
 71
     7
 72
     1
  1
2
  7
Text Style29
 73
     1
 44
1.0
1001
ACAD
1000
MTEXTBEGIN
1070
    73
1070
     1
1070
    44
1040
1.0
1070
    74
1070
     0
1000
MTEXTEND
  0
MTEXT
  5
F9
330
CD
100
AcDbEntity
  8
Border (ANSI)
100
AcDbMText
 10
2.722276993858532
 20
0.2199999985169238
 30
0.0
 40
0.1200000014830762
 41
0.0
 71
     7
 72
     1
  1
2
  7
Text Style29
 73
     1
 44
2.439876317977905
1001
ACAD
1000
MTEXTBEGIN
1070
    73
1070
     1
1070
    44
1040
2.439876317977905
1070
    74
1070
     0
1000
MTEXTEND
  0
MTEXT
  5
FA
330
CD
100
AcDbEntity
  8
Border (ANSI)
100
AcDbMText
 10
0.2281865791448458
 20
2.064999999258461
 30
0.0
 40
0.1200000014830762
 41
0.0
 71
     7
 72
     1
  1
A
  7
Text Style29
 73
     1
 44
1.0
1001
ACAD
1000
MTEXTBEGIN
1070
    73
1070
     1
1070
    44
1040
1.0
1070
    74
1070
     0
1000
MTEXTEND
  0
MTEXT
  5
FB
330
CD
100
AcDbEntity
  8
Border (ANSI)
100
AcDbMText
 10
10.66818658062792
 20
2.064999999258461
 30
0.0
 40
0.1200000014830762
 41
0.0
 71
     7
 72
     1
  1
A
  7
Text Style29
 73
     1
 44
1.0
1001
ACAD
1000
MTEXTBEGIN
1070
    73
1070
     1
1070
    44
1040
1.0
1070
    74
1070
     0
1000
MTEXTEND
  0
MTEXT
  5
FC
330
CD
100
AcDbEntity
  8
Border (ANSI)
100
AcDbMText
 10
0.2554072225563169
 20
6.314999999258461
 30
0.0
 40
0.1200000014830762
 41
0.0
 71
     7
 72
     1
  1
B
  7
Text Style29
 73
     1
 44
1.0
1001
ACAD
1000
MTEXTBEGIN
1070
    73
1070
     1
1070
    44
1040
1.0
1070
    74
1070
     0
1000
MTEXTEND
  0
MTEXT
  5
FD
330
CD
100
AcDbEntity
  8
Border (ANSI)
100
AcDbMText
 10
10.69540722403939
 20
6.314999999258461
 30
0.0
 40
0.1200000014830762
 41
0.0
 71
     7
 72
     1
  1
B
  7
Text Style29
 73
     1
 44
1.0
1001
ACAD
1000
MTEXTBEGIN
1070
    73
1070
     1
1070
    44
1040
1.0
1070
    74
1070
     0
1000
MTEXTEND
  0
ENDBLK
  5
CF
330
CD
100
AcDbEntity
  8
0
100
AcDbBlockEnd
  0
BLOCK
  5
160
330
155
100
AcDbEntity
  8
0
100
AcDbBlockBegin
  2
*D5
 70
     1
 10
0.0
 20
0.0
 30
0.0
  3
*D5
  1

  0
LINE
  5
22A
330
155
100
AcDbEntity
  8
Dimension (ANSI)
100
AcDbLine
 10
0.7620883268929118
 20
0.4278718878206013
 30
0.0
 11
0.7620883268929118
 21
0.1332885430595275
 31
0.0
  0
LINE
  5
22B
330
155
100
AcDbEntity
  8
Dimension (ANSI)
100
AcDbLine
 10
1.130164116892911
 20
0.3725549018460896
 30
0.0
 11
1.130164116892911
 21
0.1332885430595275
 31
0.0
  0
LINE
  5
22C
330
155
100
AcDbEntity
  8
Dimension (ANSI)
100
AcDbLine
 10
0.781773365817129
 20
0.1582885430595275
 30
0.0
 11
0.8938096751257026
 21
0.1582885430595275
 31
0.0
  0
LINE
  5
22D
330
155
100
AcDbEntity
  8
Dimension (ANSI)
100
AcDbLine
 10
1.110479077968694
 20
0.1582885430595275
 30
0.0
 11
1.039367138513862
 21
0.1582885430595275
 31
0.0
  0
SOLID
  5
22E
330
155
100
AcDbEntity
  8
Dimension (ANSI)
100
AcDbTrace
 10
0.781773365817129
 20
0.1615693828802304
 30
0.0
 11
0.781773365817129
 21
0.1550077032388246
 31
0.0
 12
0.7620883268929118
 22
0.1582885430595275
 32
0.0
 13
0.7620883268929118
 23
0.1582885430595275
 33
0.0
  0
SOLID
  5
22F
330
155
100
AcDbEntity
  8
Dimension (ANSI)
100
AcDbTrace
 10
1.110479077968694
 20
0.1615693828802304
 30
0.0
 11
1.110479077968694
 21
0.1550077032388246
 31
0.0
 12
1.130164116892911
 22
0.1582885430595275
 32
0.0
 13
1.130164116892911
 23
0.1582885430595275
 33
0.0
  0
MTEXT
  5
230
330
155
100
AcDbEntity
  8
Dimension (ANSI)
100
AcDbMText
 10
0.9001088877241278
 20
0.1708365623627078
 30
0.0
 40
0.0240000009536743
 41
0.0
 71
     1
 72
     1
  1
\A1;0.3681 in
  7
Note Text (ANSI)
 73
     1
 44
1.0
1001
ACAD
1000
MTEXTBEGIN
1070
    73
1070
     1
1070
    44
1040
1.0
1070
    74
1070
     0
1000
MTEXTEND
  0
POINT
  5
231
330
155
100
AcDbEntity
  8
Defpoints
 62
     0
100
AcDbPoint
 10
0.7620883268929118
 20
0.4403718878206013
 30
0.0
  0
POINT
  5
232
330
155
100
AcDbEntity
  8
Defpoints
 62
     0
100
AcDbPoint
 10
1.130164116892911
 20
0.3850549018460896
 30
0.0
  0
POINT
  5
233
330
155
100
AcDbEntity
  8
Defpoints
 62
     0
100
AcDbPoint
 10
1.130164116892911
 20
0.1582885430595275
 30
0.0
  0
ENDBLK
  5
161
330
155
100
AcDbEntity
  8
0
100
AcDbBlockEnd
  0
BLOCK
  5
240
330
235
100
AcDbEntity
  8
0
100
AcDbBlockBegin
  2
*D6
 70
     1
 10
0.0
 20
0.0
 30
0.0
  3
*D6
  1

  0
LINE
  5
2F6
330
235
100
AcDbEntity
  8
Dimension (ANSI)
100
AcDbLine
 10
1.142664116892911
 20
0.3850549018460896
 30
0.0
 11
1.569523640952494
 21
0.3850549018460895
 31
0.0
  0
LINE
  5
2F7
330
235
100
AcDbEntity
  8
Dimension (ANSI)
100
AcDbLine
 10
1.103714116892911
 20
0.6800549018460896
 30
0.0
 11
1.569523640952494
 21
0.6800549018460895
 31
0.0
  0
LINE
  5
2F8
330
235
100
AcDbEntity
  8
Dimension (ANSI)
100
AcDbLine
 10
1.544523640952494
 20
0.4047399407703069
 30
0.0
 11
1.544523640952494
 21
0.5137560245468082
 31
0.0
  0
LINE
  5
2F9
330
235
100
AcDbEntity
  8
Dimension (ANSI)
100
AcDbLine
 10
1.544523640952494
 20
0.6603698629218722
 30
0.0
 11
1.544523640952494
 21
0.5513537791453704
 31
0.0
  0
SOLID
  5
2FA
330
235
100
AcDbEntity
  8
Dimension (ANSI)
100
AcDbTrace
 10
1.541242801131791
 20
0.4047399407703069
 30
0.0
 11
1.547804480773197
 21
0.4047399407703069
 31
0.0
 12
1.544523640952494
 22
0.3850549018460895
 32
0.0
 13
1.544523640952494
 23
0.3850549018460895
 33
0.0
  0
SOLID
  5
2FB
330
235
100
AcDbEntity
  8
Dimension (ANSI)
100
AcDbTrace
 10
1.541242801131791
 20
0.6603698629218722
 30
0.0
 11
1.547804480773197
 21
0.6603698629218722
 31
0.0
 12
1.544523640952494
 22
0.6800549018460895
 32
0.0
 13
1.544523640952494
 23
0.6800549018460895
 33
0.0
  0
MTEXT
  5
2FC
330
235
100
AcDbEntity
  8
Dimension (ANSI)
100
AcDbMText
 10
1.487054196089951
 20
0.5450545665469456
 30
0.0
 40
0.0240000009536743
 41
0.0
 71
     1
 72
     1
  1
\A1;0.295 in
  7
Note Text (ANSI)
 73
     1
 44
1.0
1001
ACAD
1000
MTEXTBEGIN
1070
    73
1070
     1
1070
    44
1040
1.0
1070
    74
1070
     0
1000
MTEXTEND
  0
POINT
  5
2FD
330
235
100
AcDbEntity
  8
Defpoints
 62
     0
100
AcDbPoint
 10
1.130164116892911
 20
0.3850549018460896
 30
0.0
  0
POINT
  5
2FE
330
235
100
AcDbEntity
  8
Defpoints
 62
     0
100
AcDbPoint
 10
1.091214116892911
 20
0.6800549018460896
 30
0.0
  0
POINT
  5
2FF
330
235
100
AcDbEntity
  8
Defpoints
 62
     0
100
AcDbPoint
 10
1.544523640952494
 20
0.6800549018460895
 30
0.0
  0
ENDBLK
  5
241
330
235
100
AcDbEntity
  8
0
100
AcDbBlockEnd
  0
BLOCK
  5
30D
330
302
100
AcDbEntity
  8
0
100
AcDbBlockBegin
  2
*D7
 70
     1
 10
0.0
 20
0.0
 30
0.0
  3
*D7
  1

  0
LINE
  5
3CE
330
302
100
AcDbEntity
  8
Dimension (ANSI)
100
AcDbLine
 10
1.070899155817128
 20
0.4416826674085609
 30
0.0
 11
1.111529077968694
 21
0.4416826674085609
 31
0.0
  0
LINE
  5
3CF
330
302
100
AcDbEntity
  8
Dimension (ANSI)
100
AcDbLine
 10
1.131214116892911
 20
0.4416826674085609
 30
0.0
 11
1.230225462036632
 21
0.4416826674085609
 31
0.0
  0
SOLID
  5
3D0
330
302
100
AcDbEntity
  8
Dimension (ANSI)
100
AcDbTrace
 10
1.070899155817128
 20
0.4449635072292638
 30
0.0
 11
1.070899155817128
 21
0.438401827587858
 31
0.0
 12
1.051214116892911
 22
0.4416826674085609
 32
0.0
 13
1.051214116892911
 23
0.4416826674085609
 33
0.0
  0
SOLID
  5
3D1
330
302
100
AcDbEntity
  8
Dimension (ANSI)
100
AcDbTrace
 10
1.111529077968694
 20
0.4449635072292638
 30
0.0
 11
1.111529077968694
 21
0.438401827587858
 31
0.0
 12
1.131214116892911
 22
0.4416826674085609
 32
0.0
 13
1.131214116892911
 23
0.4416826674085609
 33
0.0
  0
MTEXT
  5
3D2
330
302
100
AcDbEntity
  8
Dimension (ANSI)
100
AcDbMText
 10
1.236524674635057
 20
0.4542306867117412
 30
0.0
 40
0.0240000009536743
 41
0.0
 71
     1
 72
     1
  1
\A1;0.080 in
  7
Note Text (ANSI)
 73
     1
 44
1.0
1001
ACAD
1000
MTEXTBEGIN
1070
    73
1070
     1
1070
    44
1040
1.0
1070
    74
1070
     0
1000
MTEXTEND
  0
POINT
  5
3D3
330
302
100
AcDbEntity
  8
Defpoints
 62
     0
100
AcDbPoint
 10
1.051214116892911
 20
0.3629425099282459
 30
0.0
  0
POINT
  5
3D4
330
302
100
AcDbEntity
  8
Defpoints
 62
     0
100
AcDbPoint
 10
1.131214116892911
 20
0.3434621652298098
 30
0.0
  0
POINT
  5
3D5
330
302
100
AcDbEntity
  8
Defpoints
 62
     0
100
AcDbPoint
 10
1.131214116892911
 20
0.4416826674085609
 30
0.0
  0
ENDBLK
  5
30E
330
302
100
AcDbEntity
  8
0
100
AcDbBlockEnd
  0
BLOCK
  5
3E2
330
3D7
100
AcDbEntity
  8
0
100
AcDbBlockBegin
  2
*D8
 70
     1
 10
0.0
 20
0.0
 30
0.0
  3
*D8
  1

  0
LINE
  5
498
330
3D7
100
AcDbEntity
  8
Dimension (ANSI)
100
AcDbLine
 10
1.174281995113837
 20
0.5800549018460896
 30
0.0
 11
1.454498530546907
 21
0.5800549018460895
 31
0.0
  0
LINE
  5
499
330
3D7
100
AcDbEntity
  8
Dimension (ANSI)
100
AcDbLine
 10
1.142664116892911
 20
0.3850549018460896
 30
0.0
 11
1.454498530546907
 21
0.3850549018460895
 31
0.0
  0
LINE
  5
49A
330
3D7
100
AcDbEntity
  8
Dimension (ANSI)
100
AcDbLine
 10
1.429498530546908
 20
0.5603698629218722
 30
0.0
 11
1.429498530546908
 21
0.5013457200449832
 31
0.0
  0
LINE
  5
49B
330
3D7
100
AcDbEntity
  8
Dimension (ANSI)
100
AcDbLine
 10
1.429498530546907
 20
0.4047399407703069
 30
0.0
 11
1.429498530546907
 21
0.4637640836471957
 31
0.0
  0
SOLID
  5
49C
330
3D7
100
AcDbEntity
  8
Dimension (ANSI)
100
AcDbTrace
 10
1.426217690726205
 20
0.5603698629218722
 30
0.0
 11
1.432779370367611
 21
0.5603698629218722
 31
0.0
 12
1.429498530546908
 22
0.5800549018460895
 32
0.0
 13
1.429498530546908
 23
0.5800549018460895
 33
0.0
  0
SOLID
  5
49D
330
3D7
100
AcDbEntity
  8
Dimension (ANSI)
100
AcDbTrace
 10
1.426217690726204
 20
0.4047399407703069
 30
0.0
 11
1.43277937036761
 21
0.4047399407703069
 31
0.0
 12
1.429498530546907
 22
0.3850549018460895
 32
0.0
 13
1.429498530546907
 23
0.3850549018460895
 33
0.0
  0
MTEXT
  5
49E
330
3D7
100
AcDbEntity
  8
Dimension (ANSI)
100
AcDbMText
 10
1.352630831051895
 20
0.4950465074465582
 30
0.0
 40
0.0240000009536743
 41
0.0
 71
     1
 72
     1
  1
\A1;0.195 in*B
  7
Note Text (ANSI)
 73
     1
 44
1.0
1001
ACAD
1000
MTEXTBEGIN
1070
    73
1070
     1
1070
    44
1040
1.0
1070
    74
1070
     0
1000
MTEXTEND
  0
POINT
  5
49F
330
3D7
100
AcDbEntity
  8
Defpoints
 62
     0
100
AcDbPoint
 10
1.161781995113837
 20
0.5800549018460896
 30
0.0
  0
POINT
  5
4A0
330
3D7
100
AcDbEntity
  8
Defpoints
 62
     0
100
AcDbPoint
 10
1.130164116892911
 20
0.3850549018460896
 30
0.0
  0
POINT
  5
4A1
330
3D7
100
AcDbEntity
  8
Defpoints
 62
     0
100
AcDbPoint
 10
1.429498530546907
 20
0.3850549018460895
 30
0.0
  0
ENDBLK
  5
3E3
330
3D7
100
AcDbEntity
  8
0
100
AcDbBlockEnd
  0
BLOCK
  5
4A9
330
4A3
100
AcDbEntity
  8
0
100
AcDbBlockBegin
  2
*D9
 70
     1
 10
0.0
 20
0.0
 30
0.0
  3
*D9
  1

  0
LINE
  5
533
330
4A3
100
AcDbEntity
  8
Dimension (ANSI)
100
AcDbLine
 10
1.242650238148227
 20
0.7525699304585195
 30
0.0
 11
1.216813830761984
 21
0.7525699304585195
 31
0.0
  0
LINE
  5
534
330
4A3
100
AcDbEntity
  8
Dimension (ANSI)
100
AcDbLine
 10
1.216813830761984
 20
0.7525699304585195
 30
0.0
 11
1.134892141842143
 21
0.7052724213081935
 31
0.0
  0
MTEXT
  5
535
330
4A3
100
AcDbEntity
  8
Dimension (ANSI)
100
AcDbMText
 10
1.248949450746652
 20
0.7651179497616996
 30
0.0
 40
0.0240000009536743
 41
0.0
 71
     1
 72
     1
  1
\A1;R0.0308 in
  7
Note Text (ANSI)
 73
     1
 44
1.0
1001
ACAD
1000
MTEXTBEGIN
1070
    73
1070
     1
1070
    44
1040
1.0
1070
    74
1070
     0
1000
MTEXTEND
  0
SOLID
  5
536
330
4A3
100
AcDbEntity
  8
Dimension (ANSI)
100
AcDbTrace
 10
1.133251721931792
 20
0.7081137119386699
 30
0.0
 11
1.136532561752494
 21
0.702431130677717
 31
0.0
 12
1.117844398059284
 22
0.6954299018460869
 32
0.0
 13
1.117844398059284
 23
0.6954299018460869
 33
0.0
  0
POINT
  5
537
330
4A3
100
AcDbEntity
  8
Defpoints
 62
     0
100
AcDbPoint
 10
1.117844398059284
 20
0.6954299018460869
 30
0.0
  0
POINT
  5
538
330
4A3
100
AcDbEntity
  8
Defpoints
 62
     0
100
AcDbPoint
 10
1.091214116892911
 20
0.6800549018460899
 30
0.0
  0
ENDBLK
  5
4AA
330
4A3
100
AcDbEntity
  8
0
100
AcDbBlockEnd
  0
BLOCK
  5
545
330
53A
100
AcDbEntity
  8
0
100
AcDbBlockBegin
  2
*D10
 70
     1
 10
0.0
 20
0.0
 30
0.0
  3
*D10
  1

  0
LINE
  5
60F
330
53A
100
AcDbEntity
  8
Dimension (ANSI)
100
AcDbLine
 10
0.7713383268929118
 20
0.6807531298004179
 30
0.0
 11
0.7713383268929118
 21
0.8026075369884903
 31
0.0
  0
LINE
  5
610
330
53A
100
AcDbEntity
  8
Dimension (ANSI)
100
AcDbLine
 10
0.7528383268929117
 20
0.6807531298004179
 30
0.0
 11
0.7528383268929117
 21
0.8026075369884903
 31
0.0
  0
LINE
  5
611
330
53A
100
AcDbEntity
  8
Dimension (ANSI)
100
AcDbLine
 10
0.791023365817129
 20
0.7776075369884903
 30
0.0
 11
0.8107084047413462
 21
0.7776075369884903
 31
0.0
  0
LINE
  5
612
330
53A
100
AcDbEntity
  8
Dimension (ANSI)
100
AcDbLine
 10
0.7331532879686945
 20
0.7776075369884903
 30
0.0
 11
0.6916248041082981
 21
0.7776075369884903
 31
0.0
  0
SOLID
  5
613
330
53A
100
AcDbEntity
  8
Dimension (ANSI)
100
AcDbTrace
 10
0.791023365817129
 20
0.7808883768091932
 30
0.0
 11
0.791023365817129
 21
0.7743266971677875
 31
0.0
 12
0.7713383268929118
 22
0.7776075369884903
 32
0.0
 13
0.7713383268929118
 23
0.7776075369884903
 33
0.0
  0
SOLID
  5
614
330
53A
100
AcDbEntity
  8
Dimension (ANSI)
100
AcDbTrace
 10
0.7331532879686945
 20
0.7808883768091932
 30
0.0
 11
0.7331532879686945
 21
0.7743266971677875
 31
0.0
 12
0.7528383268929117
 22
0.7776075369884903
 32
0.0
 13
0.7528383268929117
 23
0.7776075369884903
 33
0.0
  0
MTEXT
  5
615
330
53A
100
AcDbEntity
  8
Dimension (ANSI)
100
AcDbMText
 10
0.5523665533185637
 20
0.7901555562916706
 30
0.0
 40
0.0240000009536743
 41
0.0
 71
     1
 72
     1
  1
\A1;0.0185 in
  7
Note Text (ANSI)
 73
     1
 44
1.0
1001
ACAD
1000
MTEXTBEGIN
1070
    73
1070
     1
1070
    44
1040
1.0
1070
    74
1070
     0
1000
MTEXTEND
  0
POINT
  5
616
330
53A
100
AcDbEntity
  8
Defpoints
 62
     0
100
AcDbPoint
 10
0.7713383268929118
 20
0.668253129800418
 30
0.0
  0
POINT
  5
617
330
53A
100
AcDbEntity
  8
Defpoints
 62
     0
100
AcDbPoint
 10
0.7528383268929117
 20
0.668253129800418
 30
0.0
  0
POINT
  5
618
330
53A
100
AcDbEntity
  8
Defpoints
 62
     0
100
AcDbPoint
 10
0.7528383268929117
 20
0.7776075369884903
 30
0.0
  0
ENDBLK
  5
546
330
53A
100
AcDbEntity
  8
0
100
AcDbBlockEnd
  0
BLOCK
  5
625
330
61A
100
AcDbEntity
  8
0
100
AcDbBlockBegin
  2
*D11
 70
     1
 10
0.0
 20
0.0
 30
0.0
  3
*D11
  1

  0
LINE
  5
6EF
330
61A
100
AcDbEntity
  8
Dimension (ANSI)
100
AcDbLine
 10
1.130164116892911
 20
0.3725549018460896
 30
0.0
 11
1.130164116892911
 21
0.1939206091322093
 31
0.0
  0
LINE
  5
6F0
330
61A
100
AcDbEntity
  8
Dimension (ANSI)
100
AcDbLine
 10
1.131214116892911
 20
0.3324048611007132
 30
0.0
 11
1.131214116892911
 21
0.1939206091322093
 31
0.0
  0
LINE
  5
6F1
330
61A
100
AcDbEntity
  8
Dimension (ANSI)
100
AcDbLine
 10
1.110479077968694
 20
0.2189206091322092
 30
0.0
 11
1.090794039044477
 21
0.2189206091322092
 31
0.0
  0
LINE
  5
6F2
330
61A
100
AcDbEntity
  8
Dimension (ANSI)
100
AcDbLine
 10
1.150899155817128
 20
0.2189206091322092
 30
0.0
 11
1.237463574585046
 21
0.2189206091322092
 31
0.0
  0
SOLID
  5
6F3
330
61A
100
AcDbEntity
  8
Dimension (ANSI)
100
AcDbTrace
 10
1.110479077968694
 20
0.2222014489529121
 30
0.0
 11
1.110479077968694
 21
0.2156397693115064
 31
0.0
 12
1.130164116892911
 22
0.2189206091322092
 32
0.0
 13
1.130164116892911
 23
0.2189206091322092
 33
0.0
  0
SOLID
  5
6F4
330
61A
100
AcDbEntity
  8
Dimension (ANSI)
100
AcDbTrace
 10
1.150899155817128
 20
0.2222014489529121
 30
0.0
 11
1.150899155817128
 21
0.2156397693115064
 31
0.0
 12
1.131214116892911
 22
0.2189206091322092
 32
0.0
 13
1.131214116892911
 23
0.2189206091322092
 33
0.0
  0
MTEXT
  5
6F5
330
61A
100
AcDbEntity
  8
Dimension (ANSI)
100
AcDbMText
 10
1.243762787183471
 20
0.2314122147326778
 30
0.0
 40
0.0240000009536743
 41
0.0
 71
     1
 72
     1
  1
\A1;0.001 in
  7
Note Text (ANSI)
 73
     1
 44
1.0
1001
ACAD
1000
MTEXTBEGIN
1070
    73
1070
     1
1070
    44
1040
1.0
1070
    74
1070
     0
1000
MTEXTEND
  0
POINT
  5
6F6
330
61A
100
AcDbEntity
  8
Defpoints
 62
     0
100
AcDbPoint
 10
1.130164116892911
 20
0.3850549018460896
 30
0.0
  0
POINT
  5
6F7
330
61A
100
AcDbEntity
  8
Defpoints
 62
     0
100
AcDbPoint
 10
1.131214116892911
 20
0.3449048611007132
 30
0.0
  0
POINT
  5
6F8
330
61A
100
AcDbEntity
  8
Defpoints
 62
     0
100
AcDbPoint
 10
1.131214116892911
 20
0.2189206091322092
 30
0.0
  0
ENDBLK
  5
626
330
61A
100
AcDbEntity
  8
0
100
AcDbBlockEnd
  0
BLOCK
  5
705
330
6FA
100
AcDbEntity
  8
0
100
AcDbBlockBegin
  2
*D12
 70
     1
 10
0.0
 20
0.0
 30
0.0
  3
*D12
  1

  0
LINE
  5
7CF
330
6FA
100
AcDbEntity
  8
Dimension (ANSI)
100
AcDbLine
 10
1.130164116892911
 20
0.3810549018460896
 30
0.0
 11
1.130164116892911
 21
0.3224407558356945
 31
0.0
  0
LINE
  5
7D0
330
6FA
100
AcDbEntity
  8
Dimension (ANSI)
100
AcDbLine
 10
1.011214116892911
 20
0.5183049018460898
 30
0.0
 11
1.011214116892911
 21
0.3224407558356945
 31
0.0
  0
LINE
  5
7D1
330
6FA
100
AcDbEntity
  8
Dimension (ANSI)
100
AcDbLine
 10
1.110479077968694
 20
0.3474407558356945
 30
0.0
 11
1.030899155817128
 21
0.3474407558356945
 31
0.0
  0
LINE
  5
7D2
330
6FA
100
AcDbEntity
  8
Dimension (ANSI)
100
AcDbLine
 10
1.011214116892911
 20
0.3474407558356945
 30
0.0
 11
0.9887305640856897
 21
0.3474407558356945
 31
0.0
  0
SOLID
  5
7D3
330
6FA
100
AcDbEntity
  8
Dimension (ANSI)
100
AcDbTrace
 10
1.110479077968694
 20
0.3507215956563974
 30
0.0
 11
1.110479077968694
 21
0.3441599160149916
 31
0.0
 12
1.130164116892911
 22
0.3474407558356945
 32
0.0
 13
1.130164116892911
 23
0.3474407558356945
 33
0.0
  0
SOLID
  5
7D4
330
6FA
100
AcDbEntity
  8
Dimension (ANSI)
100
AcDbTrace
 10
1.030899155817128
 20
0.3507215956563974
 30
0.0
 11
1.030899155817128
 21
0.3441599160149916
 31
0.0
 12
1.011214116892911
 22
0.3474407558356945
 32
0.0
 13
1.011214116892911
 23
0.3474407558356945
 33
0.0
  0
MTEXT
  5
7D5
330
6FA
100
AcDbEntity
  8
Dimension (ANSI)
100
AcDbMText
 10
0.8276160330453292
 20
0.359932361436163
 30
0.0
 40
0.0240000009536743
 41
0.0
 71
     1
 72
     1
  1
\A1;0.119 in*A
  7
Note Text (ANSI)
 73
     1
 44
1.0
1001
ACAD
1000
MTEXTBEGIN
1070
    73
1070
     1
1070
    44
1040
1.0
1070
    74
1070
     0
1000
MTEXTEND
  0
POINT
  5
7D6
330
6FA
100
AcDbEntity
  8
Defpoints
 62
     0
100
AcDbPoint
 10
1.130164116892911
 20
0.3935549018460896
 30
0.0
  0
POINT
  5
7D7
330
6FA
100
AcDbEntity
  8
Defpoints
 62
     0
100
AcDbPoint
 10
1.011214116892911
 20
0.5308049018460897
 30
0.0
  0
POINT
  5
7D8
330
6FA
100
AcDbEntity
  8
Defpoints
 62
     0
100
AcDbPoint
 10
1.011214116892911
 20
0.3474407558356945
 30
0.0
  0
ENDBLK
  5
706
330
6FA
100
AcDbEntity
  8
0
100
AcDbBlockEnd
  0
BLOCK
  5
7E8
330
7E2
100
AcDbEntity
  8
0
100
AcDbBlockBegin
  2
*D13
 70
     1
 10
0.0
 20
0.0
 30
0.0
  3
*D13
  1

  0
LINE
  5
870
330
7E2
100
AcDbEntity
  8
Dimension (ANSI)
100
AcDbLine
 10
0.9500187980961474
 20
0.8870902626343026
 30
0.0
 11
0.9241823907099009
 21
0.8870902626343026
 31
0.0
  0
LINE
  5
871
330
7E2
100
AcDbEntity
  8
Dimension (ANSI)
100
AcDbLine
 10
0.9241823907099009
 20
0.8870902626343026
 30
0.0
 11
0.7974873143681738
 21
0.6099918979528283
 31
0.0
  0
MTEXT
  5
872
330
7E2
100
AcDbEntity
  8
Dimension (ANSI)
100
AcDbMText
 10
0.9563180106945726
 20
0.8996382819374829
 30
0.0
 40
0.0240000009536743
 41
0.0
 71
     1
 72
     1
  1
\A1;R0.0308 in
  7
Note Text (ANSI)
 73
     1
 44
1.0
1001
ACAD
1000
MTEXTBEGIN
1070
    73
1070
     1
1070
    44
1040
1.0
1070
    74
1070
     0
1000
MTEXTEND
  0
SOLID
  5
873
330
7E2
100
AcDbEntity
  8
Dimension (ANSI)
100
AcDbTrace
 10
0.7945035619931965
 20
0.6113561309585594
 30
0.0
 11
0.8004710667431512
 21
0.6086276649470972
 31
0.0
 12
0.7893019163337872
 22
0.5920893837029637
 32
0.0
 13
0.7893019163337872
 23
0.5920893837029637
 33
0.0
  0
POINT
  5
874
330
7E2
100
AcDbEntity
  8
Defpoints
 62
     0
100
AcDbPoint
 10
0.7893019163337872
 20
0.5920893837029637
 30
0.0
  0
POINT
  5
875
330
7E2
100
AcDbEntity
  8
Defpoints
 62
     0
100
AcDbPoint
 10
0.8020883268929118
 20
0.62005490184609
 30
0.0
  0
ENDBLK
  5
7E9
330
7E2
100
AcDbEntity
  8
0
100
AcDbBlockEnd
  0
BLOCK
  5
883
330
878
100
AcDbEntity
  8
0
100
AcDbBlockBegin
  2
*D14
 70
     1
 10
0.0
 20
0.0
 30
0.0
  3
*D14
  1

  0
LINE
  5
94D
330
878
100
AcDbEntity
  8
Dimension (ANSI)
100
AcDbLine
 10
1.130164116892911
 20
0.3725549018460896
 30
0.0
 11
1.130164116892911
 21
0.2640521299576839
 31
0.0
  0
LINE
  5
94E
330
878
100
AcDbEntity
  8
Dimension (ANSI)
100
AcDbLine
 10
1.091214116892911
 20
0.6675549018460896
 30
0.0
 11
1.091214116892911
 21
0.2640521299576839
 31
0.0
  0
LINE
  5
94F
330
878
100
AcDbEntity
  8
Dimension (ANSI)
100
AcDbLine
 10
1.149849155817128
 20
0.2890521299576839
 30
0.0
 11
1.169534194741346
 21
0.2890521299576839
 31
0.0
  0
LINE
  5
950
330
878
100
AcDbEntity
  8
Dimension (ANSI)
100
AcDbLine
 10
1.071529077968694
 20
0.2890521299576839
 30
0.0
 11
1.041778133370896
 21
0.2890521299576839
 31
0.0
  0
SOLID
  5
951
330
878
100
AcDbEntity
  8
Dimension (ANSI)
100
AcDbTrace
 10
1.149849155817128
 20
0.2923329697783867
 30
0.0
 11
1.149849155817128
 21
0.285771290136981
 31
0.0
 12
1.130164116892911
 22
0.2890521299576839
 32
0.0
 13
1.130164116892911
 23
0.2890521299576839
 33
0.0
  0
SOLID
  5
952
330
878
100
AcDbEntity
  8
Dimension (ANSI)
100
AcDbTrace
 10
1.071529077968694
 20
0.2923329697783867
 30
0.0
 11
1.071529077968694
 21
0.285771290136981
 31
0.0
 12
1.091214116892911
 22
0.2890521299576839
 32
0.0
 13
1.091214116892911
 23
0.2890521299576839
 33
0.0
  0
MTEXT
  5
953
330
878
100
AcDbEntity
  8
Dimension (ANSI)
100
AcDbMText
 10
0.9205400310473866
 20
0.3015517946585398
 30
0.0
 40
0.0240000009536743
 41
0.0
 71
     1
 72
     1
  1
\A1;0.039 in
  7
Note Text (ANSI)
 73
     1
 44
1.0
1001
ACAD
1000
MTEXTBEGIN
1070
    73
1070
     1
1070
    44
1040
1.0
1070
    74
1070
     0
1000
MTEXTEND
  0
POINT
  5
954
330
878
100
AcDbEntity
  8
Defpoints
 62
     0
100
AcDbPoint
 10
1.130164116892911
 20
0.3850549018460896
 30
0.0
  0
POINT
  5
955
330
878
100
AcDbEntity
  8
Defpoints
 62
     0
100
AcDbPoint
 10
1.091214116892911
 20
0.6800549018460896
 30
0.0
  0
POINT
  5
956
330
878
100
AcDbEntity
  8
Defpoints
 62
     0
100
AcDbPoint
 10
1.091214116892911
 20
0.2890521299576839
 30
0.0
  0
ENDBLK
  5
884
330
878
100
AcDbEntity
  8
0
100
AcDbBlockEnd
  0
BLOCK
  5
95E
330
958
100
AcDbEntity
  8
0
100
AcDbBlockBegin
  2
*D15
 70
     1
 10
0.0
 20
0.0
 30
0.0
  3
*D15
  1

  0
LINE
  5
9E8
330
958
100
AcDbEntity
  8
Dimension (ANSI)
100
AcDbLine
 10
1.240500693479322
 20
0.812363027592089
 30
0.0
 11
1.214664286093074
 21
0.812363027592089
 31
0.0
  0
LINE
  5
9E9
330
958
100
AcDbEntity
  8
Dimension (ANSI)
100
AcDbLine
 10
1.214664286093074
 20
0.812363027592089
 30
0.0
 11
1.138242134060607
 21
0.7304573342552327
 31
0.0
  0
MTEXT
  5
9EA
330
958
100
AcDbEntity
  8
Dimension (ANSI)
100
AcDbMText
 10
1.246799906077747
 20
0.8248626922929449
 30
0.0
 40
0.0240000009536743
 41
0.0
 71
     1
 72
     1
  1
\A1;R0.0493 in
  7
Note Text (ANSI)
 73
     1
 44
1.0
1001
ACAD
1000
MTEXTBEGIN
1070
    73
1070
     1
1070
    44
1040
1.0
1070
    74
1070
     0
1000
MTEXTEND
  0
SOLID
  5
9EB
330
958
100
AcDbEntity
  8
Dimension (ANSI)
100
AcDbTrace
 10
1.135843320483523
 20
0.7326955485773003
 30
0.0
 11
1.14064094763769
 21
0.7282191199331649
 31
0.0
 12
1.124812848128201
 22
0.7160644527927308
 32
0.0
 13
1.124812848128201
 23
0.7160644527927308
 33
0.0
  0
POINT
  5
9EC
330
958
100
AcDbEntity
  8
Defpoints
 62
     0
100
AcDbPoint
 10
1.124812848128201
 20
0.7160644527927308
 30
0.0
  0
POINT
  5
9ED
330
958
100
AcDbEntity
  8
Defpoints
 62
     0
100
AcDbPoint
 10
1.091214116892911
 20
0.6800549018460892
 30
0.0
  0
ENDBLK
  5
95F
330
958
100
AcDbEntity
  8
0
100
AcDbBlockEnd
  0
BLOCK
  5
9F3
330
9F0
100
AcDbEntity
  8
0
100
AcDbBlockBegin
  2
_Dot
 70
     0
 10
0.0
 20
0.0
 30
0.0
  3
_Dot
  1

  0
LWPOLYLINE
  5
9F1
330
9F0
100
AcDbEntity
  8
0
  6
ByBlock
 62
     0
100
AcDbPolyline
 90
        2
 70
     1
 43
0.5
 10
-0.25
 20
0.0
 42
1.0
 10
0.25
 20
0.0
 42
1.0
  0
LINE
  5
9F2
330
9F0
100
AcDbEntity
  8
0
  6
ByBlock
 62
     0
370
    -2
100
AcDbLine
 10
-0.5
 20
0.0
 30
0.0
 11
-1.0
 21
0.0
 31
0.0
  0
ENDBLK
  5
9F4
330
9F0
100
AcDbEntity
  8
0
100
AcDbBlockEnd
  0
BLOCK
  5
A08
330
A07
100
AcDbEntity
  8
0
100
AcDbBlockBegin
  2
Origin Indicator Symbol4
 70
     0
 10
0.0
 20
0.0
 30
0.0
  3
Origin Indicator Symbol4
  1

  0
CIRCLE
  5
A0A
330
A07
100
AcDbEntity
  8
Dimension (ANSI)
100
AcDbCircle
 10
5.650820584464308
 20
5.585953669249012
 30
0.0
 40
0.0984251968503937
  0
LINE
  5
A0B
102
{ACAD_REACTORS
330
A0D
102
}
330
A07
100
AcDbEntity
  8
Dimension (ANSI)
100
AcDbLine
 10
5.650820584464308
 20
5.684378866099406
 30
0.0
 11
5.749245781314701
 21
5.585953669249012
 31
0.0
  0
ARC
  5
A0C
102
{ACAD_REACTORS
330
A0D
102
}
330
A07
100
AcDbEntity
  8
Dimension (ANSI)
100
AcDbCircle
 10
5.650820584464308
 20
5.585953669249012
 30
0.0
 40
0.0984251968503937
100
AcDbArc
 50
0.0
 51
90.0
  0
HATCH
  5
A0D
330
A07
100
AcDbEntity
  8
Dimension (ANSI)
100
AcDbHatch
 10
0.0
 20
0.0
 30
0.0
210
0.0
220
0.0
230
1.0
  2
SOLID
 70
     1
 71
     1
 91
        1
 92
        0
 93
        2
 72
     1
 10
5.650820584464308
 20
5.684378866099406
 11
5.749245781314701
 21
5.585953669249012
 72
     2
 10
5.650820584464308
 20
5.585953669249012
 40
0.0984251968503937
 50
0.0
 51
90.0
 73
     1
 97
        2
330
A0B
330
A0C
 75
     0
 76
     1
 98
        1
 10
0.0
 20
0.0
  0
LINE
  5
A0E
102
{ACAD_REACTORS
330
A10
102
}
330
A07
100
AcDbEntity
  8
Dimension (ANSI)
100
AcDbLine
 10
5.650820584464308
 20
5.487528472398618
 30
0.0
 11
5.552395387613914
 21
5.585953669249012
 31
0.0
  0
ARC
  5
A0F
102
{ACAD_REACTORS
330
A10
102
}
330
A07
100
AcDbEntity
  8
Dimension (ANSI)
100
AcDbCircle
 10
5.650820584464308
 20
5.585953669249012
 30
0.0
 40
0.0984251968503937
100
AcDbArc
 50
180.0
 51
270.0
  0
HATCH
  5
A10
330
A07
100
AcDbEntity
  8
Dimension (ANSI)
100
AcDbHatch
 10
0.0
 20
0.0
 30
0.0
210
0.0
220
0.0
230
1.0
  2
SOLID
 70
     1
 71
     1
 91
        1
 92
        0
 93
        2
 72
     1
 10
5.650820584464308
 20
5.487528472398618
 11
5.552395387613914
 21
5.585953669249011
 72
     2
 10
5.650820584464308
 20
5.585953669249012
 40
0.0984251968503937
 50
180.0
 51
270.0
 73
     1
 97
        2
330
A0E
330
A0F
 75
     0
 76
     1
 98
        1
 10
0.0
 20
0.0
  0
POLYLINE
  5
A11
330
A07
100
AcDbEntity
  8
Dimension (ANSI)
100
AcDb2dPolyline
 66
     1
 10
0.0
 20
0.0
 30
0.0
 70
   128
  0
VERTEX
  5
A12
330
A11
100
AcDbEntity
  8
Dimension (ANSI)
100
AcDbVertex
100
AcDb2dVertex
 10
5.650820694570465
 20
5.585953569787693
 30
0.0
  0
VERTEX
  5
A13
330
A11
100
AcDbEntity
  8
Dimension (ANSI)
100
AcDbVertex
100
AcDb2dVertex
 10
5.749245891420859
 20
5.585953569787693
 30
0.0
  0
VERTEX
  5
A15
330
A11
100
AcDbEntity
  8
Dimension (ANSI)
100
AcDbVertex
100
AcDb2dVertex
 10
5.650820694570465
 20
5.684378766638086
 30
0.0
  0
VERTEX
  5
A16
330
A11
100
AcDbEntity
  8
Dimension (ANSI)
100
AcDbVertex
100
AcDb2dVertex
 10
5.650820694570465
 20
5.585953569787693
 30
0.0
  0
SEQEND
  5
A14
330
A11
100
AcDbEntity
  8
Dimension (ANSI)
  0
SOLID
  5
A17
330
A07
100
AcDbEntity
  8
Dimension (ANSI)
100
AcDbTrace
 10
5.650820694570465
 20
5.585953569787693
 30
0.0
 11
5.749245891420859
 21
5.585953569787693
 31
0.0
 12
5.650820694570465
 22
5.684378766638086
 32
0.0
 13
5.650820694570465
 23
5.585953569787693
 33
0.0
  0
POLYLINE
  5
A18
330
A07
100
AcDbEntity
  8
Dimension (ANSI)
100
AcDb2dPolyline
 66
     1
 10
0.0
 20
0.0
 30
0.0
 70
   128
  0
VERTEX
  5
A19
330
A18
100
AcDbEntity
  8
Dimension (ANSI)
100
AcDbVertex
100
AcDb2dVertex
 10
5.650820694570465
 20
5.585953569787693
 30
0.0
  0
VERTEX
  5
A1A
330
A18
100
AcDbEntity
  8
Dimension (ANSI)
100
AcDbVertex
100
AcDb2dVertex
 10
5.650820694570465
 20
5.684378766638086
 30
0.0
  0
VERTEX
  5
A1C
330
A18
100
AcDbEntity
  8
Dimension (ANSI)
100
AcDbVertex
100
AcDb2dVertex
 10
5.650820694570465
 20
5.487528372937299
 30
0.0
  0
VERTEX
  5
A1D
330
A18
100
AcDbEntity
  8
Dimension (ANSI)
100
AcDbVertex
100
AcDb2dVertex
 10
5.650820694570465
 20
5.585953569787693
 30
0.0
  0
SEQEND
  5
A1B
330
A18
100
AcDbEntity
  8
Dimension (ANSI)
  0
SOLID
  5
A1E
330
A07
100
AcDbEntity
  8
Dimension (ANSI)
100
AcDbTrace
 10
5.650820694570465
 20
5.585953569787693
 30
0.0
 11
5.650820694570465
 21
5.684378766638086
 31
0.0
 12
5.650820694570465
 22
5.487528372937299
 32
0.0
 13
5.650820694570465
 23
5.585953569787693
 33
0.0
  0
POLYLINE
  5
A1F
330
A07
100
AcDbEntity
  8
Dimension (ANSI)
100
AcDb2dPolyline
 66
     1
 10
0.0
 20
0.0
 30
0.0
 70
   128
  0
VERTEX
  5
A20
330
A1F
100
AcDbEntity
  8
Dimension (ANSI)
100
AcDbVertex
100
AcDb2dVertex
 10
5.650820694570465
 20
5.585953569787693
 30
0.0
  0
VERTEX
  5
A21
330
A1F
100
AcDbEntity
  8
Dimension (ANSI)
100
AcDbVertex
100
AcDb2dVertex
 10
5.650820694570465
 20
5.487528372937299
 30
0.0
  0
VERTEX
  5
A23
330
A1F
100
AcDbEntity
  8
Dimension (ANSI)
100
AcDbVertex
100
AcDb2dVertex
 10
5.552395497720072
 20
5.585953569787693
 30
0.0
  0
VERTEX
  5
A24
330
A1F
100
AcDbEntity
  8
Dimension (ANSI)
100
AcDbVertex
100
AcDb2dVertex
 10
5.650820694570465
 20
5.585953569787693
 30
0.0
  0
SEQEND
  5
A22
330
A1F
100
AcDbEntity
  8
Dimension (ANSI)
  0
SOLID
  5
A25
330
A07
100
AcDbEntity
  8
Dimension (ANSI)
100
AcDbTrace
 10
5.650820694570465
 20
5.585953569787693
 30
0.0
 11
5.650820694570465
 21
5.487528372937299
 31
0.0
 12
5.552395497720072
 22
5.585953569787693
 32
0.0
 13
5.650820694570465
 23
5.585953569787693
 33
0.0
  0
POLYLINE
  5
A26
330
A07
100
AcDbEntity
  8
Dimension (ANSI)
100
AcDb2dPolyline
 66
     1
 10
0.0
 20
0.0
 30
0.0
 70
   128
  0
VERTEX
  5
A27
330
A26
100
AcDbEntity
  8
Dimension (ANSI)
100
AcDbVertex
100
AcDb2dVertex
 10
5.650820694570465
 20
5.585953569787693
 30
0.0
  0
VERTEX
  5
A28
330
A26
100
AcDbEntity
  8
Dimension (ANSI)
100
AcDbVertex
100
AcDb2dVertex
 10
5.552395497720072
 20
5.585953569787693
 30
0.0
  0
VERTEX
  5
A2A
330
A26
100
AcDbEntity
  8
Dimension (ANSI)
100
AcDbVertex
100
AcDb2dVertex
 10
5.650820694570465
 20
5.585953569787693
 30
0.0
  0
VERTEX
  5
A2B
330
A26
100
AcDbEntity
  8
Dimension (ANSI)
100
AcDbVertex
100
AcDb2dVertex
 10
5.650820694570465
 20
5.585953569787693
 30
0.0
  0
SEQEND
  5
A29
330
A26
100
AcDbEntity
  8
Dimension (ANSI)
  0
SOLID
  5
A2C
330
A07
100
AcDbEntity
  8
Dimension (ANSI)
100
AcDbTrace
 10
5.650820694570465
 20
5.585953569787693
 30
0.0
 11
5.552395497720072
 21
5.585953569787693
 31
0.0
 12
5.650820694570465
 22
5.585953569787693
 32
0.0
 13
5.650820694570465
 23
5.585953569787693
 33
0.0
  0
ENDBLK
  5
A09
330
A07
100
AcDbEntity
  8
0
100
AcDbBlockEnd
  0
BLOCK
  5
A2F
330
A2E
100
AcDbEntity
  8
0
100
AcDbBlockBegin
  2
Hole Table4
 70
     0
 10
0.0
 20
0.0
 30
0.0
  3
Hole Table4
  1

  0
MTEXT
  5
A31
330
A2E
100
AcDbEntity
  8
Symbol (ANSI)
100
AcDbMText
 10
8.146601218020526
 20
6.596317394263632
 30
0.0
 40
0.1200000014830762
 41
0.0
 71
     7
 72
     1
  1
Hole Table
  7
Text Style29
 73
     1
 44
1.0
1001
ACAD
1000
MTEXTBEGIN
1070
    73
1070
     1
1070
    44
1040
1.0
1070
    74
1070
     0
1000
MTEXTEND
  0
LINE
  5
A32
330
A2E
100
AcDbEntity
  8
Symbol (ANSI)
100
AcDbLine
 10
6.547568236876685
 20
6.56521643462085
 30
0.0
 11
7.013493877069571
 21
6.56521643462085
 31
0.0
  0
LINE
  5
A33
330
A2E
100
AcDbEntity
  8
Symbol (ANSI)
100
AcDbLine
 10
7.013493877069571
 20
6.56521643462085
 30
0.0
 11
7.013493877069571
 21
6.375137692980294
 31
0.0
  0
LINE
  5
A34
330
A2E
100
AcDbEntity
  8
Symbol (ANSI)
100
AcDbLine
 10
6.547568236876685
 20
6.375137692980294
 30
0.0
 11
7.013493877069571
 21
6.375137692980294
 31
0.0
  0
MTEXT
  5
A35
330
A2E
100
AcDbEntity
  8
Symbol (ANSI)
100
AcDbMText
 10
6.603118183795112
 20
6.407648701234594
 30
0.0
 40
0.1200000014830762
 41
0.0
 71
     7
 72
     1
  1
HOLE
  7
Text Style29
 73
     1
 44
1.0
1001
ACAD
1000
MTEXTBEGIN
1070
    73
1070
     1
1070
    44
1040
1.0
1070
    74
1070
     0
1000
MTEXTEND
  0
LINE
  5
A36
330
A2E
100
AcDbEntity
  8
Symbol (ANSI)
100
AcDbLine
 10
7.013493877069571
 20
6.56521643462085
 30
0.0
 11
7.604045058171933
 21
6.56521643462085
 31
0.0
  0
LINE
  5
A37
330
A2E
100
AcDbEntity
  8
Symbol (ANSI)
100
AcDbLine
 10
7.013493877069571
 20
6.56521643462085
 30
0.0
 11
7.013493877069571
 21
6.375137692980294
 31
0.0
  0
LINE
  5
A38
330
A2E
100
AcDbEntity
  8
Symbol (ANSI)
100
AcDbLine
 10
7.604045058171933
 20
6.56521643462085
 30
0.0
 11
7.604045058171933
 21
6.375137692980294
 31
0.0
  0
LINE
  5
A39
330
A2E
100
AcDbEntity
  8
Symbol (ANSI)
100
AcDbLine
 10
7.013493877069571
 20
6.375137692980294
 30
0.0
 11
7.604045058171933
 21
6.375137692980294
 31
0.0
  0
MTEXT
  5
A3A
330
A2E
100
AcDbEntity
  8
Symbol (ANSI)
100
AcDbMText
 10
7.111881738884595
 20
6.410177064262145
 30
0.0
 40
0.1200000014830762
 41
0.0
 71
     7
 72
     1
  1
XDIM
  7
Text Style29
 73
     1
 44
1.0
1001
ACAD
1000
MTEXTBEGIN
1070
    73
1070
     1
1070
    44
1040
1.0
1070
    74
1070
     0
1000
MTEXTEND
  0
LINE
  5
A3B
330
A2E
100
AcDbEntity
  8
Symbol (ANSI)
100
AcDbLine
 10
7.604045058171933
 20
6.56521643462085
 30
0.0
 11
8.194596239274295
 21
6.56521643462085
 31
0.0
  0
LINE
  5
A3C
330
A2E
100
AcDbEntity
  8
Symbol (ANSI)
100
AcDbLine
 10
7.604045058171933
 20
6.56521643462085
 30
0.0
 11
7.604045058171933
 21
6.375137692980294
 31
0.0
  0
LINE
  5
A3D
330
A2E
100
AcDbEntity
  8
Symbol (ANSI)
100
AcDbLine
 10
8.194596239274295
 20
6.56521643462085
 30
0.0
 11
8.194596239274295
 21
6.375137692980294
 31
0.0
  0
LINE
  5
A3E
330
A2E
100
AcDbEntity
  8
Symbol (ANSI)
100
AcDbLine
 10
7.604045058171933
 20
6.375137692980294
 30
0.0
 11
8.194596239274295
 21
6.375137692980294
 31
0.0
  0
MTEXT
  5
A3F
330
A2E
100
AcDbEntity
  8
Symbol (ANSI)
100
AcDbMText
 10
7.699697489186887
 20
6.410177064262145
 30
0.0
 40
0.1200000014830762
 41
0.0
 71
     7
 72
     1
  1
YDIM
  7
Text Style29
 73
     1
 44
1.0
1001
ACAD
1000
MTEXTBEGIN
1070
    73
1070
     1
1070
    44
1040
1.0
1070
    74
1070
     0
1000
MTEXTEND
  0
LINE
  5
A40
330
A2E
100
AcDbEntity
  8
Symbol (ANSI)
100
AcDbLine
 10
8.194596239274295
 20
6.56521643462085
 30
0.0
 11
10.4734907338369
 21
6.56521643462085
 31
0.0
  0
LINE
  5
A41
330
A2E
100
AcDbEntity
  8
Symbol (ANSI)
100
AcDbLine
 10
8.194596239274295
 20
6.56521643462085
 30
0.0
 11
8.194596239274295
 21
6.375137692980294
 31
0.0
  0
LINE
  5
A42
330
A2E
100
AcDbEntity
  8
Symbol (ANSI)
100
AcDbLine
 10
8.194596239274295
 20
6.375137692980294
 30
0.0
 11
10.4734907338369
 21
6.375137692980294
 31
0.0
  0
MTEXT
  5
A43
330
A2E
100
AcDbEntity
  8
Symbol (ANSI)
100
AcDbMText
 10
8.84039073167435
 20
6.407648701234594
 30
0.0
 40
0.1200000014830762
 41
0.0
 71
     7
 72
     1
  1
DESCRIPTION
  7
Text Style29
 73
     1
 44
1.875
1001
ACAD
1000
MTEXTBEGIN
1070
    73
1070
     1
1070
    44
1040
1.875
1070
    74
1070
     0
1000
MTEXTEND
  0
LINE
  5
A44
330
A2E
100
AcDbEntity
  8
Symbol (ANSI)
100
AcDbLine
 10
6.547568236876685
 20
6.375137692980294
 30
0.0
 11
7.013493877069571
 21
6.375137692980294
 31
0.0
  0
LINE
  5
A45
330
A2E
100
AcDbEntity
  8
Symbol (ANSI)
100
AcDbLine
 10
7.013493877069571
 20
6.375137692980294
 30
0.0
 11
7.013493877069571
 21
6.129344665138217
 31
0.0
  0
LINE
  5
A46
330
A2E
100
AcDbEntity
  8
Symbol (ANSI)
100
AcDbLine
 10
6.547568236876685
 20
6.129344665138217
 30
0.0
 11
7.013493877069571
 21
6.129344665138217
 31
0.0
  0
MTEXT
  5
A47
330
A2E
100
AcDbEntity
  8
Symbol (ANSI)
100
AcDbMText
 10
6.771455011953708
 20
6.19204669005717
 30
0.0
 40
0.1200000014830762
 41
0.0
 71
     7
 72
     1
  1
1
  7
Text Style29
 73
     1
 44
1.0
1001
ACAD
1000
MTEXTBEGIN
1070
    73
1070
     1
1070
    44
1040
1.0
1070
    74
1070
     0
1000
MTEXTEND
  0
LINE
  5
A48
330
A2E
100
AcDbEntity
  8
Symbol (ANSI)
100
AcDbLine
 10
7.013493877069571
 20
6.375137692980294
 30
0.0
 11
7.604045058171933
 21
6.375137692980294
 31
0.0
  0
LINE
  5
A49
330
A2E
100
AcDbEntity
  8
Symbol (ANSI)
100
AcDbLine
 10
7.013493877069571
 20
6.375137692980294
 30
0.0
 11
7.013493877069571
 21
6.129344665138217
 31
0.0
  0
LINE
  5
A4A
330
A2E
100
AcDbEntity
  8
Symbol (ANSI)
100
AcDbLine
 10
7.604045058171933
 20
6.375137692980294
 30
0.0
 11
7.604045058171933
 21
6.129344665138217
 31
0.0
  0
LINE
  5
A4B
330
A2E
100
AcDbEntity
  8
Symbol (ANSI)
100
AcDbLine
 10
7.013493877069571
 20
6.129344665138217
 30
0.0
 11
7.604045058171933
 21
6.129344665138217
 31
0.0
  0
MTEXT
  5
A4C
330
A2E
100
AcDbEntity
  8
Symbol (ANSI)
100
AcDbMText
 10
7.043122383865199
 20
6.189518327029619
 30
0.0
 40
0.1200000014830762
 41
0.0
 71
     7
 72
     1
  1
-0.3681
  7
Text Style29
 73
     1
 44
1.875
1001
ACAD
1000
MTEXTBEGIN
1070
    73
1070
     1
1070
    44
1040
1.875
1070
    74
1070
     0
1000
MTEXTEND
  0
LINE
  5
A4D
330
A2E
100
AcDbEntity
  8
Symbol (ANSI)
100
AcDbLine
 10
7.604045058171933
 20
6.375137692980294
 30
0.0
 11
8.194596239274295
 21
6.375137692980294
 31
0.0
  0
LINE
  5
A4E
330
A2E
100
AcDbEntity
  8
Symbol (ANSI)
100
AcDbLine
 10
7.604045058171933
 20
6.375137692980294
 30
0.0
 11
7.604045058171933
 21
6.129344665138217
 31
0.0
  0
LINE
  5
A4F
330
A2E
100
AcDbEntity
  8
Symbol (ANSI)
100
AcDbLine
 10
8.194596239274295
 20
6.375137692980294
 30
0.0
 11
8.194596239274295
 21
6.129344665138217
 31
0.0
  0
LINE
  5
A50
330
A2E
100
AcDbEntity
  8
Symbol (ANSI)
100
AcDbLine
 10
7.604045058171933
 20
6.129344665138217
 30
0.0
 11
8.194596239274295
 21
6.129344665138217
 31
0.0
  0
MTEXT
  5
A51
330
A2E
100
AcDbEntity
  8
Symbol (ANSI)
100
AcDbMText
 10
7.662471525624395
 20
6.189761438859191
 30
0.0
 40
0.1200000014830762
 41
0.0
 71
     7
 72
     1
  1
0.1400
  7
Text Style29
 73
     1
 44
1.0
1001
ACAD
1000
MTEXTBEGIN
1070
    73
1070
     1
1070
    44
1040
1.0
1070
    74
1070
     0
1000
MTEXTEND
  0
MTEXT
  5
A52
330
A2E
100
AcDbEntity
  8
Symbol (ANSI)
100
AcDbMText
 10
8.52280098076492
 20
6.19449986567048
 30
0.0
 40
0.1200000014830762
 41
0.0
 71
     7
 72
     1
  1
REAM 
  7
Text Style29
 73
     1
 44
1.0
1001
ACAD
1000
MTEXTBEGIN
1070
    73
1070
     1
1070
    44
1040
1.0
1070
    74
1070
     0
1000
MTEXTEND
  0
MTEXT
  5
A54
330
A2E
100
AcDbEntity
  8
Symbol (ANSI)
100
AcDbMText
 10
8.985319085182975
 20
6.164384035216957
 30
0.0
 40
0.1200000014830762
 41
0.0
 71
     7
 72
     1
  1
n
  7
Text Style6
 73
     1
 44
1.0
1001
ACAD
1000
MTEXTBEGIN
1070
    73
1070
     1
1070
    44
1040
1.0
1070
    74
1070
     0
1000
MTEXTEND
  0
MTEXT
  5
A56
330
A2E
100
AcDbEntity
  8
Symbol (ANSI)
100
AcDbMText
 10
9.119221142601649
 20
6.191971502642929
 30
0.0
 40
0.1200000014830762
 41
0.0
 71
     7
 72
     1
  1
0.0635 
  7
Text Style29
 73
     1
 44
1.0
1001
ACAD
1000
MTEXTBEGIN
1070
    73
1070
     1
1070
    44
1040
1.0
1070
    74
1070
     0
1000
MTEXTEND
  0
MTEXT
  5
A57
330
A2E
100
AcDbEntity
  8
Symbol (ANSI)
100
AcDbMText
 10
9.678100527445971
 20
6.186391757471454
 30
0.0
 40
0.1200000014830762
 41
0.0
 71
     7
 72
     1
  1
x
  7
Text Style6
 73
     1
 44
1.0
1001
ACAD
1000
MTEXTBEGIN
1070
    73
1070
     1
1070
    44
1040
1.0
1070
    74
1070
     0
1000
MTEXTEND
  0
MTEXT
  5
A58
330
A2E
100
AcDbEntity
  8
Symbol (ANSI)
100
AcDbMText
 10
9.797646219510601
 20
6.191971502642929
 30
0.0
 40
0.1200000014830762
 41
0.0
 71
     7
 72
     1
  1
 0.21
  7
Text Style29
 73
     1
 44
1.0
1001
ACAD
1000
MTEXTBEGIN
1070
    73
1070
     1
1070
    44
1040
1.0
1070
    74
1070
     0
1000
MTEXTEND
  0
LINE
  5
A59
330
A2E
100
AcDbEntity
  8
Symbol (ANSI)
100
AcDbLine
 10
6.547568236876685
 20
6.129344665138218
 30
0.0
 11
6.547568236876685
 21
6.755295176261407
 31
0.0
  0
LINE
  5
A5A
330
A2E
100
AcDbEntity
  8
Symbol (ANSI)
100
AcDbLine
 10
6.547568236876685
 20
6.755295176261407
 30
0.0
 11
10.4734907338369
 21
6.755295176261407
 31
0.0
  0
LINE
  5
A5B
330
A2E
100
AcDbEntity
  8
Symbol (ANSI)
100
AcDbLine
 10
10.4734907338369
 20
6.755295176261407
 30
0.0
 11
10.4734907338369
 21
6.129344665138218
 31
0.0
  0
LINE
  5
A5C
330
A2E
100
AcDbEntity
  8
Symbol (ANSI)
100
AcDbLine
 10
10.4734907338369
 20
6.129344665138218
 30
0.0
 11
6.547568236876685
 21
6.129344665138218
 31
0.0
  0
ENDBLK
  5
A30
330
A2E
100
AcDbEntity
  8
0
100
AcDbBlockEnd
  0
BLOCK
  5
A5F
330
A5E
100
AcDbEntity
  8
0
100
AcDbBlockBegin
  2
Leader Text15
 70
     0
 10
0.0
 20
0.0
 30
0.0
  3
Leader Text15
  1

  0
LINE
  5
A61
330
A5E
100
AcDbEntity
  8
Symbol (ANSI)
100
AcDbLine
 10
3.936694108011622
 20
6.510005883695158
 30
0.0
 11
3.888375200457826
 21
6.424257399464551
 31
0.0
  0
POLYLINE
  5
A62
330
A5E
100
AcDbEntity
  8
Symbol (ANSI)
100
AcDb2dPolyline
 66
     1
 10
0.0
 20
0.0
 30
0.0
 70
   128
  0
VERTEX
  5
A63
330
A62
100
AcDbEntity
  8
Symbol (ANSI)
100
AcDbVertex
100
AcDb2dVertex
 10
3.919544370155634
 20
6.519669810618002
 30
0.0
  0
VERTEX
  5
A64
330
A62
100
AcDbEntity
  8
Symbol (ANSI)
100
AcDbVertex
100
AcDb2dVertex
 10
3.888375364889309
 20
6.424257323497862
 30
0.0
  0
VERTEX
  5
A66
330
A62
100
AcDbEntity
  8
Symbol (ANSI)
100
AcDbVertex
100
AcDb2dVertex
 10
3.95384398032361
 20
6.500341760830615
 30
0.0
  0
VERTEX
  5
A67
330
A62
100
AcDbEntity
  8
Symbol (ANSI)
100
AcDbVertex
100
AcDb2dVertex
 10
3.919544370155634
 20
6.519669810618002
 30
0.0
  0
SEQEND
  5
A65
330
A62
100
AcDbEntity
  8
Symbol (ANSI)
  0
SOLID
  5
A68
330
A5E
100
AcDbEntity
  8
Symbol (ANSI)
100
AcDbTrace
 10
3.919544370155634
 20
6.519669810618002
 30
0.0
 11
3.888375364889309
 21
6.424257323497862
 31
0.0
 12
3.95384398032361
 22
6.500341760830615
 32
0.0
 13
3.919544370155634
 23
6.519669810618002
 33
0.0
  0
LINE
  5
A69
330
A5E
100
AcDbEntity
  8
Symbol (ANSI)
100
AcDbLine
 10
3.9195444111655
 20
6.519669665205918
 30
0.0
 11
3.888375200457826
 21
6.424257399464551
 31
0.0
  0
LINE
  5
A6A
330
A5E
100
AcDbEntity
  8
Symbol (ANSI)
100
AcDbLine
 10
3.888375200457826
 20
6.424257399464551
 30
0.0
 11
3.953843804857743
 21
6.500342102184398
 31
0.0
  0
LINE
  5
A6B
330
A5E
100
AcDbEntity
  8
Symbol (ANSI)
100
AcDbLine
 10
3.953843804857743
 20
6.500342102184398
 30
0.0
 11
3.9195444111655
 21
6.519669665205918
 31
0.0
  0
LINE
  5
A6C
330
A5E
100
AcDbEntity
  8
Symbol (ANSI)
100
AcDbLine
 10
3.936694108011622
 20
6.510005883695158
 30
0.0
 11
4.031187645272221
 21
6.677697538988971
 31
0.0
  0
LINE
  5
A6D
330
A5E
100
AcDbEntity
  8
Symbol (ANSI)
100
AcDbLine
 10
4.031187645272221
 20
6.677697538988971
 30
0.0
 11
4.129612842122615
 21
6.677697538988971
 31
0.0
  0
MTEXT
  5
A6E
330
A5E
100
AcDbEntity
  8
Symbol (ANSI)
100
AcDbMText
 10
4.16556110737852
 20
6.617503049986885
 30
0.0
 40
0.1200000014830762
 41
0.0
 71
     7
 72
     1
  1
1
  7
Text Style29
 73
     1
 44
1.0
1001
ACAD
1000
MTEXTBEGIN
1070
    73
1070
     1
1070
    44
1040
1.0
1070
    74
1070
     0
1000
MTEXTEND
  0
ENDBLK
  5
A60
330
A5E
100
AcDbEntity
  8
0
100
AcDbBlockEnd
  0
BLOCK
  5
A77
330
A71
100
AcDbEntity
  8
0
100
AcDbBlockBegin
  2
*D20
 70
     1
 10
0.0
 20
0.0
 30
0.0
  3
*D20
  1

  0
LINE
  5
B01
330
A71
100
AcDbEntity
  8
Dimension (ANSI)
100
AcDbLine
 10
0.6772212995252851
 20
0.5628795467418377
 30
0.0
 11
0.703057706911533
 21
0.5628795467418378
 31
0.0
  0
LINE
  5
B02
330
A71
100
AcDbEntity
  8
Dimension (ANSI)
100
AcDbLine
 10
0.703057706911533
 20
0.5628795467418378
 30
0.0
 11
0.7423888319736673
 21
0.5855873823839869
 31
0.0
  0
MTEXT
  5
B03
330
A71
100
AcDbEntity
  8
Dimension (ANSI)
100
AcDbMText
 10
0.5185728532034686
 20
0.5753792114426937
 30
0.0
 40
0.0240000009536743
 41
0.0
 71
     1
 72
     1
  1
\A1;R0.0493 in
  7
Note Text (ANSI)
 73
     1
 44
1.0
1001
ACAD
1000
MTEXTBEGIN
1070
    73
1070
     1
1070
    44
1040
1.0
1070
    74
1070
     0
1000
MTEXTEND
  0
SOLID
  5
B04
330
A71
100
AcDbEntity
  8
Dimension (ANSI)
100
AcDbTrace
 10
0.7407484120633161
 20
0.5884286730144633
 30
0.0
 11
0.7440292518840184
 21
0.5827460917535104
 31
0.0
 12
0.7594365757565259
 22
0.5954299018460939
 32
0.0
 13
0.7594365757565259
 23
0.5954299018460939
 33
0.0
  0
POINT
  5
B05
330
A71
100
AcDbEntity
  8
Defpoints
 62
     0
100
AcDbPoint
 10
0.7594365757565259
 20
0.5954299018460939
 30
0.0
  0
POINT
  5
B06
330
A71
100
AcDbEntity
  8
Defpoints
 62
     0
100
AcDbPoint
 10
0.8020883268929118
 20
0.6200549018460898
 30
0.0
  0
ENDBLK
  5
A78
330
A71
100
AcDbEntity
  8
0
100
AcDbBlockEnd
  0
ENDSEC
  0
SECTION
  2
ENTITIES
  0
INSERT
  5
FE
330
37
100
AcDbEntity
  8
0
100
AcDbBlockReference
  2
Borders Default Border
 10
0.0
 20
0.0
 30
0.0
 41
0.2
 42
0.2
 43
0.2
  0
LINE
  5
FF
330
37
100
AcDbEntity
  8
Visible (ANSI)
100
AcDbLine
 10
1.200464116892911
 20
0.4070549018460897
 30
0.0
 11
1.200464116892911
 21
0.3850549018460896
 31
0.0
  0
LINE
  5
100
330
37
100
AcDbEntity
  8
Visible (ANSI)
100
AcDbLine
 10
1.200464116892911
 20
0.4070549018460897
 30
0.0
 11
1.200464116892911
 21
0.8350549018460895
 31
0.0
  0
LINE
  5
101
330
37
100
AcDbEntity
  8
Visible (ANSI)
100
AcDbLine
 10
0.7713373268929117
 20
0.8350549018460895
 30
0.0
 11
0.7713373268929117
 21
0.7450549018461866
 31
0.0
  0
LINE
  5
102
330
37
100
AcDbEntity
  8
Visible (ANSI)
100
AcDbLine
 10
0.7713373268929117
 20
0.7450549018461866
 30
0.0
 11
0.7713383268929118
 21
0.7200549018460897
 31
0.0
  0
LINE
  5
103
330
37
100
AcDbEntity
  8
Visible (ANSI)
100
AcDbLine
 10
0.7713383268929118
 20
0.7200549018460897
 30
0.0
 11
0.7713383268929118
 21
0.6200549018460898
 31
0.0
  0
ARC
  5
104
330
37
100
AcDbEntity
  8
Visible (ANSI)
100
AcDbCircle
 10
0.8020883268929118
 20
0.6200549018460898
 30
0.0
 40
0.0307500000000001
100
AcDbArc
 50
180.0
 51
269.9999999999998
  0
LINE
  5
105
330
37
100
AcDbEntity
  8
Visible (ANSI)
100
AcDbLine
 10
0.8020883268929118
 20
0.5893049018460897
 30
0.0
 11
0.958512575588481
 21
0.5893049018460897
 31
0.0
  0
ARC
  5
106
330
37
100
AcDbEntity
  8
Visible (ANSI)
100
AcDbCircle
 10
0.9630883268929117
 20
0.5815549018460896
 30
0.0
 40
0.009
100
AcDbArc
 50
90.0
 51
120.5584317859353
  0
LINE
  5
107
330
37
100
AcDbEntity
  8
Visible (ANSI)
100
AcDbLine
 10
0.9630883268929117
 20
0.5905549018460896
 30
0.0
 11
0.9708633770939172
 21
0.5905549018460896
 31
0.0
  0
ARC
  5
108
330
37
100
AcDbEntity
  8
Visible (ANSI)
100
AcDbCircle
 10
0.9770883268929114
 20
0.5840549018460899
 30
0.0
 40
0.0089999999999998
100
AcDbArc
 50
89.99999999999911
 51
133.7617426926804
  0
LINE
  5
109
330
37
100
AcDbEntity
  8
Visible (ANSI)
100
AcDbLine
 10
0.9770883268929118
 20
0.5930549018460897
 30
0.0
 11
0.9839644234685243
 21
0.5930549018460897
 31
0.0
  0
ARC
  5
10A
330
37
100
AcDbEntity
  8
Visible (ANSI)
100
AcDbCircle
 10
0.9910883268929117
 20
0.5875549018460897
 30
0.0
 40
0.0090000000000001
100
AcDbArc
 50
90.0
 51
142.3301130356702
  0
LINE
  5
10B
330
37
100
AcDbEntity
  8
Visible (ANSI)
100
AcDbLine
 10
0.9910883268929117
 20
0.5965549018460897
 30
0.0
 11
0.9984314726434194
 21
0.5965549018460897
 31
0.0
  0
ARC
  5
10C
330
37
100
AcDbEntity
  8
Visible (ANSI)
100
AcDbCircle
 10
1.004088326892911
 20
0.58955490184609
 30
0.0
 40
0.0089999999999997
100
AcDbArc
 50
90.0
 51
128.9424412689821
  0
LINE
  5
10D
330
37
100
AcDbEntity
  8
Visible (ANSI)
100
AcDbLine
 10
1.004088326892911
 20
0.5985549018460896
 30
0.0
 11
1.011214116892911
 21
0.5985549018460896
 31
0.0
  0
ARC
  5
10E
330
37
100
AcDbEntity
  8
Visible (ANSI)
100
AcDbCircle
 10
1.011214116892911
 20
0.6293049018460897
 30
0.0
 40
0.03075
100
AcDbArc
 50
270.0
 51
0.0
  0
LINE
  5
10F
330
37
100
AcDbEntity
  8
Visible (ANSI)
100
AcDbLine
 10
1.041964116892911
 20
0.6293049018460897
 30
0.0
 11
1.041964116892911
 21
0.6800549018460896
 31
0.0
  0
ARC
  5
110
330
37
100
AcDbEntity
  8
Visible (ANSI)
100
AcDbCircle
 10
1.091214116892911
 20
0.6800549018460896
 30
0.0
 40
0.04925
100
AcDbArc
 50
0.0
 51
180.0
  0
LINE
  5
111
330
37
100
AcDbEntity
  8
Visible (ANSI)
100
AcDbLine
 10
1.140464116892911
 20
0.6800549018460896
 30
0.0
 11
1.140464116892911
 21
0.4070549018460897
 31
0.0
  0
LINE
  5
112
330
37
100
AcDbEntity
  8
Visible (ANSI)
100
AcDbLine
 10
1.140464116892911
 20
0.4070549018460897
 30
0.0
 11
1.200464116892911
 21
0.4070549018460897
 31
0.0
  0
LINE
  5
113
330
37
100
AcDbEntity
  8
Visible (ANSI)
100
AcDbLine
 10
1.200464116892911
 20
0.8350549018460895
 30
0.0
 11
0.7713373268929117
 21
0.8350549018460895
 31
0.0
  0
LINE
  5
114
330
37
100
AcDbEntity
  8
Visible (ANSI)
100
AcDbLine
 10
1.010464116892911
 20
0.4035549018460896
 30
0.0
 11
1.010464116892911
 21
0.3850549018460896
 31
0.0
  0
LINE
  5
115
330
37
100
AcDbEntity
  8
Visible (ANSI)
100
AcDbLine
 10
1.010464116892911
 20
0.3850549018460896
 30
0.0
 11
1.041964116892911
 21
0.3850549018460896
 31
0.0
  0
LINE
  5
116
330
37
100
AcDbEntity
  8
Visible (ANSI)
100
AcDbLine
 10
1.041964116892911
 20
0.3850549018460896
 30
0.0
 11
1.041964116892911
 21
0.5308049018460897
 31
0.0
  0
ARC
  5
117
330
37
100
AcDbEntity
  8
Visible (ANSI)
100
AcDbCircle
 10
1.011214116892911
 20
0.5308049018460897
 30
0.0
 40
0.03075
100
AcDbArc
 50
0.0
 51
90.0
  0
LINE
  5
118
330
37
100
AcDbEntity
  8
Visible (ANSI)
100
AcDbLine
 10
1.011214116892911
 20
0.5615549018460896
 30
0.0
 11
1.004088326892911
 21
0.5615549018460896
 31
0.0
  0
ARC
  5
119
330
37
100
AcDbEntity
  8
Visible (ANSI)
100
AcDbCircle
 10
1.004088326892911
 20
0.5705549018460897
 30
0.0
 40
0.009
100
AcDbArc
 50
231.0575587310186
 51
270.0
  0
LINE
  5
11A
330
37
100
AcDbEntity
  8
Visible (ANSI)
100
AcDbLine
 10
0.9984314726434194
 20
0.5635549018460896
 30
0.0
 11
0.9910883268929117
 21
0.5635549018460896
 31
0.0
  0
ARC
  5
11B
330
37
100
AcDbEntity
  8
Visible (ANSI)
100
AcDbCircle
 10
0.9910883268929117
 20
0.5725549018460897
 30
0.0
 40
0.0090000000000001
100
AcDbArc
 50
217.6698869643307
 51
270.0
  0
LINE
  5
11C
330
37
100
AcDbEntity
  8
Visible (ANSI)
100
AcDbLine
 10
0.9839644234685243
 20
0.5670549018460897
 30
0.0
 11
0.9770883268929118
 21
0.5670549018460897
 31
0.0
  0
ARC
  5
11D
330
37
100
AcDbEntity
  8
Visible (ANSI)
100
AcDbCircle
 10
0.9770883268929118
 20
0.5760549018460896
 30
0.0
 40
0.0089999999999999
100
AcDbArc
 50
226.2382573073199
 51
270.0
  0
LINE
  5
11E
330
37
100
AcDbEntity
  8
Visible (ANSI)
100
AcDbLine
 10
0.9708633770939172
 20
0.5695549018460896
 30
0.0
 11
0.9630883268929117
 21
0.5695549018460896
 31
0.0
  0
ARC
  5
11F
330
37
100
AcDbEntity
  8
Visible (ANSI)
100
AcDbCircle
 10
0.9630883268929116
 20
0.5785549018460893
 30
0.0
 40
0.0089999999999997
100
AcDbArc
 50
239.4415682140656
 51
270.0000000000009
  0
LINE
  5
120
330
37
100
AcDbEntity
  8
Visible (ANSI)
100
AcDbLine
 10
0.958512575588481
 20
0.5708049018460896
 30
0.0
 11
0.8020883268929118
 21
0.5708049018460896
 31
0.0
  0
ARC
  5
121
330
37
100
AcDbEntity
  8
Visible (ANSI)
100
AcDbCircle
 10
0.8020883268929116
 20
0.6200549018460895
 30
0.0
 40
0.0492499999999999
100
AcDbArc
 50
180.0
 51
270.0000000000002
  0
LINE
  5
122
330
37
100
AcDbEntity
  8
Visible (ANSI)
100
AcDbLine
 10
0.7528383268929117
 20
0.6200549018460898
 30
0.0
 11
0.7528383268929117
 21
0.7200549018460897
 31
0.0
  0
LINE
  5
123
330
37
100
AcDbEntity
  8
Visible (ANSI)
100
AcDbLine
 10
0.7528383268929117
 20
0.7200549018460897
 30
0.0
 11
0.7528393268929117
 21
0.745054901845476
 31
0.0
  0
LINE
  5
124
330
37
100
AcDbEntity
  8
Visible (ANSI)
100
AcDbLine
 10
0.7528393268929117
 20
0.745054901845476
 30
0.0
 11
0.7528393268929117
 21
0.8350549018460895
 31
0.0
  0
LINE
  5
125
330
37
100
AcDbEntity
  8
Visible (ANSI)
100
AcDbLine
 10
0.7528393268929117
 20
0.8350549018460895
 30
0.0
 11
0.3004641268929118
 21
0.8350549018460895
 31
0.0
  0
LINE
  5
126
330
37
100
AcDbEntity
  8
Visible (ANSI)
100
AcDbLine
 10
0.3004641268929118
 20
0.8350549018460895
 30
0.0
 11
0.3004641268929118
 21
0.3850549018460896
 31
0.0
  0
LINE
  5
127
330
37
100
AcDbEntity
  8
Visible (ANSI)
100
AcDbLine
 10
0.3004641268929118
 20
0.3850549018460896
 30
0.0
 11
0.9919641168929118
 21
0.3850549018460896
 31
0.0
  0
LINE
  5
128
330
37
100
AcDbEntity
  8
Visible (ANSI)
100
AcDbLine
 10
0.9919641168929118
 20
0.3850549018460896
 30
0.0
 11
0.9919641168929118
 21
0.4035549018460896
 31
0.0
  0
LINE
  5
129
330
37
100
AcDbEntity
  8
Visible (ANSI)
100
AcDbLine
 10
0.9919641168929118
 20
0.4035549018460896
 30
0.0
 11
1.010464116892911
 21
0.4035549018460896
 31
0.0
  0
LINE
  5
12A
330
37
100
AcDbEntity
  8
Visible (ANSI)
100
AcDbLine
 10
1.200464116892911
 20
0.3850549018460896
 30
0.0
 11
1.140464116892911
 21
0.3850549018460896
 31
0.0
  0
LINE
  5
12B
330
37
100
AcDbEntity
  8
Visible (ANSI)
100
AcDbLine
 10
1.140464116892911
 20
0.3850549018460896
 30
0.0
 11
1.130164116892911
 21
0.3850549018460896
 31
0.0
  0
LINE
  5
12C
330
37
100
AcDbEntity
  8
Visible (ANSI)
100
AcDbLine
 10
0.7528393268929117
 20
0.8350549018460895
 30
0.0
 11
0.7713373268929117
 21
0.8350549018460895
 31
0.0
  0
LINE
  5
12D
330
37
100
AcDbEntity
  8
Visible (ANSI)
100
AcDbLine
 10
1.130164116892911
 20
0.3850549018460896
 30
0.0
 11
1.130164116892911
 21
0.3935549018460896
 31
0.0
  0
LINE
  5
12E
330
37
100
AcDbEntity
  8
Visible (ANSI)
100
AcDbLine
 10
1.130164116892911
 20
0.3935549018460896
 30
0.0
 11
1.125464116892911
 21
0.3935549018460896
 31
0.0
  0
ARC
  5
12F
330
37
100
AcDbEntity
  8
Visible (ANSI)
100
AcDbCircle
 10
1.125464116892911
 20
0.3970549018460896
 30
0.0
 40
0.0035
100
AcDbArc
 50
180.0
 51
270.0
  0
ARC
  5
130
330
37
100
AcDbEntity
  8
Visible (ANSI)
100
AcDbCircle
 10
1.091214116892911
 20
0.6800549018460896
 30
0.0
 40
0.03075
100
AcDbArc
 50
0.0
 51
180.0
  0
LINE
  5
131
330
37
100
AcDbEntity
  8
Visible (ANSI)
100
AcDbLine
 10
1.060464116892911
 20
0.6800549018460896
 30
0.0
 11
1.060464116892911
 21
0.6293049018460897
 31
0.0
  0
ARC
  5
132
330
37
100
AcDbEntity
  8
Visible (ANSI)
100
AcDbCircle
 10
1.011214116892911
 20
0.6293049018460897
 30
0.0
 40
0.04925
100
AcDbArc
 50
281.5657063836212
 51
0.0
  0
LINE
  5
133
330
37
100
AcDbEntity
  8
Visible (ANSI)
100
AcDbLine
 10
1.021088326892911
 20
0.5810549020857177
 30
0.0
 11
1.021088326892911
 21
0.5790549016064617
 31
0.0
  0
ARC
  5
134
330
37
100
AcDbEntity
  8
Visible (ANSI)
100
AcDbCircle
 10
1.011214116892911
 20
0.5308049018460897
 30
0.0
 40
0.04925
100
AcDbArc
 50
0.0
 51
78.43429361637873
  0
LINE
  5
135
330
37
100
AcDbEntity
  8
Visible (ANSI)
100
AcDbLine
 10
1.060464116892911
 20
0.5308049018460897
 30
0.0
 11
1.060464116892911
 21
0.3850549018460896
 31
0.0
  0
LINE
  5
136
330
37
100
AcDbEntity
  8
Visible (ANSI)
100
AcDbLine
 10
1.060464116892911
 20
0.3850549018460896
 30
0.0
 11
1.041964116892911
 21
0.3850549018460896
 31
0.0
  0
LINE
  5
137
330
37
100
AcDbEntity
  8
Visible (ANSI)
100
AcDbLine
 10
1.140464116892911
 20
0.4035549018460896
 30
0.0
 11
1.121964116892911
 21
0.4035549018460896
 31
0.0
  0
LINE
  5
138
330
37
100
AcDbEntity
  8
Visible (ANSI)
100
AcDbLine
 10
1.010464116892911
 20
0.3850549018460896
 30
0.0
 11
0.9919641168929118
 21
0.3850549018460896
 31
0.0
  0
LINE
  5
139
330
37
100
AcDbEntity
  8
Visible (ANSI)
100
AcDbLine
 10
1.140464116892911
 20
0.3850549018460896
 30
0.0
 11
1.140464116892911
 21
0.4070549018460897
 31
0.0
  0
LINE
  5
13A
330
37
100
AcDbEntity
  8
Visible (ANSI)
100
AcDbLine
 10
1.121964116892911
 20
0.3970549018460896
 30
0.0
 11
1.121964116892911
 21
0.6800549018460896
 31
0.0
  0
LINE
  5
13B
330
37
100
AcDbEntity
  8
Visible (ANSI)
100
AcDbLine
 10
1.060464116892911
 20
0.3850549018460896
 30
0.0
 11
1.130164116892911
 21
0.3850549018460896
 31
0.0
  0
CIRCLE
  5
13C
330
37
100
AcDbEntity
  8
Visible (ANSI)
100
AcDbCircle
 10
0.7620832760929117
 20
0.4840498510460895
 30
0.0
 40
0.0445
  0
CIRCLE
  5
13D
330
37
100
AcDbEntity
  8
Visible (ANSI)
100
AcDbCircle
 10
0.5640933776929117
 20
0.4840498510460895
 30
0.0
 40
0.0445
  0
CIRCLE
  5
13E
330
37
100
AcDbEntity
  8
Visible (ANSI)
100
AcDbCircle
 10
0.9610883268929116
 20
0.7320549018460895
 30
0.0
 40
0.043
  0
CIRCLE
  5
13F
330
37
100
AcDbEntity
  8
Visible (ANSI)
100
AcDbCircle
 10
0.9610883268929116
 20
0.7320549018460895
 30
0.0
 40
0.046
  0
CIRCLE
  5
140
330
37
100
AcDbEntity
  8
Visible (ANSI)
100
AcDbCircle
 10
0.7620832760929117
 20
0.4840498510460895
 30
0.0
 40
0.0475
  0
CIRCLE
  5
141
330
37
100
AcDbEntity
  8
Visible (ANSI)
100
AcDbCircle
 10
0.5640933776929117
 20
0.4840498510460895
 30
0.0
 40
0.0475
  0
CIRCLE
  5
142
330
37
100
AcDbEntity
  8
Visible (ANSI)
100
AcDbCircle
 10
0.4151035268929118
 20
0.7320549018460897
 30
0.0
 40
0.046
  0
CIRCLE
  5
143
330
37
100
AcDbEntity
  8
Visible (ANSI)
100
AcDbCircle
 10
0.9610883268929116
 20
0.4850549018460896
 30
0.0
 40
0.05
  0
CIRCLE
  5
144
330
37
100
AcDbEntity
  8
Visible (ANSI)
100
AcDbCircle
 10
0.5550883268929118
 20
0.6350549018460895
 30
0.0
 40
0.05
  0
CIRCLE
  5
145
330
37
100
AcDbEntity
  8
Visible (ANSI)
100
AcDbCircle
 10
0.5550883268929118
 20
0.6350549018460895
 30
0.0
 40
0.047
  0
CIRCLE
  5
146
330
37
100
AcDbEntity
  8
Visible (ANSI)
100
AcDbCircle
 10
0.4151035268929118
 20
0.7320549018460897
 30
0.0
 40
0.043
  0
CIRCLE
  5
147
330
37
100
AcDbEntity
  8
Visible (ANSI)
100
AcDbCircle
 10
0.9610883268929116
 20
0.4850549018460896
 30
0.0
 40
0.047
  0
CIRCLE
  5
148
330
37
100
AcDbEntity
  8
Hidden Narrow (ANSI)
 48
1.14316713809967
100
AcDbCircle
 10
0.9610883268929116
 20
0.7320549018460895
 30
0.0
 40
0.05265
  0
CIRCLE
  5
149
330
37
100
AcDbEntity
  8
Hidden Narrow (ANSI)
 48
1.14316713809967
100
AcDbCircle
 10
0.4151035268929118
 20
0.7320549018460897
 30
0.0
 40
0.05265
  0
LINE
  5
14A
330
37
100
AcDbEntity
  8
Center Mark (ANSI)
  6
CHAIN
 48
0.1547526866197586
100
AcDbLine
 10
1.066964116892911
 20
0.6293049018460897
 30
0.0
 11
1.011214116892911
 21
0.6293049018460897
 31
0.0
  0
LINE
  5
14B
330
37
100
AcDbEntity
  8
Center Mark (ANSI)
  6
CHAIN
 48
0.1547526866197586
100
AcDbLine
 10
1.011214116892911
 20
0.6293049018460897
 30
0.0
 11
1.011214116892911
 21
0.5735549018460896
 31
0.0
  0
LINE
  5
14C
330
37
100
AcDbEntity
  8
Center Mark (ANSI)
  6
CHAIN
 48
0.2745519578456879
100
AcDbLine
 10
1.066964116892911
 20
0.5308049018460897
 30
0.0
 11
0.9680840340651281
 21
0.5308049018460897
 31
0.0
  0
LINE
  5
14D
330
37
100
AcDbEntity
  8
Center Mark (ANSI)
  6
CHAIN
 48
0.1547526866197586
100
AcDbLine
 10
1.011214116892911
 20
0.5865549018460897
 30
0.0
 11
1.011214116892911
 21
0.5308049018460897
 31
0.0
  0
LINE
  5
14E
330
37
100
AcDbEntity
  8
Center Mark (ANSI)
  6
CHAIN
 48
0.3096053600311279
100
AcDbLine
 10
1.146964116892911
 20
0.6800549018460896
 30
0.0
 11
1.035464116892911
 21
0.6800549018460896
 31
0.0
  0
LINE
  5
14F
330
37
100
AcDbEntity
  8
Center Mark (ANSI)
  6
CHAIN
 48
0.1547526866197586
100
AcDbLine
 10
1.091214116892911
 20
0.7358049018460895
 30
0.0
 11
1.091214116892911
 21
0.6800549018460896
 31
0.0
  0
LINE
  5
150
330
37
100
AcDbEntity
  8
Centerline (ANSI)
  6
CHAIN
 48
0.9524481296539306
100
AcDbLine
 10
0.7620883268929118
 20
0.8600549018460895
 30
0.0
 11
0.7620883268929118
 21
0.4403718878206013
 31
0.0
  0
LINE
  5
151
330
37
100
AcDbEntity
  8
Centerline (ANSI)
  6
CHAIN
 48
0.9524481296539306
100
AcDbLine
 10
1.161781995113837
 20
0.5800549018460896
 30
0.0
 11
0.7770883268929118
 21
0.5800549018460896
 31
0.0
  0
LINE
  5
152
330
37
100
AcDbEntity
  8
Centerline (ANSI)
  6
CHAIN
 48
0.5436204075813294
100
AcDbLine
 10
1.051214116892911
 20
0.5558049018460896
 30
0.0
 11
1.051214116892911
 21
0.3600549018460896
 31
0.0
  0
DIMENSION
  5
153
330
37
100
AcDbEntity
  8
Dimension (ANSI)
100
AcDbDimension
  2
*D5
 10
1.130164116892911
 20
0.1582885430595275
 30
0.0
 11
0.9665884068197824
 21
0.1582885430595275
 31
0.0
 70
   160
  1
<>
 42
0.36807579
  3
Default (ANSI)
100
AcDbAlignedDimension
 13
0.7620883268929118
 23
0.4403718878206013
 33
0.0
 14
1.130164116892911
 24
0.3850549018460896
 34
0.0
 50
180.0
100
AcDbRotatedDimension
1001
ACAD
1000
DSTYLE
1002
{
1070
    73
1070
     0
1070
    74
1070
     0
1070
   271
1070
     4
1070
   272
1070
     3
1070
    48
1040
0.0
1070
    47
1040
0.0
1002
}
  0
DIMENSION
  5
234
330
37
100
AcDbEntity
  8
Dimension (ANSI)
100
AcDbDimension
  2
*D6
 10
1.544523640952494
 20
0.6800549018460895
 30
0.0
 11
1.544523640952494
 21
0.5325549018460896
 31
0.0
 70
   160
  1
<>
 42
0.2949999999999999
  3
Default (ANSI)
100
AcDbAlignedDimension
 13
1.130164116892911
 23
0.3850549018460896
 33
0.0
 14
1.091214116892911
 24
0.6800549018460896
 34
0.0
 50
270.0
100
AcDbRotatedDimension
1001
ACAD
1000
DSTYLE
1002
{
1070
   271
1070
     3
1070
   272
1070
     3
1070
    48
1040
0.0
1070
    47
1040
0.0
1002
}
  0
LINE
  5
300
330
37
100
AcDbEntity
  8
Centerline (ANSI)
  6
CHAIN
 48
0.9524481296539306
100
AcDbLine
 10
1.131214116892911
 20
0.3189971082834531
 30
0.0
 11
1.131214116892911
 21
0.7050549018460897
 31
0.0
  0
DIMENSION
  5
301
330
37
100
AcDbEntity
  8
Dimension (ANSI)
100
AcDbDimension
  2
*D7
 10
1.131214116892911
 20
0.4416826674085609
 30
0.0
 11
1.2939941194976
 21
0.4416826674085609
 31
0.0
 70
   160
  1
<>
 42
0.0800000000000001
  3
Default (ANSI)
100
AcDbAlignedDimension
 13
1.051214116892911
 23
0.3629425099282459
 33
0.0
 14
1.131214116892911
 24
0.3434621652298098
 34
0.0
 50
180.0
100
AcDbRotatedDimension
1001
ACAD
1000
DSTYLE
1002
{
1070
    73
1070
     0
1070
    74
1070
     0
1070
   271
1070
     3
1070
    76
1070
     1
1070
    75
1070
     1
1070
   272
1070
     3
1070
    48
1040
0.0
1070
    47
1040
0.0
1002
}
  0
DIMENSION
  5
3D6
330
37
100
AcDbEntity
  8
Dimension (ANSI)
100
AcDbDimension
  2
*D8
 10
1.429498530546907
 20
0.3850549018460895
 30
0.0
 11
1.429498530546907
 21
0.4825549018460897
 31
0.0
 70
   160
  1
<>*B
 42
0.1949999999999999
  3
Default (ANSI)
100
AcDbAlignedDimension
 13
1.161781995113837
 23
0.5800549018460896
 33
0.0
 14
1.130164116892911
 24
0.3850549018460896
 34
0.0
 50
90.0
100
AcDbRotatedDimension
1001
ACAD
1000
DSTYLE
1002
{
1070
   271
1070
     3
1070
   272
1070
     3
1070
    48
1040
0.0
1070
    47
1040
0.0
1002
}
  0
DIMENSION
  5
4A2
330
37
100
AcDbEntity
  8
Dimension (ANSI)
100
AcDbDimension
  2
*D9
 10
1.091214116892911
 20
0.6800549018460899
 30
0.0
 11
1.325124067608348
 21
0.7525699304585193
 31
0.0
 70
   164
  1
<>
 42
0.0307500000000003
  3
Default (ANSI)
100
AcDbRadialDimension
 15
1.117844398059284
 25
0.6954299018460869
 35
0.0
 40
0.0
1001
ACAD
1000
DSTYLE
1002
{
1070
   271
1070
     4
1070
   141
1040
0.0
1070
   272
1070
     3
1070
    48
1040
0.0
1070
    47
1040
0.0
1002
}
  0
DIMENSION
  5
539
330
37
100
AcDbEntity
  8
Dimension (ANSI)
100
AcDbDimension
  2
*D10
 10
0.7528383268929117
 20
0.7776075369884903
 30
0.0
 11
0.6188460724142183
 21
0.7776075369884903
 31
0.0
 70
   160
  1
<>
 42
0.0185
  3
Default (ANSI)
100
AcDbAlignedDimension
 13
0.7713383268929118
 23
0.668253129800418
 33
0.0
 14
0.7528383268929117
 24
0.668253129800418
 34
0.0
 50
180.0
100
AcDbRotatedDimension
1001
ACAD
1000
DSTYLE
1002
{
1070
    73
1070
     0
1070
    74
1070
     0
1070
   271
1070
     4
1070
   272
1070
     3
1070
    48
1040
0.0
1070
    47
1040
0.0
1002
}
  0
DIMENSION
  5
619
330
37
100
AcDbEntity
  8
Dimension (ANSI)
100
AcDbDimension
  2
*D11
 10
1.131214116892911
 20
0.2189206091322092
 30
0.0
 11
1.301232232046014
 21
0.2189206091322092
 31
0.0
 70
   160
  1
<>
 42
0.00105
  3
Default (ANSI)
100
AcDbAlignedDimension
 13
1.130164116892911
 23
0.3850549018460896
 33
0.0
 14
1.131214116892911
 24
0.3449048611007132
 34
0.0
100
AcDbRotatedDimension
1001
ACAD
1000
DSTYLE
1002
{
1070
    73
1070
     0
1070
    74
1070
     0
1070
   271
1070
     3
1070
   272
1070
     3
1070
    48
1040
0.0
1070
    47
1040
0.0
1002
}
  0
DIMENSION
  5
6F9
330
37
100
AcDbEntity
  8
Dimension (ANSI)
100
AcDbDimension
  2
*D12
 10
1.011214116892911
 20
0.3474407558356945
 30
0.0
 11
0.9050236922662969
 21
0.3474407558356945
 31
0.0
 70
   160
  1
<>*A
 42
0.1189500000000001
  3
Default (ANSI)
100
AcDbAlignedDimension
 13
1.130164116892911
 23
0.3935549018460896
 33
0.0
 14
1.011214116892911
 24
0.5308049018460897
 34
0.0
100
AcDbRotatedDimension
1001
ACAD
1000
DSTYLE
1002
{
1070
    73
1070
     0
1070
    74
1070
     0
1070
   271
1070
     3
1070
   272
1070
     3
1070
    48
1040
0.0
1070
    47
1040
0.0
1002
}
  0
MTEXT
  5
7DA
330
37
100
AcDbEntity
  8
Symbol (ANSI)
100
AcDbMText
 10
0.3079986829328082
 20
0.1923681488244935
 30
0.0
 40
0.0359999992716031
 41
0.0
 71
     7
 72
     1
  1
 Y Junction 
  7
Text Style30
 73
     1
 44
1.0
1001
ACAD
1000
MTEXTBEGIN
1070
    73
1070
     1
1070
    44
1040
1.0
1070
    74
1070
     0
1000
MTEXTEND
  0
MTEXT
  5
7DB
330
37
100
AcDbEntity
  8
Symbol (ANSI)
100
AcDbMText
 10
0.428236928170339
 20
0.1338536076029797
 30
0.0
 40
0.0359999992716031
 41
0.0
 71
     7
 72
     1
  1
 
  7
Text Style30
 73
     1
 44
1.0
1001
ACAD
1000
MTEXTBEGIN
1070
    73
1070
     1
1070
    44
1040
1.0
1070
    74
1070
     0
1000
MTEXTEND
  0
LINE
  5
7DC
330
37
100
AcDbEntity
  8
Sketch Geometry (ANSI)
100
AcDbLine
 10
0.9354132078174945
 20
0.6329404480320853
 30
0.0
 11
1.079350465499275
 21
0.6329404480320853
 31
0.0
  0
LINE
  5
7DD
330
37
100
AcDbEntity
  8
Sketch Geometry (ANSI)
100
AcDbLine
 10
1.079350465499275
 20
0.6329404480320853
 30
0.0
 11
1.079350465499275
 21
0.5085793765646974
 31
0.0
  0
LINE
  5
7DE
330
37
100
AcDbEntity
  8
Sketch Geometry (ANSI)
100
AcDbLine
 10
1.079350465499275
 20
0.5085793765646974
 30
0.0
 11
0.9354132078174945
 21
0.5085793765646974
 31
0.0
  0
LINE
  5
7DF
330
37
100
AcDbEntity
  8
Sketch Geometry (ANSI)
100
AcDbLine
 10
0.9354132078174945
 20
0.5085793765646974
 30
0.0
 11
0.9354132078174945
 21
0.6329404480320853
 31
0.0
  0
LINE
  5
7E0
330
37
100
AcDbEntity
  8
Sketch Geometry (ANSI)
100
AcDbLine
 10
0.9354132078174945
 20
0.5085793765646974
 30
0.0
 11
0.5094624427945994
 21
0.2537037552799546
 31
0.0
  0
DIMENSION
  5
7E1
330
37
100
AcDbEntity
  8
Dimension (ANSI)
100
AcDbDimension
  2
*D13
 10
0.8020883268929118
 20
0.62005490184609
 30
0.0
 11
1.032492627556268
 21
0.8870902626343026
 31
0.0
 70
   164
  1
<>
 42
0.0307500000000003
  3
Default (ANSI)
100
AcDbRadialDimension
 15
0.7893019163337872
 25
0.5920893837029637
 35
0.0
 40
0.0
1001
ACAD
1000
DSTYLE
1002
{
1070
   271
1070
     4
1070
   141
1040
0.0
1070
   272
1070
     3
1070
    48
1040
0.0
1070
    47
1040
0.0
1002
}
  0
MTEXT
  5
876
330
37
100
AcDbEntity
  8
Symbol (ANSI)
100
AcDbMText
 10
1.979070421529123
 20
0.2092652296721246
 30
0.0
 40
0.0240000002966153
 41
0.0
 71
     1
 72
     1
  1
{B2}
  7
Note Text (ANSI)
 73
     1
 44
1.0
1001
ACAD
1000
MTEXTBEGIN
1070
    73
1070
     1
1070
    44
1040
1.0
1070
    74
1070
     0
1000
MTEXTEND
  0
DIMENSION
  5
877
330
37
100
AcDbEntity
  8
Dimension (ANSI)
100
AcDbDimension
  2
*D14
 10
1.091214116892911
 20
0.2890521299576839
 30
0.0
 11
0.9780094759099291
 21
0.2890521299576839
 31
0.0
 70
   160
  1
<>
 42
0.0389500000000001
  3
Default (ANSI)
100
AcDbAlignedDimension
 13
1.130164116892911
 23
0.3850549018460896
 33
0.0
 14
1.091214116892911
 24
0.6800549018460896
 34
0.0
100
AcDbRotatedDimension
1001
ACAD
1000
DSTYLE
1002
{
1070
    73
1070
     0
1070
    74
1070
     0
1070
   271
1070
     3
1070
   272
1070
     3
1070
    48
1040
0.0
1070
    47
1040
0.0
1002
}
  0
DIMENSION
  5
957
330
37
100
AcDbEntity
  8
Dimension (ANSI)
100
AcDbDimension
  2
*D15
 10
1.091214116892911
 20
0.6800549018460892
 30
0.0
 11
1.322974522939443
 21
0.812363027592089
 31
0.0
 70
   164
  1
<>
 42
0.0492500000000005
  3
Default (ANSI)
100
AcDbRadialDimension
 15
1.124812848128201
 25
0.7160644527927308
 35
0.0
 40
0.0
1001
ACAD
1000
DSTYLE
1002
{
1070
   271
1070
     4
1070
   141
1040
0.0
1070
   272
1070
     3
1070
    48
1040
0.0
1070
    47
1040
0.0
1002
}
  0
MTEXT
  5
9EE
102
{ACAD_REACTORS
330
9EF
102
}
330
37
100
AcDbEntity
  8
Symbol (ANSI)
100
AcDbMText
 10
0.6704445686210847
 20
0.7306827996857069
 30
0.0
 40
0.0240000002966153
 41
0.1509432717571108
 71
     3
 72
     1
  1
{0.0185 DP}
  7
Note Text (ANSI)
 73
     1
 44
1.0
1001
ACAD
1000
MTEXTBEGIN
1070
    73
1070
     1
1070
    44
1040
1.0
1070
    74
1070
     0
1000
MTEXTEND
  0
LEADER
  5
9EF
330
37
100
AcDbEntity
  8
Symbol (ANSI)
100
AcDbLeader
  3
Default (ANSI)$7
 73
     0
 40
0.0250960379192948
 41
0.149044998484084
 76
     3
 10
0.7623793392606976
 20
0.6750956367918128
 30
0.0
 10
0.6901296079911634
 20
0.7186827995373993
 30
0.0
 10
0.6767437812195098
 20
0.7186827995373993
 30
0.0
340
9EE
210
0.0
220
0.0
230
-1.0
213
0.0
223
-0.0120000001483076
233
0.0
1001
ACAD
1000
DSTYLE
1002
{
1070
    77
1070
     0
1070
    41
1040
0.0492125984251969
1070
   341
1005
9F0
1002
}
  0
MTEXT
  5
9F5
102
{ACAD_REACTORS
330
9F6
102
}
330
37
100
AcDbEntity
  8
Symbol (ANSI)
100
AcDbMText
 10
1.240410382669653
 20
0.2947101509835916
 30
0.0
 40
0.0240000002966153
 41
0.208395466091126
 71
     1
 72
     1
  1
{TUNING STUB}
  7
Note Text (ANSI)
 73
     1
 44
1.0
1001
ACAD
1000
MTEXTBEGIN
1070
    73
1070
     1
1070
    44
1040
1.0
1070
    74
1070
     0
1000
MTEXTEND
  0
LEADER
  5
9F6
330
37
100
AcDbEntity
  8
Symbol (ANSI)
100
AcDbLeader
  3
Default (ANSI)$7
 73
     0
 40
0.0249348559159596
 41
0.2077152476981065
 76
     3
 10
1.125678129056132
 20
0.3899559386321975
 30
0.0
 10
1.220725343299574
 20
0.282710150835284
 30
0.0
 10
1.234111170071227
 20
0.282710150835284
 30
0.0
340
9F5
210
0.0
220
0.0
230
-1.0
213
0.0
223
-0.0120000001483076
233
0.0
1001
ACAD
1000
DSTYLE
1002
{
1070
    77
1070
     0
1070
    41
1040
0.0492125984251969
1070
   341
1005
9F0
1002
}
  0
MTEXT
  5
9F7
330
37
100
AcDbEntity
  8
Symbol (ANSI)
100
AcDbMText
 10
1.838981019185395
 20
1.572985778507442
 30
0.0
 40
0.0240000002966153
 41
0.2492576884472464
 71
     1
 72
     1
  1
{3 OF 4 (BLOCK2)}
  7
Note Text (ANSI)
 73
     1
 44
1.0
1001
ACAD
1000
MTEXTBEGIN
1070
    73
1070
     1
1070
    44
1040
1.0
1070
    74
1070
     0
1000
MTEXTEND
  0
LINE
  5
9F8
330
37
100
AcDbEntity
  8
Visible (ANSI)
100
AcDbLine
 10
1.200464116892861
 20
1.117190733849802
 30
0.0
 11
1.200464116892861
 21
1.567190733849802
 31
0.0
  0
LINE
  5
9F9
330
37
100
AcDbEntity
  8
Visible (ANSI)
100
AcDbLine
 10
0.3004641268928618
 20
1.567190733849802
 30
0.0
 11
1.200464116892861
 21
1.567190733849802
 31
0.0
  0
LINE
  5
9FA
330
37
100
AcDbEntity
  8
Visible (ANSI)
100
AcDbLine
 10
1.200464116892861
 20
1.117190733849802
 30
0.0
 11
0.7713373268928616
 21
1.117190733849802
 31
0.0
  0
LINE
  5
9FB
330
37
100
AcDbEntity
  8
Visible (ANSI)
100
AcDbLine
 10
0.7713373268928616
 20
1.117190733849727
 30
0.0
 11
0.7528393268928616
 21
1.117190733849738
 31
0.0
  0
LINE
  5
9FC
330
37
100
AcDbEntity
  8
Visible (ANSI)
100
AcDbLine
 10
0.7528393268928616
 20
1.117190733849802
 30
0.0
 11
0.3004641268928618
 21
1.117190733849802
 31
0.0
  0
LINE
  5
9FD
330
37
100
AcDbEntity
  8
Visible (ANSI)
100
AcDbLine
 10
0.7528393268928616
 20
1.117190733849802
 30
0.0
 11
0.7528393268928616
 21
1.135690733849802
 31
0.0
  0
LINE
  5
9FE
330
37
100
AcDbEntity
  8
Visible (ANSI)
100
AcDbLine
 10
0.7528393268928616
 20
1.135690733849802
 30
0.0
 11
0.7713373268928616
 21
1.135690733849802
 31
0.0
  0
LINE
  5
9FF
330
37
100
AcDbEntity
  8
Visible (ANSI)
100
AcDbLine
 10
0.7713373268928616
 20
1.135690733849802
 30
0.0
 11
0.7713373268928616
 21
1.117190733849802
 31
0.0
  0
LINE
  5
A00
330
37
100
AcDbEntity
  8
Visible (ANSI)
100
AcDbLine
 10
0.3004641268928618
 20
1.117190733849802
 30
0.0
 11
0.3004641268928618
 21
1.567190733849802
 31
0.0
  0
CIRCLE
  5
A01
330
37
100
AcDbEntity
  8
Visible (ANSI)
100
AcDbCircle
 10
0.6630933776928618
 20
1.216185683049801
 30
0.0
 40
0.0445
  0
CIRCLE
  5
A02
330
37
100
AcDbEntity
  8
Visible (ANSI)
100
AcDbCircle
 10
0.8610832760928616
 20
1.216185683049801
 30
0.0
 40
0.0445
  0
CIRCLE
  5
A03
330
37
100
AcDbEntity
  8
Visible (ANSI)
100
AcDbCircle
 10
0.8610832760928616
 20
1.216185683049802
 30
0.0
 40
0.0475
  0
CIRCLE
  5
A04
330
37
100
AcDbEntity
  8
Visible (ANSI)
100
AcDbCircle
 10
0.6630933776928618
 20
1.216185683049802
 30
0.0
 40
0.0475
  0
CIRCLE
  5
A05
330
37
100
AcDbEntity
  8
Visible (ANSI)
100
AcDbCircle
 10
0.7620883268928617
 20
1.257190733849802
 30
0.0
 40
0.03475
  0
CIRCLE
  5
A06
330
37
100
AcDbEntity
  8
Visible (ANSI)
100
AcDbCircle
 10
0.7620883268928617
 20
1.257190733849801
 30
0.0
 40
0.03175
  0
INSERT
  5
A2D
330
37
100
AcDbEntity
  8
Dimension (ANSI)
100
AcDbBlockReference
  2
Origin Indicator Symbol4
 10
0.0
 20
0.0
 30
0.0
 41
0.2
 42
0.2
 43
0.2
  0
INSERT
  5
A5D
330
37
100
AcDbEntity
  8
Symbol (ANSI)
100
AcDbBlockReference
  2
Hole Table4
 10
0.0
 20
0.0
 30
0.0
 41
0.2
 42
0.2
 43
0.2
  0
INSERT
  5
A6F
330
37
100
AcDbEntity
  8
Symbol (ANSI)
100
AcDbBlockReference
  2
Leader Text15
 10
0.0
 20
0.0
 30
0.0
 41
0.2
 42
0.2
 43
0.2
  0
DIMENSION
  5
A70
330
37
100
AcDbEntity
  8
Dimension (ANSI)
100
AcDbDimension
  2
*D20
 10
0.8020883268929118
 20
0.6200549018460898
 30
0.0
 11
0.5947474700651643
 21
0.5628795467418377
 31
0.0
 70
   164
  1
<>
 42
0.04925
  3
Default (ANSI)
100
AcDbRadialDimension
 15
0.7594365757565259
 25
0.5954299018460939
 35
0.0
 40
0.0
1001
ACAD
1000
DSTYLE
1002
{
1070
   271
1070
     4
1070
   141
1040
0.0
1070
   272
1070
     3
1070
    48
1040
0.0
1070
    47
1040
0.0
1002
}
  0
ENDSEC
  0
SECTION
  2
OBJECTS
  0
DICTIONARY
  5
C
330
0
100
AcDbDictionary
281
     1
  3
ACAD_COLOR
350
30
  3
ACAD_GROUP
350
D
  3
ACAD_LAYOUT
350
2F
  3
ACAD_MATERIAL
350
10
  3
ACAD_MLINESTYLE
350
2C
  3
ACAD_PLOTSETTINGS
350
2E
  3
ACAD_PLOTSTYLENAME
350
E
  3
ACAD_TABLESTYLE
350
31
  3
ACAD_VISUALSTYLE
350
14
  3
AcDbVariableDictionary
350
B07
  3
DWGPROPS
350
B0D
  0
DICTIONARY
  5
30
102
{ACAD_REACTORS
330
C
102
}
330
C
100
AcDbDictionary
281
     1
  0
DICTIONARY
  5
D
102
{ACAD_REACTORS
330
C
102
}
330
C
100
AcDbDictionary
281
     1
  0
DICTIONARY
  5
2F
102
{ACAD_REACTORS
330
C
102
}
330
C
100
AcDbDictionary
281
     1
  3
Layout1
350
36
  3
Layout2
350
3E
  3
Model
350
3A
  0
DICTIONARY
  5
10
102
{ACAD_REACTORS
330
C
102
}
330
C
100
AcDbDictionary
281
     1
  3
ByBlock
350
12
  3
ByLayer
350
11
  3
Global
350
13
  0
DICTIONARY
  5
2C
102
{ACAD_REACTORS
330
C
102
}
330
C
100
AcDbDictionary
281
     1
  3
Standard
350
2D
  0
DICTIONARY
  5
2E
102
{ACAD_REACTORS
330
C
102
}
330
C
100
AcDbDictionary
281
     1
  0
ACDBDICTIONARYWDFLT
  5
E
102
{ACAD_REACTORS
330
C
102
}
330
C
100
AcDbDictionary
281
     1
  3
Normal
350
F
100
AcDbDictionaryWithDefault
340
F
  0
DICTIONARY
  5
31
102
{ACAD_REACTORS
330
C
102
}
330
C
100
AcDbDictionary
281
     1
  3
Standard
350
32
  0
DICTIONARY
  5
14
102
{ACAD_REACTORS
330
C
102
}
330
C
100
AcDbDictionary
281
     1
  3
2dWireframe
350
1A
  3
3D Hidden
350
1C
  3
3dWireframe
350
1B
  3
Basic
350
19
  3
Brighten
350
20
  3
ColorChange
350
24
  3
Conceptual
350
1D
  3
Dim
350
1F
  3
Facepattern
350
23
  3
Flat
350
15
  3
FlatWithEdges
350
16
  3
Gouraud
350
17
  3
GouraudWithEdges
350
18
  3
Linepattern
350
22
  3
Realistic
350
1E
  3
Thicken
350
21
  0
DICTIONARY
  5
B07
102
{ACAD_REACTORS
330
C
102
}
330
C
100
AcDbDictionary
281
     1
  3
CTABLESTYLE
350
B08
  3
DIMASSOC
350
B0C
  3
HIDETEXT
350
B0B
  3
INDEXCTL
350
B0A
  3
SORTENTS
350
B09
  0
XRECORD
  5
B0D
102
{ACAD_REACTORS
330
C
102
}
330
C
100
AcDbXrecord
280
     1
  1
DWGPROPS COOKIE
  2

  3

  4
Da Chow
  6

  7

  8

  9

300
Manager=
301
Company=RADIO ASTRONOMY LABORATORY
302
Category=
303
Part Number=Block2-V61
304
Description=
305
Project=
306
Designer=Da Chow
307
Engineer=
308
Authority=
309
Cost Center=
 40
0.0000312847222222
 41
2454846.693007628
 42
2454846.693007628
  1

 90
       17
300
Vendor=
300
User Status=REV
300
Design Status=WorkInProgress
300
Checked by=
300
Date Checked=01/14/2009
300
Engr Approved by=
300
Mfg Approved by=
  0
LAYOUT
  5
36
102
{ACAD_XDICTIONARY
360
B16
102
}
102
{ACAD_REACTORS
330
2F
102
}
330
2F
100
AcDbPlotSettings
  1

  2

  4

  6

 40
0.0
 41
0.0
 42
0.0
 43
0.0
 44
0.0
 45
0.0
 46
0.0
 47
0.0
 48
0.0
 49
0.0
140
0.0
141
0.0
142
1.0
143
1.0
 70
   688
 72
     0
 73
     0
 74
     5
  7

 75
    16
147
1.0
148
0.0
149
0.0
100
AcDbLayout
  1
Layout1
 70
     1
 71
     1
 10
0.0
 20
0.0
 11
12.0
 21
9.0
 12
0.0
 22
0.0
 32
0.0
 14
0.0
 24
0.0
 34
0.0
 15
0.0
 25
0.0
 35
0.0
146
0.0
 13
0.0
 23
0.0
 33
0.0
 16
1.0
 26
0.0
 36
0.0
 17
0.0
 27
1.0
 37
0.0
 76
     0
330
33
  0
LAYOUT
  5
3E
102
{ACAD_XDICTIONARY
360
B1A
102
}
102
{ACAD_REACTORS
330
2F
102
}
330
2F
100
AcDbPlotSettings
  1

  2

  4

  6

 40
0.0
 41
0.0
 42
0.0
 43
0.0
 44
0.0
 45
0.0
 46
0.0
 47
0.0
 48
0.0
 49
0.0
140
0.0
141
0.0
142
1.0
143
1.0
 70
   688
 72
     0
 73
     0
 74
     5
  7

 75
    16
147
1.0
148
0.0
149
0.0
100
AcDbLayout
  1
Layout2
 70
     1
 71
     2
 10
0.0
 20
0.0
 11
12.0
 21
9.0
 12
0.0
 22
0.0
 32
0.0
 14
0.0
 24
0.0
 34
0.0
 15
0.0
 25
0.0
 35
0.0
146
0.0
 13
0.0
 23
0.0
 33
0.0
 16
1.0
 26
0.0
 36
0.0
 17
0.0
 27
1.0
 37
0.0
 76
     0
330
3B
  0
LAYOUT
  5
3A
102
{ACAD_XDICTIONARY
360
B18
102
}
102
{ACAD_REACTORS
330
2F
102
}
330
2F
100
AcDbPlotSettings
  1

  2

  4

  6

 40
0.0
 41
0.0
 42
0.0
 43
0.0
 44
0.0
 45
0.0
 46
0.0
 47
0.0
 48
0.0
 49
0.0
140
0.0
141
0.0
142
1.0
143
1.0
 70
  1712
 72
     0
 73
     0
 74
     0
  7

 75
     0
147
1.0
148
0.0
149
0.0
100
AcDbLayout
  1
Model
 70
     1
 71
     0
 10
0.0
 20
0.0
 11
12.0
 21
9.0
 12
0.0
 22
0.0
 32
0.0
 14
0.0
 24
0.0
 34
0.0
 15
0.0
 25
0.0
 35
0.0
146
0.0
 13
0.0
 23
0.0
 33
0.0
 16
1.0
 26
0.0
 36
0.0
 17
0.0
 27
1.0
 37
0.0
 76
     0
330
37
  0
MATERIAL
  5
12
102
{ACAD_XDICTIONARY
360
B10
102
}
102
{ACAD_REACTORS
330
10
102
}
330
10
100
AcDbMaterial
  1
ByBlock
  0
MATERIAL
  5
11
102
{ACAD_XDICTIONARY
360
B0E
102
}
102
{ACAD_REACTORS
330
10
102
}
330
10
100
AcDbMaterial
  1
ByLayer
  0
MATERIAL
  5
13
102
{ACAD_XDICTIONARY
360
B12
102
}
102
{ACAD_REACTORS
330
10
102
}
330
10
100
AcDbMaterial
  1
Global
  0
MLINESTYLE
  5
2D
102
{ACAD_REACTORS
330
2C
102
}
330
2C
100
AcDbMlineStyle
  2
STANDARD
 70
     0
  3

 62
   256
 51
90.0
 52
90.0
 71
     2
 49
0.5
 62
   256
  6
BYLAYER
 49
-0.5
 62
   256
  6
BYLAYER
  0
ACDBPLACEHOLDER
  5
F
102
{ACAD_REACTORS
330
E
102
}
330
E
  0
TABLESTYLE
  5
32
102
{ACAD_XDICTIONARY
360
B14
102
}
102
{ACAD_REACTORS
330
31
102
}
330
31
100
AcDbTableStyle
  3
Standard
 70
     0
 71
     0
 40
0.06
 41
0.06
280
     0
281
     0
  7
Standard
140
0.18
170
     2
 62
     0
 63
     7
283
     0
274
    -2
284
     1
 64
     0
275
    -2
285
     1
 65
     0
276
    -2
286
     1
 66
     0
277
    -2
287
     1
 67
     0
278
    -2
288
     1
 68
     0
279
    -2
289
     1
 69
     0
  7
Standard
140
0.25
170
     5
 62
     0
 63
     7
283
     0
274
    -2
284
     1
 64
     0
275
    -2
285
     1
 65
     0
276
    -2
286
     1
 66
     0
277
    -2
287
     1
 67
     0
278
    -2
288
     1
 68
     0
279
    -2
289
     1
 69
     0
  7
Standard
140
0.18
170
     5
 62
     0
 63
     7
283
     0
274
    -2
284
     1
 64
     0
275
    -2
285
     1
 65
     0
276
    -2
286
     1
 66
     0
277
    -2
287
     1
 67
     0
278
    -2
288
     1
 68
     0
279
    -2
289
     1
 69
     0
  0
VISUALSTYLE
  5
1A
102
{ACAD_REACTORS
330
14
102
}
330
14
100
AcDbVisualStyle
  2
2dWireframe
 70
     4
 71
     0
 72
     2
 73
     0
 90
        0
 40
-0.6
 41
-30.0
 62
     5
 63
     7
 74
     1
 91
        4
 64
     7
 65
   257
 75
     1
175
     1
 42
1.0
 92
        0
 66
   257
 43
1.0
 76
     1
 77
     6
 78
     2
 67
     7
 79
     5
170
     0
171
     0
290
     0
174
     0
 93
        1
 44
0.0
173
     0
291
     0
 45
0.0
1001
ACAD
1000
AcDbSavedByObjectVersion
1070
     0
  0
VISUALSTYLE
  5
1C
102
{ACAD_REACTORS
330
14
102
}
330
14
100
AcDbVisualStyle
  2
3D Hidden
 70
     6
 71
     1
 72
     2
 73
     2
 90
        0
 40
-0.6
 41
-30.0
 62
     5
 63
     7
 74
     2
 91
        2
 64
     7
 65
   257
 75
     2
175
     1
 42
40.0
 92
        0
 66
   257
 43
1.0
 76
     1
 77
     6
 78
     2
 67
     7
 79
     3
170
     0
171
     0
290
     0
174
     0
 93
        1
 44
0.0
173
     0
291
     0
 45
0.0
1001
ACAD
1000
AcDbSavedByObjectVersion
1070
     0
  0
VISUALSTYLE
  5
1B
102
{ACAD_REACTORS
330
14
102
}
330
14
100
AcDbVisualStyle
  2
3dWireframe
 70
     5
 71
     0
 72
     2
 73
     0
 90
        0
 40
-0.6
 41
-30.0
 62
     5
 63
     7
 74
     1
 91
        4
 64
     7
 65
   257
 75
     1
175
     1
 42
1.0
 92
        0
 66
   257
 43
1.0
 76
     1
 77
     6
 78
     2
 67
     7
 79
     5
170
     0
171
     0
290
     0
174
     0
 93
        1
 44
0.0
173
     0
291
     0
 45
0.0
1001
ACAD
1000
AcDbSavedByObjectVersion
1070
     0
  0
VISUALSTYLE
  5
19
102
{ACAD_REACTORS
330
14
102
}
330
14
100
AcDbVisualStyle
  2
Basic
 70
     7
 71
     1
 72
     0
 73
     1
 90
        0
 40
-0.6
 41
-30.0
 62
     5
 63
     7
 74
     0
 91
        4
 64
     7
 65
   257
 75
     1
175
     1
 42
1.0
 92
        8
 66
     7
 43
1.0
 76
     1
 77
     6
 78
     2
 67
     7
 79
     5
170
     0
171
     0
290
     0
174
     0
 93
        1
 44
0.0
173
     0
291
     1
 45
0.0
1001
ACAD
1000
AcDbSavedByObjectVersion
1070
     0
  0
VISUALSTYLE
  5
20
102
{ACAD_REACTORS
330
14
102
}
330
14
100
AcDbVisualStyle
  2
Brighten
 70
    12
 71
     2
 72
     2
 73
     0
 90
        0
 40
-0.6
 41
-30.0
 62
     5
 63
     7
 74
     1
 91
        4
 64
     7
 65
   257
 75
     1
175
     1
 42
1.0
 92
        8
 66
     7
 43
1.0
 76
     1
 77
     6
 78
     2
 67
     7
 79
     5
170
     0
171
     0
290
     0
174
     0
 93
        1
 44
50.0
173
     0
291
     1
 45
0.0
1001
ACAD
1000
AcDbSavedByObjectVersion
1070
     0
  0
VISUALSTYLE
  5
24
102
{ACAD_REACTORS
330
14
102
}
330
14
100
AcDbVisualStyle
  2
ColorChange
 70
    16
 71
     2
 72
     2
 73
     3
 90
        0
 40
-0.6
 41
-30.0
 62
     5
 63
     8
 74
     1
 91
        4
 64
     7
 65
   257
 75
     1
175
     1
 42
1.0
 92
        8
 66
     8
 43
1.0
 76
     1
 77
     6
 78
     2
 67
     7
 79
     5
170
     0
171
     0
290
     0
174
     0
 93
        1
 44
0.0
173
     0
291
     1
 45
0.0
1001
ACAD
1000
AcDbSavedByObjectVersion
1070
     0
  0
VISUALSTYLE
  5
1D
102
{ACAD_REACTORS
330
14
102
}
330
14
100
AcDbVisualStyle
  2
Conceptual
 70
     9
 71
     3
 72
     2
 73
     0
 90
        0
 40
-0.6
 41
-30.0
 62
     5
 63
     7
 74
     2
 91
        2
 64
     7
 65
   257
 75
     1
175
     1
 42
40.0
 92
        8
 66
     7
 43
1.0
 76
     1
 77
     6
 78
     2
 67
     7
 79
     3
170
     0
171
     0
290
     0
174
     0
 93
        1
 44
0.0
173
     0
291
     0
 45
0.0
1001
ACAD
1000
AcDbSavedByObjectVersion
1070
     0
  0
VISUALSTYLE
  5
1F
102
{ACAD_REACTORS
330
14
102
}
330
14
100
AcDbVisualStyle
  2
Dim
 70
    11
 71
     2
 72
     2
 73
     0
 90
        0
 40
-0.6
 41
-30.0
 62
     5
 63
     7
 74
     1
 91
        4
 64
     7
 65
   257
 75
     1
175
     1
 42
1.0
 92
        8
 66
     7
 43
1.0
 76
     1
 77
     6
 78
     2
 67
     7
 79
     5
170
     0
171
     0
290
     0
174
     0
 93
        1
 44
-50.0
173
     0
291
     1
 45
0.0
1001
ACAD
1000
AcDbSavedByObjectVersion
1070
     0
  0
VISUALSTYLE
  5
23
102
{ACAD_REACTORS
330
14
102
}
330
14
100
AcDbVisualStyle
  2
Facepattern
 70
    15
 71
     2
 72
     2
 73
     0
 90
        0
 40
-0.6
 41
-30.0
 62
     5
 63
     7
 74
     1
 91
        4
 64
     7
 65
   257
 75
     1
175
     1
 42
1.0
 92
        8
 66
     7
 43
1.0
 76
     1
 77
     6
 78
     2
 67
     7
 79
     5
170
     0
171
     0
290
     0
174
     0
 93
        1
 44
0.0
173
     0
291
     1
 45
0.0
1001
ACAD
1000
AcDbSavedByObjectVersion
1070
     0
  0
VISUALSTYLE
  5
15
102
{ACAD_REACTORS
330
14
102
}
330
14
100
AcDbVisualStyle
  2
Flat
 70
     0
 71
     2
 72
     1
 73
     1
 90
        2
 40
-0.6
 41
30.0
 62
     5
 63
     7
 74
     0
 91
        4
 64
     7
 65
   257
 75
     1
175
     1
 42
1.0
 92
        8
 66
     7
 43
1.0
 76
     1
 77
     6
 78
     2
 67
     7
 79
     5
170
     0
171
     0
290
     0
174
     0
 93
       13
 44
0.0
173
     0
291
     1
 45
0.0
1001
ACAD
1000
AcDbSavedByObjectVersion
1070
     0
  0
VISUALSTYLE
  5
16
102
{ACAD_REACTORS
330
14
102
}
330
14
100
AcDbVisualStyle
  2
FlatWithEdges
 70
     1
 71
     2
 72
     1
 73
     1
 90
        2
 40
-0.6
 41
30.0
 62
     5
 63
     7
 74
     1
 91
        4
 64
     7
 65
   257
 75
     1
175
     1
 42
1.0
 92
        0
 66
   257
 43
1.0
 76
     1
 77
     6
 78
     2
 67
     7
 79
     5
170
     0
171
     0
290
     0
174
     0
 93
       13
 44
0.0
173
     0
291
     1
 45
0.0
1001
ACAD
1000
AcDbSavedByObjectVersion
1070
     0
  0
VISUALSTYLE
  5
17
102
{ACAD_REACTORS
330
14
102
}
330
14
100
AcDbVisualStyle
  2
Gouraud
 70
     2
 71
     2
 72
     2
 73
     1
 90
        2
 40
-0.6
 41
30.0
 62
     5
 63
     7
 74
     0
 91
        4
 64
     7
 65
   257
 75
     1
175
     1
 42
1.0
 92
        0
 66
     7
 43
1.0
 76
     1
 77
     6
 78
     2
 67
     7
 79
     5
170
     0
171
     0
290
     0
174
     0
 93
       13
 44
0.0
173
     0
291
     1
 45
0.0
1001
ACAD
1000
AcDbSavedByObjectVersion
1070
     0
  0
VISUALSTYLE
  5
18
102
{ACAD_REACTORS
330
14
102
}
330
14
100
AcDbVisualStyle
  2
GouraudWithEdges
 70
     3
 71
     2
 72
     2
 73
     1
 90
        2
 40
-0.6
 41
30.0
 62
     5
 63
     7
 74
     1
 91
        4
 64
     7
 65
   257
 75
     1
175
     1
 42
1.0
 92
        0
 66
   257
 43
1.0
 76
     1
 77
     6
 78
     2
 67
     7
 79
     5
170
     0
171
     0
290
     0
174
     0
 93
       13
 44
0.0
173
     0
291
     1
 45
0.0
1001
ACAD
1000
AcDbSavedByObjectVersion
1070
     0
  0
VISUALSTYLE
  5
22
102
{ACAD_REACTORS
330
14
102
}
330
14
100
AcDbVisualStyle
  2
Linepattern
 70
    14
 71
     2
 72
     2
 73
     0
 90
        0
 40
-0.6
 41
-30.0
 62
     5
 63
     7
 74
     1
 91
        4
 64
     7
 65
   257
 75
     7
175
     7
 42
1.0
 92
        8
 66
     7
 43
1.0
 76
     1
 77
     6
 78
     2
 67
     7
 79
     5
170
     0
171
     0
290
     0
174
     0
 93
        1
 44
0.0
173
     0
291
     1
 45
0.0
1001
ACAD
1000
AcDbSavedByObjectVersion
1070
     0
  0
VISUALSTYLE
  5
1E
102
{ACAD_REACTORS
330
14
102
}
330
14
100
AcDbVisualStyle
  2
Realistic
 70
     8
 71
     2
 72
     2
 73
     0
 90
        0
 40
-0.6
 41
-30.0
 62
     5
 63
     7
 74
     1
 91
        0
 64
     7
 65
   257
 75
     1
175
     1
 42
1.0
 92
        8
 66
     8
 43
1.0
 76
     1
 77
     6
 78
     2
 67
     7
 79
     5
170
     0
171
     0
290
     0
174
     0
 93
       13
 44
0.0
173
     0
291
     0
 45
0.0
1001
ACAD
1000
AcDbSavedByObjectVersion
1070
     0
  0
VISUALSTYLE
  5
21
102
{ACAD_REACTORS
330
14
102
}
330
14
100
AcDbVisualStyle
  2
Thicken
 70
    13
 71
     2
 72
     2
 73
     0
 90
        0
 40
-0.6
 41
-30.0
 62
     5
 63
     7
 74
     1
 91
        4
 64
     7
 65
   257
 75
     1
175
     1
 42
1.0
 92
       12
 66
     7
 43
1.0
 76
     1
 77
     6
 78
     2
 67
     7
 79
     5
170
     0
171
     0
290
     0
174
     0
 93
        1
 44
0.0
173
     0
291
     1
 45
0.0
1001
ACAD
1000
AcDbSavedByObjectVersion
1070
     0
  0
DICTIONARYVAR
  5
B08
102
{ACAD_REACTORS
330
B07
102
}
330
B07
100
DictionaryVariables
280
     0
  1
STANDARD
  0
DICTIONARYVAR
  5
B0C
102
{ACAD_REACTORS
330
B07
102
}
330
B07
100
DictionaryVariables
280
     0
  1
1
  0
DICTIONARYVAR
  5
B0B
102
{ACAD_REACTORS
330
B07
102
}
330
B07
100
DictionaryVariables
280
     0
  1
1
  0
DICTIONARYVAR
  5
B0A
102
{ACAD_REACTORS
330
B07
102
}
330
B07
100
DictionaryVariables
280
     0
  1
0
  0
DICTIONARYVAR
  5
B09
102
{ACAD_REACTORS
330
B07
102
}
330
B07
100
DictionaryVariables
280
     0
  1
127
  0
DICTIONARY
  5
B16
330
36
100
AcDbDictionary
280
     1
281
     1
  3
ACAD_XREC_ROUNDTRIP
360
B17
  0
DICTIONARY
  5
B1A
330
3E
100
AcDbDictionary
280
     1
281
     1
  3
ACAD_XREC_ROUNDTRIP
360
B1B
  0
DICTIONARY
  5
B18
330
3A
100
AcDbDictionary
280
     1
281
     1
  3
ACAD_XREC_ROUNDTRIP
360
B19
  0
DICTIONARY
  5
B10
330
12
100
AcDbDictionary
280
     1
281
     1
  3
ACAD_XREC_ROUNDTRIP
360
B11
  0
DICTIONARY
  5
B0E
330
11
100
AcDbDictionary
280
     1
281
     1
  3
ACAD_XREC_ROUNDTRIP
360
B0F
  0
DICTIONARY
  5
B12
330
13
100
AcDbDictionary
280
     1
281
     1
  3
ACAD_XREC_ROUNDTRIP
360
B13
  0
DICTIONARY
  5
B14
330
32
100
AcDbDictionary
280
     1
281
     1
  3
ACAD_XREC_ROUNDTRIP
360
B15
  0
XRECORD
  5
B17
102
{ACAD_REACTORS
330
B16
102
}
330
B16
100
AcDbXrecord
280
     1
102
SHADEPLOT
 70
     0
102
SHADEPLOTRESLEVEL
 70
     2
102
SHADEPLOTCUSTOMDPI
 70
   300
  0
XRECORD
  5
B1B
102
{ACAD_REACTORS
330
B1A
102
}
330
B1A
100
AcDbXrecord
280
     1
102
SHADEPLOT
 70
     0
102
SHADEPLOTRESLEVEL
 70
     2
102
SHADEPLOTCUSTOMDPI
 70
   300
  0
XRECORD
  5
B19
102
{ACAD_REACTORS
330
B18
102
}
330
B18
100
AcDbXrecord
280
     1
102
SHADEPLOT
 70
     0
102
SHADEPLOTRESLEVEL
 70
     2
102
SHADEPLOTCUSTOMDPI
 70
   300
  0
XRECORD
  5
B11
102
{ACAD_REACTORS
330
B10
102
}
330
B10
100
AcDbXrecord
280
     1
102
MATERIAL
148
0.0
149
0.0
149
0.0
 93
        0
 94
       63
282
     0
 72
     1
 77
     1
171
     1
175
     1
179
     1
273
     0
  0
XRECORD
  5
B0F
102
{ACAD_REACTORS
330
B0E
102
}
330
B0E
100
AcDbXrecord
280
     1
102
MATERIAL
148
0.0
149
0.0
149
0.0
 93
        0
 94
       63
282
     0
 72
     1
 77
     1
171
     1
175
     1
179
     1
273
     0
  0
XRECORD
  5
B13
102
{ACAD_REACTORS
330
B12
102
}
330
B12
100
AcDbXrecord
280
     1
102
MATERIAL
148
0.0
149
0.0
149
0.0
 93
        0
 94
       63
282
     0
 72
     1
 77
     1
171
     1
175
     1
179
     1
273
     0
  0
XRECORD
  5
B15
102
{ACAD_REACTORS
330
B14
102
}
330
B14
100
AcDbXrecord
280
     1
102
ACAD_ROUNDTRIP_PRE2007_TABLESTYLE
 90
      512
 91
        0
  1

 92
      512
 93
        0
  2

 94
      512
 95
        0
  3

  0
ENDSEC
  0
EOF
