  0
SECTION
  2
HEADER
  9
$ACADVER
  1
AC1015
  9
$ACADMAINTVER
 70
    18
  9
$DWGCODEPAGE
  3
ANSI_1252
  9
$INSBASE
 10
0.0
 20
0.0
 30
0.0
  9
$EXTMIN
 10
0.0
 20
0.0
 30
0.0
  9
$EXTMAX
 10
2.2
 20
1.7
 30
0.0
  9
$LIMMIN
 10
0.0
 20
0.0
  9
$LIMMAX
 10
2.2
 20
1.7
  9
$ORTHOMODE
 70
     0
  9
$REGENMODE
 70
     1
  9
$FILLMODE
 70
     1
  9
$QTEXTMODE
 70
     0
  9
$MIRRTEXT
 70
     0
  9
$LTSCALE
 40
0.2
  9
$ATTMODE
 70
     1
  9
$TEXTSIZE
 40
0.2
  9
$TRACEWID
 40
0.05
  9
$TEXTSTYLE
  7
Standard
  9
$CLAYER
  8
0
  9
$CELTYPE
  6
ByLayer
  9
$CECOLOR
 62
   256
  9
$CELTSCALE
 40
1.0
  9
$DISPSILH
 70
     0
  9
$DIMSCALE
 40
1.0
  9
$DIMASZ
 40
0.0708661417322835
  9
$DIMEXO
 40
0.0625
  9
$DIMDLI
 40
0.38
  9
$DIMRND
 40
0.0
  9
$DIMDLE
 40
0.0
  9
$DIMEXE
 40
0.18
  9
$DIMTP
 40
0.0
  9
$DIMTM
 40
0.0
  9
$DIMTXT
 40
0.3048000037670135
  9
$DIMCEN
 40
0.09
  9
$DIMTSZ
 40
0.0
  9
$DIMTOL
 70
     0
  9
$DIMLIM
 70
     0
  9
$DIMTIH
 70
     1
  9
$DIMTOH
 70
     1
  9
$DIMSE1
 70
     0
  9
$DIMSE2
 70
     0
  9
$DIMTAD
 70
     0
  9
$DIMZIN
 70
     0
  9
$DIMBLK
  1

  9
$DIMASO
 70
     1
  9
$DIMSHO
 70
     1
  9
$DIMPOST
  1

  9
$DIMAPOST
  1

  9
$DIMALT
 70
     0
  9
$DIMALTD
 70
     2
  9
$DIMALTF
 40
25.4
  9
$DIMLFAC
 40
1.0
  9
$DIMTOFL
 70
     0
  9
$DIMTVP
 40
0.0
  9
$DIMTIX
 70
     0
  9
$DIMSOXD
 70
     0
  9
$DIMSAH
 70
     0
  9
$DIMBLK1
  1

  9
$DIMBLK2
  1

  9
$DIMSTYLE
  2
Standard
  9
$DIMCLRD
 70
     0
  9
$DIMCLRE
 70
     0
  9
$DIMCLRT
 70
     0
  9
$DIMTFAC
 40
1.0
  9
$DIMGAP
 40
0.09
  9
$DIMJUST
 70
     0
  9
$DIMSD1
 70
     0
  9
$DIMSD2
 70
     0
  9
$DIMTOLJ
 70
     1
  9
$DIMTZIN
 70
     0
  9
$DIMALTZ
 70
     0
  9
$DIMALTTZ
 70
     0
  9
$DIMUPT
 70
     0
  9
$DIMDEC
 70
     4
  9
$DIMTDEC
 70
     4
  9
$DIMALTU
 70
     2
  9
$DIMALTTD
 70
     2
  9
$DIMTXSTY
  7
Standard
  9
$DIMAUNIT
 70
     0
  9
$DIMADEC
 70
     0
  9
$DIMALTRND
 40
0.0
  9
$DIMAZIN
 70
     0
  9
$DIMDSEP
 70
    46
  9
$DIMATFIT
 70
     3
  9
$DIMFRAC
 70
     0
  9
$DIMLDRBLK
  1

  9
$DIMLUNIT
 70
     2
  9
$DIMLWD
 70
    -2
  9
$DIMLWE
 70
    -2
  9
$DIMTMOVE
 70
     0
  9
$LUNITS
 70
     2
  9
$LUPREC
 70
     4
  9
$SKETCHINC
 40
0.1
  9
$FILLETRAD
 40
0.0
  9
$AUNITS
 70
     0
  9
$AUPREC
 70
     0
  9
$MENU
  1
.
  9
$ELEVATION
 40
0.0
  9
$PELEVATION
 40
0.0
  9
$THICKNESS
 40
0.0
  9
$LIMCHECK
 70
     0
  9
$CHAMFERA
 40
0.0
  9
$CHAMFERB
 40
0.0
  9
$CHAMFERC
 40
0.0
  9
$CHAMFERD
 40
0.0
  9
$SKPOLY
 70
     0
  9
$TDCREATE
 40
2454846.693093704
  9
$TDUCREATE
 40
2454847.026427037
  9
$TDUPDATE
 40
2454846.693093704
  9
$TDUUPDATE
 40
2454847.026427037
  9
$TDINDWG
 40
0.0000374421
  9
$TDUSRTIMER
 40
0.0000374421
  9
$USRTIMER
 70
     1
  9
$ANGBASE
 50
0.0
  9
$ANGDIR
 70
     0
  9
$PDMODE
 70
     0
  9
$PDSIZE
 40
0.0
  9
$PLINEWID
 40
0.0
  9
$SPLFRAME
 70
     0
  9
$SPLINETYPE
 70
     6
  9
$SPLINESEGS
 70
     8
  9
$HANDSEED
  5
AFC
  9
$SURFTAB1
 70
     6
  9
$SURFTAB2
 70
     6
  9
$SURFTYPE
 70
     6
  9
$SURFU
 70
     6
  9
$SURFV
 70
     6
  9
$UCSBASE
  2

  9
$UCSNAME
  2

  9
$UCSORG
 10
0.0
 20
0.0
 30
0.0
  9
$UCSXDIR
 10
1.0
 20
0.0
 30
0.0
  9
$UCSYDIR
 10
0.0
 20
1.0
 30
0.0
  9
$UCSORTHOREF
  2

  9
$UCSORTHOVIEW
 70
     0
  9
$UCSORGTOP
 10
0.0
 20
0.0
 30
0.0
  9
$UCSORGBOTTOM
 10
0.0
 20
0.0
 30
0.0
  9
$UCSORGLEFT
 10
0.0
 20
0.0
 30
0.0
  9
$UCSORGRIGHT
 10
0.0
 20
0.0
 30
0.0
  9
$UCSORGFRONT
 10
0.0
 20
0.0
 30
0.0
  9
$UCSORGBACK
 10
0.0
 20
0.0
 30
0.0
  9
$PUCSBASE
  2

  9
$PUCSNAME
  2

  9
$PUCSORG
 10
0.0
 20
0.0
 30
0.0
  9
$PUCSXDIR
 10
1.0
 20
0.0
 30
0.0
  9
$PUCSYDIR
 10
0.0
 20
1.0
 30
0.0
  9
$PUCSORTHOREF
  2

  9
$PUCSORTHOVIEW
 70
     0
  9
$PUCSORGTOP
 10
0.0
 20
0.0
 30
0.0
  9
$PUCSORGBOTTOM
 10
0.0
 20
0.0
 30
0.0
  9
$PUCSORGLEFT
 10
0.0
 20
0.0
 30
0.0
  9
$PUCSORGRIGHT
 10
0.0
 20
0.0
 30
0.0
  9
$PUCSORGFRONT
 10
0.0
 20
0.0
 30
0.0
  9
$PUCSORGBACK
 10
0.0
 20
0.0
 30
0.0
  9
$USERI1
 70
     0
  9
$USERI2
 70
     0
  9
$USERI3
 70
     0
  9
$USERI4
 70
     0
  9
$USERI5
 70
     0
  9
$USERR1
 40
0.0
  9
$USERR2
 40
0.0
  9
$USERR3
 40
0.0
  9
$USERR4
 40
0.0
  9
$USERR5
 40
0.0
  9
$WORLDVIEW
 70
     1
  9
$SHADEDGE
 70
     3
  9
$SHADEDIF
 70
    70
  9
$TILEMODE
 70
     1
  9
$MAXACTVP
 70
    64
  9
$PINSBASE
 10
0.0
 20
0.0
 30
0.0
  9
$PLIMCHECK
 70
     0
  9
$PEXTMIN
 10
0.0
 20
0.0
 30
0.0
  9
$PEXTMAX
 10
2.2
 20
1.7
 30
0.0
  9
$PLIMMIN
 10
0.0
 20
0.0
  9
$PLIMMAX
 10
2.2
 20
1.7
  9
$UNITMODE
 70
     0
  9
$VISRETAIN
 70
     1
  9
$PLINEGEN
 70
     0
  9
$PSLTSCALE
 70
     1
  9
$TREEDEPTH
 70
  3020
  9
$CMLSTYLE
  2
Standard
  9
$CMLJUST
 70
     0
  9
$CMLSCALE
 40
1.0
  9
$PROXYGRAPHICS
 70
     1
  9
$MEASUREMENT
 70
     0
  9
$CELWEIGHT
370
    -1
  9
$ENDCAPS
280
     0
  9
$JOINSTYLE
280
     0
  9
$LWDISPLAY
290
     0
  9
$INSUNITS
 70
     0
  9
$HYPERLINKBASE
  1

  9
$STYLESHEET
  1

  9
$XEDIT
290
     1
  9
$CEPSNTYPE
380
     0
  9
$PSTYLEMODE
290
     1
  9
$FINGERPRINTGUID
  2
{481C7A56-95AE-48F9-92DD-E7399443EA46}
  9
$VERSIONGUID
  2
{F5E08095-1E32-4944-B81E-B5B95445CEC6}
  9
$EXTNAMES
290
     1
  9
$PSVPSCALE
 40
0.0
  9
$OLESTARTUP
290
     0
  0
ENDSEC
  0
SECTION
  2
CLASSES
  0
CLASS
  1
ACDBDICTIONARYWDFLT
  2
AcDbDictionaryWithDefault
  3
ObjectDBX Classes
 90
        0
280
     0
281
     0
  0
CLASS
  1
MATERIAL
  2
AcDbMaterial
  3
ObjectDBX Classes
 90
     1024
280
     0
281
     0
  0
CLASS
  1
VISUALSTYLE
  2
AcDbVisualStyle
  3
ObjectDBX Classes
 90
     4095
280
     0
281
     0
  0
CLASS
  1
TABLESTYLE
  2
AcDbTableStyle
  3
ObjectDBX Classes
 90
     4095
280
     0
281
     0
  0
CLASS
  1
DICTIONARYVAR
  2
AcDbDictionaryVar
  3
ObjectDBX Classes
 90
        0
280
     0
281
     0
  0
CLASS
  1
ACDBPLACEHOLDER
  2
AcDbPlaceHolder
  3
ObjectDBX Classes
 90
        0
280
     0
281
     0
  0
CLASS
  1
LAYOUT
  2
AcDbLayout
  3
ObjectDBX Classes
 90
        0
280
     0
281
     0
  0
ENDSEC
  0
SECTION
  2
TABLES
  0
TABLE
  2
VPORT
  5
8
330
0
100
AcDbSymbolTable
 70
     1
  0
VPORT
  5
28
330
8
100
AcDbSymbolTableRecord
100
AcDbViewportTableRecord
  2
*Active
 70
     0
 10
0.0
 20
0.0
 11
1.0
 21
1.0
 12
1.1
 22
0.85
 13
0.0
 23
0.0
 14
1.0
 24
1.0
 15
0.0
 25
0.0
 16
0.0
 26
0.0
 36
1.0
 17
0.0
 27
0.0
 37
0.0
 40
1.7
 41
1.294117647058823
 42
50.0
 43
0.0
 44
0.0
 50
0.0
 51
0.0
 71
     0
 72
   100
 73
     1
 74
     1
 75
     0
 76
     0
 77
     0
 78
     0
281
     0
 65
     1
110
0.0
120
0.0
130
0.0
111
1.0
121
0.0
131
0.0
112
0.0
122
1.0
132
0.0
 79
     0
146
0.0
  0
ENDTAB
  0
TABLE
  2
LTYPE
  5
5
330
0
100
AcDbSymbolTable
 70
    59
  0
LTYPE
  5
29
330
5
100
AcDbSymbolTableRecord
100
AcDbLinetypeTableRecord
  2
ByBlock
 70
     0
  3

 72
    65
 73
     0
 40
0.0
  0
LTYPE
  5
2A
330
5
100
AcDbSymbolTableRecord
100
AcDbLinetypeTableRecord
  2
ByLayer
 70
     0
  3

 72
    65
 73
     0
 40
0.0
  0
LTYPE
  5
2B
330
5
100
AcDbSymbolTableRecord
100
AcDbLinetypeTableRecord
  2
Continuous
 70
     0
  3
Solid line
 72
    65
 73
     0
 40
0.0
  0
LTYPE
  5
40
330
5
100
AcDbSymbolTableRecord
100
AcDbLinetypeTableRecord
  2
BY_STANDARD
 70
     0
  3
By Standard ____________    ____    ____   _
 72
    65
 73
     6
 40
1.240299999999999
 49
0.6614
 74
     0
 49
-0.0827
 74
     0
 49
0.1654
 74
     0
 49
-0.0827
 74
     0
 49
0.1654
 74
     0
 49
-0.0827
 74
     0
  0
LTYPE
  5
41
330
5
100
AcDbSymbolTableRecord
100
AcDbLinetypeTableRecord
  2
CHAIN
 70
     0
  3
Chain ____ _ ____ _ ____ _ ____ _ ____ _ ____
 72
    65
 73
     4
 40
0.7087
 49
0.4724000000000001
 74
     0
 49
-0.0591
 74
     0
 49
0.1181
 74
     0
 49
-0.0591
 74
     0
  0
LTYPE
  5
42
330
5
100
AcDbSymbolTableRecord
100
AcDbLinetypeTableRecord
  2
DASH_DOT
 70
     0
  3
Dash dot __ . __ . __ . __ . __ . __ . __ . __
 72
    65
 73
     4
 40
0.37
 49
0.24
 74
     0
 49
-0.06
 74
     0
 49
0.01
 74
     0
 49
-0.06
 74
     0
  0
LTYPE
  5
43
330
5
100
AcDbSymbolTableRecord
100
AcDbLinetypeTableRecord
  2
DOUBLE_DASH_DOT
 70
     0
  3
Double-Dash Dot __ __ . __ __ . __ __ . __ _
 72
    65
 73
     6
 40
0.4398
 49
0.24
 74
     0
 49
-0.06
 74
     0
 49
0.0098
 74
     0
 49
-0.06
 74
     0
 49
0.01
 74
     0
 49
-0.06
 74
     0
  0
LTYPE
  5
44
330
5
100
AcDbSymbolTableRecord
100
AcDbLinetypeTableRecord
  2
DASH_TRIPLE_DOT
 70
     0
  3
Dash Triple-Dot _ . . . _ . . . _ . . . _
 72
    65
 73
     8
 40
0.51
 49
0.24
 74
     0
 49
-0.06
 74
     0
 49
0.01
 74
     0
 49
-0.06
 74
     0
 49
0.01
 74
     0
 49
-0.06
 74
     0
 49
0.01
 74
     0
 49
-0.06
 74
     0
  0
LTYPE
  5
45
330
5
100
AcDbSymbolTableRecord
100
AcDbLinetypeTableRecord
  2
DASHED
 70
     0
  3
Dashed __ __ __ __ __ __ __ __ __ __ __ __ __ _
 72
    65
 73
     2
 40
0.2067
 49
0.1654
 74
     0
 49
-0.0413
 74
     0
  0
LTYPE
  5
46
330
5
100
AcDbSymbolTableRecord
100
AcDbLinetypeTableRecord
  2
DASH_DOUBLE_DOT
 70
     0
  3
Dash Double-Dot __ . . __ . . __ . . __ . .
 72
    65
 73
     6
 40
0.4398
 49
0.24
 74
     0
 49
-0.06
 74
     0
 49
0.0098
 74
     0
 49
-0.06
 74
     0
 49
0.01
 74
     0
 49
-0.06
 74
     0
  0
LTYPE
  5
47
330
5
100
AcDbSymbolTableRecord
100
AcDbLinetypeTableRecord
  2
DASHED_SPACE
 70
     0
  3
Dashed Space __ __ __ __ __ __ __ __ __ __ __ _
 72
    65
 73
     2
 40
0.2067
 49
0.1654
 74
     0
 49
-0.0413
 74
     0
  0
LTYPE
  5
48
330
5
100
AcDbSymbolTableRecord
100
AcDbLinetypeTableRecord
  2
DOTTED
 70
     0
  3
Dotted . . . . . . . . . . . . . . . . . . . . 
 72
    65
 73
     2
 40
0.0482
 49
0.0069
 74
     0
 49
-0.0413
 74
     0
  0
LTYPE
  5
49
330
5
100
AcDbSymbolTableRecord
100
AcDbLinetypeTableRecord
  2
DOUBLE_DASH_CHAIN
 70
     0
  3
Double-Dash Chain ______  __  __  ______  __  _
 72
    65
 73
     6
 40
1.240299999999999
 49
0.6614
 74
     0
 49
-0.0827
 74
     0
 49
0.1654
 74
     0
 49
-0.0827
 74
     0
 49
0.1654
 74
     0
 49
-0.0827
 74
     0
  0
LTYPE
  5
4B
330
5
100
AcDbSymbolTableRecord
100
AcDbLinetypeTableRecord
  2
DOUBLE_DASH_DOUBLE_DOT
 70
     0
  3
Double-Dash Double-dot _ _ . . _ _ . . _
 72
    65
 73
     8
 40
0.7400000000000001
 49
0.24
 74
     0
 49
-0.06
 74
     0
 49
0.24
 74
     0
 49
-0.06
 74
     0
 49
0.01
 74
     0
 49
-0.06
 74
     0
 49
0.01
 74
     0
 49
-0.06
 74
     0
  0
LTYPE
  5
4C
330
5
100
AcDbSymbolTableRecord
100
AcDbLinetypeTableRecord
  2
DOUBLE_DASH_TRIPLE_DOT
 70
     0
  3
Double Dash Triple Dot __ __ . . . __ __ . .
 72
    65
 73
    10
 40
0.8100000000000001
 49
0.24
 74
     0
 49
-0.06
 74
     0
 49
0.24
 74
     0
 49
-0.06
 74
     0
 49
0.01
 74
     0
 49
-0.06
 74
     0
 49
0.01
 74
     0
 49
-0.06
 74
     0
 49
0.01
 74
     0
 49
-0.06
 74
     0
  0
LTYPE
  5
4D
330
5
100
AcDbSymbolTableRecord
100
AcDbLinetypeTableRecord
  2
LONG_DASH_DOTTED
 70
     0
  3
Long Dash Dotted ____ . ____ . ____ . ____ . _
 72
    65
 73
     4
 40
0.3543
 49
0.2362
 74
     0
 49
-0.0295
 74
     0
 49
0.0591
 74
     0
 49
-0.0295
 74
     0
  0
LTYPE
  5
4E
330
5
100
AcDbSymbolTableRecord
100
AcDbLinetypeTableRecord
  2
LONG_DASH_DOUBLE_DOT
 70
     0
  3
Long Dash Double Dot ________  .  .  ________  
 72
    65
 73
     6
 40
0.6799999999999999
 49
0.48
 74
     0
 49
-0.06
 74
     0
 49
0.01
 74
     0
 49
-0.06
 74
     0
 49
0.01
 74
     0
 49
-0.06
 74
     0
  0
LTYPE
  5
4F
330
5
100
AcDbSymbolTableRecord
100
AcDbLinetypeTableRecord
  2
LONG_DASH_TRIPLE_DOT
 70
     0
  3
Long Dash Triple Dot ____ ... ____ ... ____
 72
    65
 73
     8
 40
0.3689
 49
0.2362
 74
     0
 49
-0.0295
 74
     0
 49
0.0049
 74
     0
 49
-0.0295
 74
     0
 49
0.0049
 74
     0
 49
-0.0295
 74
     0
 49
0.0049
 74
     0
 49
-0.0295
 74
     0
  0
LTYPE
  5
50
330
5
100
AcDbSymbolTableRecord
100
AcDbLinetypeTableRecord
  2
BORDER
 70
     0
  3
Border __ __ . __ __ . __ __ . __ __ . __ __ .
 72
    65
 73
     6
 40
1.75
 49
0.5
 74
     0
 49
-0.25
 74
     0
 49
0.5
 74
     0
 49
-0.25
 74
     0
 49
0.0
 74
     0
 49
-0.25
 74
     0
  0
LTYPE
  5
51
330
5
100
AcDbSymbolTableRecord
100
AcDbLinetypeTableRecord
  2
BORDER2
 70
     0
  3
Border (.5x) __.__.__.__.__.__.__.__.__.__.__.
 72
    65
 73
     6
 40
0.875
 49
0.25
 74
     0
 49
-0.125
 74
     0
 49
0.25
 74
     0
 49
-0.125
 74
     0
 49
0.0
 74
     0
 49
-0.125
 74
     0
  0
LTYPE
  5
52
330
5
100
AcDbSymbolTableRecord
100
AcDbLinetypeTableRecord
  2
BORDERX2
 70
     0
  3
Border (2x) ____  ____  .  ____  ____  .  ___
 72
    65
 73
     6
 40
3.5
 49
1.0
 74
     0
 49
-0.5
 74
     0
 49
1.0
 74
     0
 49
-0.5
 74
     0
 49
0.0
 74
     0
 49
-0.5
 74
     0
  0
LTYPE
  5
53
330
5
100
AcDbSymbolTableRecord
100
AcDbLinetypeTableRecord
  2
CENTER
 70
     0
  3
Center ____ _ ____ _ ____ _ ____ _ ____ _ ____
 72
    65
 73
     4
 40
2.0
 49
1.25
 74
     0
 49
-0.25
 74
     0
 49
0.25
 74
     0
 49
-0.25
 74
     0
  0
LTYPE
  5
54
330
5
100
AcDbSymbolTableRecord
100
AcDbLinetypeTableRecord
  2
CENTER2
 70
     0
  3
Center (.5x) ___ _ ___ _ ___ _ ___ _ ___ _ ___
 72
    65
 73
     4
 40
1.125
 49
0.75
 74
     0
 49
-0.125
 74
     0
 49
0.125
 74
     0
 49
-0.125
 74
     0
  0
LTYPE
  5
55
330
5
100
AcDbSymbolTableRecord
100
AcDbLinetypeTableRecord
  2
CENTERX2
 70
     0
  3
Center (2x) ________  __  ________  __  _____
 72
    65
 73
     4
 40
4.0
 49
2.5
 74
     0
 49
-0.5
 74
     0
 49
0.5
 74
     0
 49
-0.5
 74
     0
  0
LTYPE
  5
56
330
5
100
AcDbSymbolTableRecord
100
AcDbLinetypeTableRecord
  2
DASHDOT2
 70
     0
  3
Dash dot (.5x) _._._._._._._._._._._._._._._.
 72
    65
 73
     4
 40
0.5
 49
0.25
 74
     0
 49
-0.125
 74
     0
 49
0.0
 74
     0
 49
-0.125
 74
     0
  0
LTYPE
  5
57
330
5
100
AcDbSymbolTableRecord
100
AcDbLinetypeTableRecord
  2
DASHDOTX2
 70
     0
  3
Dash dot (2x) ____  .  ____  .  ____  .  ___
 72
    65
 73
     4
 40
2.0
 49
1.0
 74
     0
 49
-0.5
 74
     0
 49
0.0
 74
     0
 49
-0.5
 74
     0
  0
LTYPE
  5
59
330
5
100
AcDbSymbolTableRecord
100
AcDbLinetypeTableRecord
  2
DASHED2
 70
     0
  3
Dashed (.5x) _ _ _ _ _ _ _ _ _ _ _ _ _ _ _ _ _
 72
    65
 73
     2
 40
0.375
 49
0.25
 74
     0
 49
-0.125
 74
     0
  0
LTYPE
  5
5A
330
5
100
AcDbSymbolTableRecord
100
AcDbLinetypeTableRecord
  2
DASHEDX2
 70
     0
  3
Dashed (2x) ____  ____  ____  ____  ____  ___
 72
    65
 73
     2
 40
1.5
 49
1.0
 74
     0
 49
-0.5
 74
     0
  0
LTYPE
  5
5B
330
5
100
AcDbSymbolTableRecord
100
AcDbLinetypeTableRecord
  2
DIVIDE
 70
     0
  3
Divide ____ . . ____ . . ____ . . ____ . . ____
 72
    65
 73
     6
 40
1.25
 49
0.5
 74
     0
 49
-0.25
 74
     0
 49
0.0
 74
     0
 49
-0.25
 74
     0
 49
0.0
 74
     0
 49
-0.25
 74
     0
  0
LTYPE
  5
5C
330
5
100
AcDbSymbolTableRecord
100
AcDbLinetypeTableRecord
  2
DIVIDE2
 70
     0
  3
Divide (.5x) __..__..__..__..__..__..__..__.._
 72
    65
 73
     6
 40
0.625
 49
0.25
 74
     0
 49
-0.125
 74
     0
 49
0.0
 74
     0
 49
-0.125
 74
     0
 49
0.0
 74
     0
 49
-0.125
 74
     0
  0
LTYPE
  5
5D
330
5
100
AcDbSymbolTableRecord
100
AcDbLinetypeTableRecord
  2
DIVIDEX2
 70
     0
  3
Divide (2x) ________  .  .  ________  .  .  _
 72
    65
 73
     6
 40
2.5
 49
1.0
 74
     0
 49
-0.5
 74
     0
 49
0.0
 74
     0
 49
-0.5
 74
     0
 49
0.0
 74
     0
 49
-0.5
 74
     0
  0
LTYPE
  5
5E
330
5
100
AcDbSymbolTableRecord
100
AcDbLinetypeTableRecord
  2
DOT
 70
     0
  3
Dot . . . . . . . . . . . . . . . . . . . . . .
 72
    65
 73
     2
 40
0.25
 49
0.0
 74
     0
 49
-0.25
 74
     0
  0
LTYPE
  5
5F
330
5
100
AcDbSymbolTableRecord
100
AcDbLinetypeTableRecord
  2
DOT2
 70
     0
  3
Dot (.5x) .....................................
 72
    65
 73
     2
 40
0.125
 49
0.0
 74
     0
 49
-0.125
 74
     0
  0
LTYPE
  5
60
330
5
100
AcDbSymbolTableRecord
100
AcDbLinetypeTableRecord
  2
DOTX2
 70
     0
  3
Dot (2x) .  .  .  .  .  .  .  .  .  .  .  .  . 
 72
    65
 73
     2
 40
0.5
 49
0.0
 74
     0
 49
-0.5
 74
     0
  0
LTYPE
  5
61
330
5
100
AcDbSymbolTableRecord
100
AcDbLinetypeTableRecord
  2
HIDDEN
 70
     0
  3
Hidden __ __ __ __ __ __ __ __ __ __ __ __ __ _
 72
    65
 73
     2
 40
0.375
 49
0.25
 74
     0
 49
-0.125
 74
     0
  0
LTYPE
  5
62
330
5
100
AcDbSymbolTableRecord
100
AcDbLinetypeTableRecord
  2
HIDDEN2
 70
     0
  3
Hidden (.5x) _ _ _ _ _ _ _ _ _ _ _ _ _ _ _ _ _
 72
    65
 73
     2
 40
0.1875
 49
0.125
 74
     0
 49
-0.0625
 74
     0
  0
LTYPE
  5
63
330
5
100
AcDbSymbolTableRecord
100
AcDbLinetypeTableRecord
  2
HIDDENX2
 70
     0
  3
Hidden (2x) ____ ____ ____ ____ ____ ____ ____
 72
    65
 73
     2
 40
0.75
 49
0.5
 74
     0
 49
-0.25
 74
     0
  0
LTYPE
  5
64
330
5
100
AcDbSymbolTableRecord
100
AcDbLinetypeTableRecord
  2
PHANTOM
 70
     0
  3
Phantom ______  __  __  ______  __  __  ______
 72
    65
 73
     6
 40
2.5
 49
1.25
 74
     0
 49
-0.25
 74
     0
 49
0.25
 74
     0
 49
-0.25
 74
     0
 49
0.25
 74
     0
 49
-0.25
 74
     0
  0
LTYPE
  5
65
330
5
100
AcDbSymbolTableRecord
100
AcDbLinetypeTableRecord
  2
PHANTOM2
 70
     0
  3
Phantom (.5x) ___ _ _ ___ _ _ ___ _ _ ___ _ _
 72
    65
 73
     6
 40
1.25
 49
0.625
 74
     0
 49
-0.125
 74
     0
 49
0.125
 74
     0
 49
-0.125
 74
     0
 49
0.125
 74
     0
 49
-0.125
 74
     0
  0
LTYPE
  5
66
330
5
100
AcDbSymbolTableRecord
100
AcDbLinetypeTableRecord
  2
PHANTOMX2
 70
     0
  3
Phantom (2x) ____________    ____    ____   _
 72
    65
 73
     6
 40
5.0
 49
2.5
 74
     0
 49
-0.5
 74
     0
 49
0.5
 74
     0
 49
-0.5
 74
     0
 49
0.5
 74
     0
 49
-0.5
 74
     0
  0
LTYPE
  5
67
330
5
100
AcDbSymbolTableRecord
100
AcDbLinetypeTableRecord
  2
ACAD_ISO02W100
 70
     0
  3
ISO dash __ __ __ __ __ __ __ __ __ __ __ __ __
 72
    65
 73
     2
 40
0.59
 49
0.47
 74
     0
 49
-0.12
 74
     0
  0
LTYPE
  5
68
330
5
100
AcDbSymbolTableRecord
100
AcDbLinetypeTableRecord
  2
ACAD_ISO03W100
 70
     0
  3
ISO dash space __    __    __    __    __    __
 72
    65
 73
     2
 40
1.179999999999999
 49
0.47
 74
     0
 49
-0.71
 74
     0
  0
LTYPE
  5
69
330
5
100
AcDbSymbolTableRecord
100
AcDbLinetypeTableRecord
  2
ACAD_ISO04W100
 70
     0
  3
ISO long-dash dot ____ . ____ . ____ . ____ . _
 72
    65
 73
     4
 40
1.179999999999999
 49
0.9399999999999998
 74
     0
 49
-0.12
 74
     0
 49
0.0
 74
     0
 49
-0.12
 74
     0
  0
LTYPE
  5
6A
330
5
100
AcDbSymbolTableRecord
100
AcDbLinetypeTableRecord
  2
ACAD_ISO05W100
 70
     0
  3
ISO long-dash double-dot ____ .. ____ .. ____ .
 72
    65
 73
     6
 40
1.299999999999999
 49
0.9399999999999998
 74
     0
 49
-0.12
 74
     0
 49
0.0
 74
     0
 49
-0.12
 74
     0
 49
0.0
 74
     0
 49
-0.12
 74
     0
  0
LTYPE
  5
6B
330
5
100
AcDbSymbolTableRecord
100
AcDbLinetypeTableRecord
  2
ACAD_ISO06W100
 70
     0
  3
ISO long-dash triple-dot ____ ... ____ ... ____
 72
    65
 73
     8
 40
1.419999999999999
 49
0.9399999999999998
 74
     0
 49
-0.12
 74
     0
 49
0.0
 74
     0
 49
-0.12
 74
     0
 49
0.0
 74
     0
 49
-0.12
 74
     0
 49
0.0
 74
     0
 49
-0.12
 74
     0
  0
LTYPE
  5
6C
330
5
100
AcDbSymbolTableRecord
100
AcDbLinetypeTableRecord
  2
ACAD_ISO07W100
 70
     0
  3
ISO dot . . . . . . . . . . . . . . . . . . . .
 72
    65
 73
     2
 40
0.12
 49
0.0
 74
     0
 49
-0.12
 74
     0
  0
LTYPE
  5
6D
330
5
100
AcDbSymbolTableRecord
100
AcDbLinetypeTableRecord
  2
ACAD_ISO08W100
 70
     0
  3
ISO long-dash short-dash ____ __ ____ __ ____ _
 72
    65
 73
     4
 40
0.95
 49
0.47
 74
     0
 49
-0.12
 74
     0
 49
0.24
 74
     0
 49
-0.12
 74
     0
  0
LTYPE
  5
6E
330
5
100
AcDbSymbolTableRecord
100
AcDbLinetypeTableRecord
  2
ACAD_ISO09W100
 70
     0
  3
ISO long-dash double-short-dash ____ __ __ ____
 72
    65
 73
     6
 40
1.31
 49
0.47
 74
     0
 49
-0.12
 74
     0
 49
0.24
 74
     0
 49
-0.12
 74
     0
 49
0.24
 74
     0
 49
-0.12
 74
     0
  0
LTYPE
  5
6F
330
5
100
AcDbSymbolTableRecord
100
AcDbLinetypeTableRecord
  2
ACAD_ISO10W100
 70
     0
  3
ISO dash dot __ . __ . __ . __ . __ . __ . __ .
 72
    65
 73
     4
 40
0.71
 49
0.47
 74
     0
 49
-0.12
 74
     0
 49
0.0
 74
     0
 49
-0.12
 74
     0
  0
LTYPE
  5
70
330
5
100
AcDbSymbolTableRecord
100
AcDbLinetypeTableRecord
  2
ACAD_ISO11W100
 70
     0
  3
ISO double-dash dot __ __ . __ __ . __ __ . __ 
 72
    65
 73
     6
 40
1.299999999999999
 49
0.47
 74
     0
 49
-0.12
 74
     0
 49
0.47
 74
     0
 49
-0.12
 74
     0
 49
0.0
 74
     0
 49
-0.12
 74
     0
  0
LTYPE
  5
71
330
5
100
AcDbSymbolTableRecord
100
AcDbLinetypeTableRecord
  2
ACAD_ISO12W100
 70
     0
  3
ISO dash double-dot __ . . __ . . __ . . __ . .
 72
    65
 73
     6
 40
0.8299999999999998
 49
0.47
 74
     0
 49
-0.12
 74
     0
 49
0.0
 74
     0
 49
-0.12
 74
     0
 49
0.0
 74
     0
 49
-0.12
 74
     0
  0
LTYPE
  5
72
330
5
100
AcDbSymbolTableRecord
100
AcDbLinetypeTableRecord
  2
ACAD_ISO13W100
 70
     0
  3
ISO double-dash double-dot __ __ . . __ __ . . 
 72
    65
 73
     8
 40
1.419999999999999
 49
0.47
 74
     0
 49
-0.12
 74
     0
 49
0.47
 74
     0
 49
-0.12
 74
     0
 49
0.0
 74
     0
 49
-0.12
 74
     0
 49
0.0
 74
     0
 49
-0.12
 74
     0
  0
LTYPE
  5
73
330
5
100
AcDbSymbolTableRecord
100
AcDbLinetypeTableRecord
  2
ACAD_ISO14W100
 70
     0
  3
ISO dash triple-dot __ . . . __ . . . __ . . . 
 72
    65
 73
     8
 40
0.95
 49
0.47
 74
     0
 49
-0.12
 74
     0
 49
0.0
 74
     0
 49
-0.12
 74
     0
 49
0.0
 74
     0
 49
-0.12
 74
     0
 49
0.0
 74
     0
 49
-0.12
 74
     0
  0
LTYPE
  5
74
330
5
100
AcDbSymbolTableRecord
100
AcDbLinetypeTableRecord
  2
ACAD_ISO15W100
 70
     0
  3
ISO double-dash triple-dot __ __ . . . __ __ . 
 72
    65
 73
    10
 40
1.539999999999999
 49
0.47
 74
     0
 49
-0.12
 74
     0
 49
0.47
 74
     0
 49
-0.12
 74
     0
 49
0.0
 74
     0
 49
-0.12
 74
     0
 49
0.0
 74
     0
 49
-0.12
 74
     0
 49
0.0
 74
     0
 49
-0.12
 74
     0
  0
LTYPE
  5
77
330
5
100
AcDbSymbolTableRecord
100
AcDbLinetypeTableRecord
  2
FENCELINE1
 70
     0
  3
Fenceline circle ----0-----0----0-----0----0---
 72
    65
 73
     4
 40
1.45
 49
0.25
 74
     0
 49
-0.1
 74
     4
 75
   133
340
76
 46
0.1
 50
0.0
 44
-0.1
 45
0.0
 49
-0.1
 74
     0
 49
1.0
 74
     0
  0
LTYPE
  5
78
330
5
100
AcDbSymbolTableRecord
100
AcDbLinetypeTableRecord
  2
FENCELINE2
 70
     0
  3
Fenceline square ----[]-----[]----[]-----[]----
 72
    65
 73
     4
 40
1.45
 49
0.25
 74
     0
 49
-0.1
 74
     4
 75
   132
340
76
 46
0.1
 50
0.0
 44
-0.1
 45
0.0
 49
-0.1
 74
     0
 49
1.0
 74
     0
  0
LTYPE
  5
79
330
5
100
AcDbSymbolTableRecord
100
AcDbLinetypeTableRecord
  2
TRACKS
 70
     0
  3
Tracks -|-|-|-|-|-|-|-|-|-|-|-|-|-|-|-|-|-|-|-|
 72
    65
 73
     2
 40
0.3
 49
0.15
 74
     4
 75
   130
340
76
 46
0.25
 50
0.0
 44
0.0
 45
0.0
 49
0.15
 74
     0
  0
LTYPE
  5
7A
330
5
100
AcDbSymbolTableRecord
100
AcDbLinetypeTableRecord
  2
BATTING
 70
     0
  3
Batting SSSSSSSSSSSSSSSSSSSSSSSSSSSSSSSSSSSSSSS
 72
    65
 73
     4
 40
0.4001000000000001
 49
0.0001
 74
     0
 49
-0.1
 74
     4
 75
   134
340
76
 46
0.1
 50
0.0
 44
-0.1
 45
0.0
 49
-0.2
 74
     4
 75
   134
340
76
 46
0.1
 50
180.0
 44
0.1
 45
0.0
 49
-0.1
 74
     0
  0
LTYPE
  5
7B
330
5
100
AcDbSymbolTableRecord
100
AcDbLinetypeTableRecord
  2
HOT_WATER_SUPPLY
 70
     0
  3
Hot water supply ---- HW ---- HW ---- HW ----
 72
    65
 73
     3
 40
0.9
 49
0.5
 74
     0
 49
-0.2
 74
     2
 75
     0
340
26
 46
0.1
 50
0.0
 44
-0.1
 45
-0.05
  9
HW
 49
-0.2
 74
     0
  0
LTYPE
  5
7C
330
5
100
AcDbSymbolTableRecord
100
AcDbLinetypeTableRecord
  2
GAS_LINE
 70
     0
  3
Gas line ----GAS----GAS----GAS----GAS----GAS---
 72
    65
 73
     3
 40
0.95
 49
0.5
 74
     0
 49
-0.2
 74
     2
 75
     0
340
26
 46
0.1
 50
0.0
 44
-0.1
 45
-0.05
  9
GAS
 49
-0.25
 74
     0
  0
LTYPE
  5
7D
330
5
100
AcDbSymbolTableRecord
100
AcDbLinetypeTableRecord
  2
ZIGZAG
 70
     0
  3
Zig zag /\/\/\/\/\/\/\/\/\/\/\/\/\/\/\/\/\/\/\/
 72
    65
 73
     4
 40
0.8001000000000001
 49
0.0001
 74
     0
 49
-0.2
 74
     4
 75
   131
340
76
 46
0.2
 50
0.0
 44
-0.2
 45
0.0
 49
-0.4
 74
     4
 75
   131
340
76
 46
0.2
 50
180.0
 44
0.2
 45
0.0
 49
-0.2
 74
     0
  0
ENDTAB
  0
TABLE
  2
LAYER
  5
2
330
0
100
AcDbSymbolTable
 70
    26
  0
LAYER
  5
25
330
2
100
AcDbSymbolTableRecord
100
AcDbLayerTableRecord
  2
0
 70
     0
 62
     7
  6
Continuous
370
    -3
390
F
  0
LAYER
  5
81
330
2
100
AcDbSymbolTableRecord
100
AcDbLayerTableRecord
  2
Border (ANSI)
 70
     0
 62
     7
  6
Continuous
370
    70
390
F
  0
LAYER
  5
83
330
2
100
AcDbSymbolTableRecord
100
AcDbLayerTableRecord
  2
Center Mark (ANSI)
 70
     0
 62
     7
  6
Continuous
370
    25
390
F
  0
LAYER
  5
84
330
2
100
AcDbSymbolTableRecord
100
AcDbLayerTableRecord
  2
Centerline (ANSI)
 70
     0
 62
     7
  6
Continuous
370
    25
390
F
  0
LAYER
  5
86
330
2
100
AcDbSymbolTableRecord
100
AcDbLayerTableRecord
  2
Dimension (ANSI)
 70
     0
 62
     7
  6
Continuous
370
    25
390
F
  0
LAYER
  5
89
330
2
100
AcDbSymbolTableRecord
100
AcDbLayerTableRecord
  2
Hidden Narrow (ANSI)
 70
     0
 62
     7
  6
DASHED
370
    25
390
F
  0
LAYER
  5
8D
330
2
100
AcDbSymbolTableRecord
100
AcDbLayerTableRecord
  2
Sketch Geometry (ANSI)
 70
     0
 62
     7
  6
Continuous
370
    25
390
F
  0
LAYER
  5
8E
330
2
100
AcDbSymbolTableRecord
100
AcDbLayerTableRecord
  2
Symbol (ANSI)
 70
     0
 62
     7
  6
Continuous
370
    25
390
F
  0
LAYER
  5
91
330
2
100
AcDbSymbolTableRecord
100
AcDbLayerTableRecord
  2
Visible (ANSI)
 70
     0
 62
     7
  6
Continuous
370
    50
390
F
  0
LAYER
  5
151
330
2
100
AcDbSymbolTableRecord
100
AcDbLayerTableRecord
  2
Defpoints
 70
     0
 62
     7
  6
Continuous
290
     0
370
    -3
390
F
  0
ENDTAB
  0
TABLE
  2
STYLE
  5
3
330
0
100
AcDbSymbolTable
 70
    13
  0
STYLE
  5
26
330
3
100
AcDbSymbolTableRecord
100
AcDbTextStyleTableRecord
  2
Standard
 70
     0
 40
0.0
 41
1.0
 50
0.0
 71
     0
 42
0.2
  3
TAHOMA.TTF
  4

1001
ACAD
1000
Tahoma
1071
      256
  0
STYLE
  5
76
330
3
100
AcDbSymbolTableRecord
100
AcDbTextStyleTableRecord
  2

 70
     1
 40
0.0
 41
1.0
 50
0.0
 71
     0
 42
0.2
  3
ltypeshp.shx
  4

  0
STYLE
  5
96
330
3
100
AcDbSymbolTableRecord
100
AcDbTextStyleTableRecord
  2
Label Text (ANSI)
 70
     0
 40
0.0
 41
1.0
 50
0.0
 71
     0
 42
0.2
  3
TAHOMA.TTF
  4

1001
ACAD
1000
Tahoma
1071
      256
  0
STYLE
  5
97
330
3
100
AcDbSymbolTableRecord
100
AcDbTextStyleTableRecord
  2
Label Text (DIN)
 70
     0
 40
0.0
 41
1.0
 50
0.0
 71
     0
 42
0.2
  3
isocpeur.ttf
  4

1001
ACAD
1000
ISOCPEUR
1071
      256
  0
STYLE
  5
98
330
3
100
AcDbSymbolTableRecord
100
AcDbTextStyleTableRecord
  2
Label Text (ISO)
 70
     0
 40
0.0
 41
1.0
 50
0.0
 71
     0
 42
0.2
  3
TAHOMA.TTF
  4

1001
ACAD
1000
Tahoma
1071
      256
  0
STYLE
  5
99
330
3
100
AcDbSymbolTableRecord
100
AcDbTextStyleTableRecord
  2
Label Text (JIS)
 70
     0
 40
0.0
 41
1.0
 50
0.0
 71
     0
 42
0.2
  3
TAHOMA.TTF
  4

1001
ACAD
1000
Tahoma
1071
      256
  0
STYLE
  5
9A
330
3
100
AcDbSymbolTableRecord
100
AcDbTextStyleTableRecord
  2
Note Text (ANSI)
 70
     0
 40
0.0
 41
1.0
 50
0.0
 71
     0
 42
0.2
  3
TAHOMA.TTF
  4

1001
ACAD
1000
Tahoma
1071
      256
  0
STYLE
  5
9B
330
3
100
AcDbSymbolTableRecord
100
AcDbTextStyleTableRecord
  2
Note Text (DIN)
 70
     0
 40
0.0
 41
1.0
 50
0.0
 71
     0
 42
0.2
  3
isocpeur.ttf
  4

1001
ACAD
1000
ISOCPEUR
1071
      256
  0
STYLE
  5
9C
330
3
100
AcDbSymbolTableRecord
100
AcDbTextStyleTableRecord
  2
Note Text (ISO)
 70
     0
 40
0.0
 41
1.0
 50
0.0
 71
     0
 42
0.2
  3
TAHOMA.TTF
  4

1001
ACAD
1000
Tahoma
1071
      256
  0
STYLE
  5
9D
330
3
100
AcDbSymbolTableRecord
100
AcDbTextStyleTableRecord
  2
Note Text (JIS)
 70
     0
 40
0.0
 41
1.0
 50
0.0
 71
     0
 42
0.2
  3
TAHOMA.TTF
  4

1001
ACAD
1000
Tahoma
1071
      256
  0
STYLE
  5
F3
330
3
100
AcDbSymbolTableRecord
100
AcDbTextStyleTableRecord
  2
Text Style29
 70
     0
 40
0.0
 41
1.0
 50
0.0
 71
     0
 42
0.2
  3
TAHOMA.TTF
  4

1001
ACAD
1000
Tahoma
1071
      256
  0
STYLE
  5
77C
330
3
100
AcDbSymbolTableRecord
100
AcDbTextStyleTableRecord
  2
Text Style30
 70
     0
 40
0.0
 41
1.0
 50
0.0
 71
     0
 42
0.2
  3
TAHOMA.TTF
  4

1001
ACAD
1000
Tahoma
1071
      256
  0
STYLE
  5
A33
330
3
100
AcDbSymbolTableRecord
100
AcDbTextStyleTableRecord
  2
Text Style6
 70
     0
 40
0.0
 41
1.0
 50
0.0
 71
     0
 42
0.2
  3
AIGDT___.TTF
  4

1001
ACAD
1000
AIGDT
1071
      514
  0
ENDTAB
  0
TABLE
  2
VIEW
  5
6
330
0
100
AcDbSymbolTable
 70
     0
  0
ENDTAB
  0
TABLE
  2
UCS
  5
7
330
0
100
AcDbSymbolTable
 70
     0
  0
ENDTAB
  0
TABLE
  2
APPID
  5
9
330
0
100
AcDbSymbolTable
 70
     1
  0
APPID
  5
27
330
9
100
AcDbSymbolTableRecord
100
AcDbRegAppTableRecord
  2
ACAD
 70
     0
  0
ENDTAB
  0
TABLE
  2
DIMSTYLE
  5
A
330
0
100
AcDbSymbolTable
 70
    17
100
AcDbDimStyleTable
 71
     2
340
A6
340
3F
  0
DIMSTYLE
105
3F
330
A
100
AcDbSymbolTableRecord
100
AcDbDimStyleTableRecord
  2
Standard
 70
     0
340
26
  0
DIMSTYLE
105
9E
330
A
100
AcDbSymbolTableRecord
100
AcDbDimStyleTableRecord
  2
Architectural (ANSI)
 70
     0
 40
0.2
 41
0.0984251946210861
 42
0.0625
 43
0.2362204724409449
 44
0.125
 45
0.00000001
 46
0.3937007874015748
 78
     4
 79
     3
140
0.1200000047683716
144
0.0833333333333333
147
0.031496062992126
171
     1
176
   256
177
   256
178
   256
272
     2
274
     1
276
     2
277
     4
284
    12
286
    12
340
9A
371
    -1
372
    -1
  0
DIMSTYLE
105
9F
330
A
100
AcDbSymbolTableRecord
100
AcDbDimStyleTableRecord
  2
Architectural (ANSI)$7
 70
     0
 40
0.2
 41
0.0984251946210861
 42
0.0625
 43
0.2362204724409449
 44
0.125
 45
0.00000001
 46
0.3937007874015748
 78
     4
 79
     3
140
0.1200000047683716
144
0.0833333333333333
147
0.031496062992126
171
     1
176
   256
177
   256
178
   256
272
     2
274
     1
276
     2
277
     4
284
    12
286
    12
340
9A
371
    -1
372
    -1
  0
DIMSTYLE
105
A0
330
A
100
AcDbSymbolTableRecord
100
AcDbDimStyleTableRecord
  2
Default - Fraction (ANSI)
 70
     0
 40
0.2
 41
0.0984251946210861
 42
0.0625
 43
0.2362204724409449
 44
0.125
 45
0.00000001
 46
0.3937007874015748
 78
    12
 79
     3
140
0.1200000047683716
147
0.031496062992126
171
     1
176
   256
177
   256
178
   256
272
     2
274
     1
276
     2
277
     5
284
    12
286
    12
340
9A
371
    -1
372
    -1
  0
DIMSTYLE
105
A1
330
A
100
AcDbSymbolTableRecord
100
AcDbDimStyleTableRecord
  2
Default - Fraction (ANSI)$7
 70
     0
 40
0.2
 41
0.0984251946210861
 42
0.0625
 43
0.2362204724409449
 44
0.125
 45
0.00000001
 46
0.3937007874015748
 78
    12
 79
     3
140
0.1200000047683716
147
0.031496062992126
171
     1
176
   256
177
   256
178
   256
272
     2
274
     1
276
     2
277
     5
284
    12
286
    12
340
9A
371
    -1
372
    -1
  0
DIMSTYLE
105
A2
330
A
100
AcDbSymbolTableRecord
100
AcDbDimStyleTableRecord
  2
Default - mm (ANSI)
 70
     0
 40
0.2
 41
0.0984251946210861
 42
0.063
 43
0.2362204724409449
 44
0.125
 45
0.00000001
 46
0.3937007874015748
 73
     0
140
0.1200000047683716
143
1.0
144
25.4
147
0.031496062992126
171
     1
176
   256
177
   256
178
   256
179
     1
271
     2
272
     2
274
     1
340
9A
371
    -1
372
    -1
  0
DIMSTYLE
105
A3
330
A
100
AcDbSymbolTableRecord
100
AcDbDimStyleTableRecord
  2
Default - mm (ANSI)$7
 70
     0
 40
0.2
 41
0.0984251946210861
 42
0.063
 43
0.2362204724409449
 44
0.125
 45
0.00000001
 46
0.3937007874015748
 73
     0
140
0.1200000047683716
143
1.0
144
25.4
147
0.031496062992126
171
     1
176
   256
177
   256
178
   256
179
     1
271
     2
272
     2
274
     1
340
9A
371
    -1
372
    -1
  0
DIMSTYLE
105
A4
330
A
100
AcDbSymbolTableRecord
100
AcDbDimStyleTableRecord
  2
Default - mm [in] (ANSI)
 70
     0
  4
 in
 40
0.2
 41
0.0984251946210861
 42
0.063
 43
0.25
 44
0.125
 45
0.00000001
 46
0.3937007874015748
 73
     0
 78
     4
 79
     1
140
0.1200000047683716
143
0.03937
144
25.4
147
0.031496062992126
170
     1
171
     3
176
   256
177
   256
178
   256
179
     1
271
     2
272
     2
274
     3
284
     4
286
     4
340
9A
371
    -1
372
    -1
  0
DIMSTYLE
105
A5
330
A
100
AcDbSymbolTableRecord
100
AcDbDimStyleTableRecord
  2
Default - mm [in] (ANSI)$7
 70
     0
  4
 in
 40
0.2
 41
0.0984251946210861
 42
0.063
 43
0.25
 44
0.125
 45
0.00000001
 46
0.3937007874015748
 73
     0
 78
     4
 79
     1
140
0.1200000047683716
143
0.03937
144
25.4
147
0.031496062992126
170
     1
171
     3
176
   256
177
   256
178
   256
179
     1
271
     2
272
     2
274
     3
284
     4
286
     4
340
9A
371
    -1
372
    -1
  0
DIMSTYLE
105
A6
102
{ACAD_REACTORS
330
150
330
231
330
306
330
39D
330
434
330
514
330
5E4
330
6B0
330
784
330
86B
330
938
330
A50
102
}
330
A
100
AcDbSymbolTableRecord
100
AcDbDimStyleTableRecord
  2
Default (ANSI)
 70
     0
  3
 in
 40
0.2
 41
0.0984251946210861
 42
0.0625
 43
0.2362204724409449
 44
0.125
 45
0.00000001
 46
0.3937007874015748
140
0.1200000047683716
143
1.0
147
0.031496062992126
171
     3
176
   256
177
   256
178
   256
271
     3
272
     3
274
     3
340
9A
371
    -1
372
    -1
  0
DIMSTYLE
105
A7
330
A
100
AcDbSymbolTableRecord
100
AcDbDimStyleTableRecord
  2
Default (ANSI)$7
 70
     0
  3
 in
 40
0.2
 41
0.0984251946210861
 42
0.0625
 43
0.2362204724409449
 44
0.125
 45
0.00000001
 46
0.3937007874015748
140
0.1200000047683716
143
1.0
147
0.031496062992126
171
     3
176
   256
177
   256
178
   256
271
     3
272
     3
274
     3
340
9A
371
    -1
372
    -1
  0
DIMSTYLE
105
A8
330
A
100
AcDbSymbolTableRecord
100
AcDbDimStyleTableRecord
  2
Default (ANSI)-01
 70
     0
  3
 in
 40
0.2
 41
0.0984251946210861
 42
0.0625
 43
0.2362204724409449
 44
0.125
 45
0.00000001
 46
0.3937007874015748
140
0.1200000047683716
143
1.0
147
0.031496062992126
171
     3
176
   256
177
   256
178
   256
271
     3
272
     3
274
     3
340
9A
371
    -1
372
    -1
  0
DIMSTYLE
105
A9
330
A
100
AcDbSymbolTableRecord
100
AcDbDimStyleTableRecord
  2
Default (ANSI)-01$7
 70
     0
  3
 in
 40
0.2
 41
0.0984251946210861
 42
0.0625
 43
0.2362204724409449
 44
0.125
 45
0.00000001
 46
0.3937007874015748
140
0.1200000047683716
143
1.0
147
0.031496062992126
171
     3
176
   256
177
   256
178
   256
271
     3
272
     3
274
     3
340
9A
371
    -1
372
    -1
  0
DIMSTYLE
105
B8
330
A
100
AcDbSymbolTableRecord
100
AcDbDimStyleTableRecord
  2
Miscellaneous Object (ANSI)
 70
     0
 40
0.2
 41
0.1968503892421722
 42
0.0625
 43
0.2362204724409449
 44
0.125
 45
0.00000001
 46
0.3937007874015748
140
0.1799999922513962
146
0.666666721856155
147
0.031496062992126
171
     1
176
   256
177
   256
178
   256
271
     3
272
     2
274
     1
340
96
341
AA
371
    -1
372
    -1
  0
DIMSTYLE
105
B9
330
A
100
AcDbSymbolTableRecord
100
AcDbDimStyleTableRecord
  2
Miscellaneous Object (ANSI)$7
 70
     0
 40
0.2
 41
0.1959999948740005
 42
0.0625
 43
0.2362204724409449
 44
0.125
 45
0.00000001
 46
0.3937007874015748
140
0.1799999922513962
146
0.666666721856155
147
0.031496062992126
171
     1
176
   256
177
   256
178
   256
271
     3
272
     2
274
     1
340
96
341
AA
371
    -1
372
    -1
  0
DIMSTYLE
105
BA
330
A
100
AcDbSymbolTableRecord
100
AcDbDimStyleTableRecord
  2
Alternate (ANSI)
 70
     0
 40
0.2
 41
0.0979999974370003
340
26
342
BB
  0
DIMSTYLE
105
CC
330
A
100
AcDbSymbolTableRecord
100
AcDbDimStyleTableRecord
  2
Datum (ANSI)
 70
     0
 40
0.2
 41
0.0979999974370003
340
26
342
BB
  0
ENDTAB
  0
TABLE
  2
BLOCK_RECORD
  5
1
330
0
100
AcDbSymbolTable
 70
    21
  0
BLOCK_RECORD
  5
37
330
1
100
AcDbSymbolTableRecord
100
AcDbBlockTableRecord
  2
*Model_Space
340
3A
  0
BLOCK_RECORD
  5
33
330
1
100
AcDbSymbolTableRecord
100
AcDbBlockTableRecord
  2
*Paper_Space
340
36
  0
BLOCK_RECORD
  5
3B
330
1
100
AcDbSymbolTableRecord
100
AcDbBlockTableRecord
  2
*Paper_Space0
340
3E
  0
BLOCK_RECORD
  5
AA
330
1
100
AcDbSymbolTableRecord
100
AcDbBlockTableRecord
  2
Filled-1
340
0
  0
BLOCK_RECORD
  5
BB
330
1
100
AcDbSymbolTableRecord
100
AcDbBlockTableRecord
  2
_Closed
340
0
  0
BLOCK_RECORD
  5
C2
330
1
100
AcDbSymbolTableRecord
100
AcDbBlockTableRecord
  2
DatumFilled45
340
0
  0
BLOCK_RECORD
  5
CD
330
1
100
AcDbSymbolTableRecord
100
AcDbBlockTableRecord
  2
Borders Default Border
340
0
102
{BLKREFS
331
FE
102
}
  0
BLOCK_RECORD
  5
152
330
1
100
AcDbSymbolTableRecord
100
AcDbBlockTableRecord
  2
*D5
340
0
  0
BLOCK_RECORD
  5
232
330
1
100
AcDbSymbolTableRecord
100
AcDbBlockTableRecord
  2
*D6
340
0
  0
BLOCK_RECORD
  5
307
330
1
100
AcDbSymbolTableRecord
100
AcDbBlockTableRecord
  2
*D7
340
0
  0
BLOCK_RECORD
  5
39E
330
1
100
AcDbSymbolTableRecord
100
AcDbBlockTableRecord
  2
*D8
340
0
  0
BLOCK_RECORD
  5
435
330
1
100
AcDbSymbolTableRecord
100
AcDbBlockTableRecord
  2
*D9
340
0
  0
BLOCK_RECORD
  5
515
330
1
100
AcDbSymbolTableRecord
100
AcDbBlockTableRecord
  2
*D10
340
0
  0
BLOCK_RECORD
  5
5E5
330
1
100
AcDbSymbolTableRecord
100
AcDbBlockTableRecord
  2
*D11
340
0
  0
BLOCK_RECORD
  5
6B1
330
1
100
AcDbSymbolTableRecord
100
AcDbBlockTableRecord
  2
*D12
340
0
  0
BLOCK_RECORD
  5
785
330
1
100
AcDbSymbolTableRecord
100
AcDbBlockTableRecord
  2
*D13
340
0
  0
BLOCK_RECORD
  5
86C
330
1
100
AcDbSymbolTableRecord
100
AcDbBlockTableRecord
  2
*D14
340
0
  0
BLOCK_RECORD
  5
939
330
1
100
AcDbSymbolTableRecord
100
AcDbBlockTableRecord
  2
*D15
340
0
  0
BLOCK_RECORD
  5
9D1
330
1
100
AcDbSymbolTableRecord
100
AcDbBlockTableRecord
  2
_Dot
340
0
  0
BLOCK_RECORD
  5
9E8
330
1
100
AcDbSymbolTableRecord
100
AcDbBlockTableRecord
  2
Origin Indicator Symbol5
340
0
102
{BLKREFS
331
A0E
102
}
  0
BLOCK_RECORD
  5
A0F
330
1
100
AcDbSymbolTableRecord
100
AcDbBlockTableRecord
  2
Hole Table5
340
0
102
{BLKREFS
331
A3D
102
}
  0
BLOCK_RECORD
  5
A3E
330
1
100
AcDbSymbolTableRecord
100
AcDbBlockTableRecord
  2
Leader Text16
340
0
102
{BLKREFS
331
A4F
102
}
  0
BLOCK_RECORD
  5
A51
330
1
100
AcDbSymbolTableRecord
100
AcDbBlockTableRecord
  2
*D20
340
0
  0
ENDTAB
  0
ENDSEC
  0
SECTION
  2
BLOCKS
  0
BLOCK
  5
38
330
37
100
AcDbEntity
  8
0
100
AcDbBlockBegin
  2
*Model_Space
 70
     0
 10
0.0
 20
0.0
 30
0.0
  3
*Model_Space
  1

  0
ENDBLK
  5
39
330
37
100
AcDbEntity
  8
0
100
AcDbBlockEnd
  0
BLOCK
  5
34
330
33
100
AcDbEntity
 67
     1
  8
0
100
AcDbBlockBegin
  2
*Paper_Space
 70
     0
 10
0.0
 20
0.0
 30
0.0
  3
*Paper_Space
  1

  0
ENDBLK
  5
35
330
33
100
AcDbEntity
 67
     1
  8
0
100
AcDbBlockEnd
  0
BLOCK
  5
3C
330
3B
100
AcDbEntity
 67
     1
  8
0
100
AcDbBlockBegin
  2
*Paper_Space0
 70
     0
 10
0.0
 20
0.0
 30
0.0
  3
*Paper_Space0
  1

  0
ENDBLK
  5
3D
330
3B
100
AcDbEntity
 67
     1
  8
0
100
AcDbBlockEnd
  0
BLOCK
  5
AB
330
AA
100
AcDbEntity
  8
0
100
AcDbBlockBegin
  2
Filled-1
 70
     0
 10
0.0
 20
0.0
 30
0.0
  3
Filled-1
  1

  0
LINE
  5
AD
330
AA
100
AcDbEntity
  8
0
 62
     0
100
AcDbLine
 10
-0.9999999999999998
 20
0.0
 30
0.0
 11
0.0
 21
0.0
 31
0.0
  0
POLYLINE
  5
AE
330
AA
100
AcDbEntity
  8
0
 62
     0
100
AcDb2dPolyline
 66
     1
 10
0.0
 20
0.0
 30
0.0
 70
   128
  0
VERTEX
  5
AF
330
AE
100
AcDbEntity
  8
0
 62
     0
100
AcDbVertex
100
AcDb2dVertex
 10
-0.9999999999999998
 20
-0.0994897959183674
 30
0.0
  0
VERTEX
  5
B0
330
AE
100
AcDbEntity
  8
0
 62
     0
100
AcDbVertex
100
AcDb2dVertex
 10
0.0
 20
0.0
 30
0.0
  0
VERTEX
  5
B2
330
AE
100
AcDbEntity
  8
0
 62
     0
100
AcDbVertex
100
AcDb2dVertex
 10
-0.9999999999999998
 20
0.0994897959183674
 30
0.0
  0
VERTEX
  5
B3
330
AE
100
AcDbEntity
  8
0
 62
     0
100
AcDbVertex
100
AcDb2dVertex
 10
-0.9999999999999998
 20
-0.0994897959183674
 30
0.0
  0
SEQEND
  5
B1
330
AE
100
AcDbEntity
  8
0
 62
     0
  0
SOLID
  5
B4
330
AA
100
AcDbEntity
  8
0
 62
     0
100
AcDbTrace
 10
-0.9999999999999998
 20
-0.0994897959183674
 30
0.0
 11
0.0
 21
0.0
 31
0.0
 12
-0.9999999999999998
 22
0.0994897959183674
 32
0.0
 13
-0.9999999999999998
 23
-0.0994897959183674
 33
0.0
  0
LINE
  5
B5
330
AA
100
AcDbEntity
  8
0
 62
     0
100
AcDbLine
 10
-0.9999999999999998
 20
-0.0994897959183674
 30
0.0
 11
0.0
 21
0.0
 31
0.0
  0
LINE
  5
B6
330
AA
100
AcDbEntity
  8
0
 62
     0
100
AcDbLine
 10
0.0
 20
0.0
 30
0.0
 11
-0.9999999999999998
 21
0.0994897959183674
 31
0.0
  0
LINE
  5
B7
330
AA
100
AcDbEntity
  8
0
 62
     0
100
AcDbLine
 10
-0.9999999999999998
 20
0.0994897959183674
 30
0.0
 11
-0.9999999999999998
 21
-0.0994897959183674
 31
0.0
  0
ENDBLK
  5
AC
330
AA
100
AcDbEntity
  8
0
100
AcDbBlockEnd
  0
BLOCK
  5
C0
330
BB
100
AcDbEntity
  8
0
100
AcDbBlockBegin
  2
_Closed
 70
     0
 10
0.0
 20
0.0
 30
0.0
  3
_Closed
  1

  0
LINE
  5
BC
330
BB
100
AcDbEntity
  8
0
  6
ByBlock
 62
     0
370
    -2
100
AcDbLine
 10
-1.0
 20
0.1666666666666666
 30
0.0
 11
0.0
 21
0.0
 31
0.0
  0
LINE
  5
BD
330
BB
100
AcDbEntity
  8
0
  6
ByBlock
 62
     0
370
    -2
100
AcDbLine
 10
0.0
 20
0.0
 30
0.0
 11
-1.0
 21
-0.1666666666666666
 31
0.0
  0
LINE
  5
BE
330
BB
100
AcDbEntity
  8
0
  6
ByBlock
 62
     0
370
    -2
100
AcDbLine
 10
-1.0
 20
0.1666666666666666
 30
0.0
 11
-1.0
 21
-0.1666666666666666
 31
0.0
  0
LINE
  5
BF
330
BB
100
AcDbEntity
  8
0
  6
ByBlock
 62
     0
370
    -2
100
AcDbLine
 10
0.0
 20
0.0
 30
0.0
 11
-1.0
 21
0.0
 31
0.0
  0
ENDBLK
  5
C1
330
BB
100
AcDbEntity
  8
0
100
AcDbBlockEnd
  0
BLOCK
  5
C3
330
C2
100
AcDbEntity
  8
0
100
AcDbBlockBegin
  2
DatumFilled45
 70
     0
 10
0.0
 20
0.0
 30
0.0
  3
DatumFilled45
  1

  0
POLYLINE
  5
C5
330
C2
100
AcDbEntity
  8
0
 62
     0
100
AcDb2dPolyline
 66
     1
 10
0.0
 20
0.0
 30
0.0
 70
   128
  0
VERTEX
  5
C6
330
C5
100
AcDbEntity
  8
0
 62
     0
100
AcDbVertex
100
AcDb2dVertex
 10
0.0
 20
0.9999999999999998
 30
0.0
  0
VERTEX
  5
C7
330
C5
100
AcDbEntity
  8
0
 62
     0
100
AcDbVertex
100
AcDb2dVertex
 10
0.0
 20
-0.9999999999999998
 30
0.0
  0
VERTEX
  5
C9
330
C5
100
AcDbEntity
  8
0
 62
     0
100
AcDbVertex
100
AcDb2dVertex
 10
-0.9999999999999998
 20
0.0
 30
0.0
  0
VERTEX
  5
CA
330
C5
100
AcDbEntity
  8
0
 62
     0
100
AcDbVertex
100
AcDb2dVertex
 10
0.0
 20
0.9999999999999998
 30
0.0
  0
SEQEND
  5
C8
330
C5
100
AcDbEntity
  8
0
 62
     0
  0
SOLID
  5
CB
330
C2
100
AcDbEntity
  8
0
 62
     0
100
AcDbTrace
 10
0.0
 20
0.9999999999999998
 30
0.0
 11
0.0
 21
-0.9999999999999998
 31
0.0
 12
-0.9999999999999998
 22
0.0
 32
0.0
 13
0.0
 23
0.9999999999999998
 33
0.0
  0
ENDBLK
  5
C4
330
C2
100
AcDbEntity
  8
0
100
AcDbBlockEnd
  0
BLOCK
  5
CE
330
CD
100
AcDbEntity
  8
0
100
AcDbBlockBegin
  2
Borders Default Border
 70
     0
 10
0.0
 20
0.0
 30
0.0
  3
Borders Default Border
  1

  0
POLYLINE
  5
D0
330
CD
100
AcDbEntity
  8
Border (ANSI)
100
AcDb2dPolyline
 66
     1
 10
0.0
 20
0.0
 30
0.0
 70
   128
  0
VERTEX
  5
D1
330
D0
100
AcDbEntity
  8
Border (ANSI)
100
AcDbVertex
100
AcDb2dVertex
 10
0.380000002740875
 20
0.380000002740875
 30
0.0
  0
VERTEX
  5
D2
330
D0
100
AcDbEntity
  8
Border (ANSI)
100
AcDbVertex
100
AcDb2dVertex
 10
0.380000002740875
 20
8.119999893068328
 30
0.0
  0
VERTEX
  5
D4
330
D0
100
AcDbEntity
  8
Border (ANSI)
100
AcDbVertex
100
AcDb2dVertex
 10
10.62000004325326
 20
8.119999893068328
 30
0.0
  0
VERTEX
  5
D5
330
D0
100
AcDbEntity
  8
Border (ANSI)
100
AcDbVertex
100
AcDb2dVertex
 10
10.62000004325326
 20
0.380000002740875
 30
0.0
  0
VERTEX
  5
D6
330
D0
100
AcDbEntity
  8
Border (ANSI)
100
AcDbVertex
100
AcDb2dVertex
 10
0.380000002740875
 20
0.380000002740875
 30
0.0
  0
SEQEND
  5
D3
330
D0
100
AcDbEntity
  8
Border (ANSI)
  0
POLYLINE
  5
D7
330
CD
100
AcDbEntity
  8
Border (ANSI)
100
AcDb2dPolyline
 66
     1
 10
0.0
 20
0.0
 30
0.0
 70
   128
  0
VERTEX
  5
D8
330
D7
100
AcDbEntity
  8
Border (ANSI)
100
AcDbVertex
100
AcDb2dVertex
 10
5.500000105129451
 20
0.1299999947623005
 30
0.0
  0
VERTEX
  5
D9
330
D7
100
AcDbEntity
  8
Border (ANSI)
100
AcDbVertex
100
AcDb2dVertex
 10
5.500000105129451
 20
0.380000002740875
 30
0.0
  0
VERTEX
  5
DB
330
D7
100
AcDbEntity
  8
Border (ANSI)
100
AcDbVertex
100
AcDb2dVertex
 10
5.413397466103861
 20
0.2300000096869281
 30
0.0
  0
VERTEX
  5
DC
330
D7
100
AcDbEntity
  8
Border (ANSI)
100
AcDbVertex
100
AcDb2dVertex
 10
5.586602368692712
 20
0.2300000096869281
 30
0.0
  0
VERTEX
  5
DD
330
D7
100
AcDbEntity
  8
Border (ANSI)
100
AcDbVertex
100
AcDb2dVertex
 10
5.500000105129451
 20
0.380000002740875
 30
0.0
  0
SEQEND
  5
DA
330
D7
100
AcDbEntity
  8
Border (ANSI)
  0
POLYLINE
  5
DE
330
CD
100
AcDbEntity
  8
Border (ANSI)
100
AcDb2dPolyline
 66
     1
 10
0.0
 20
0.0
 30
0.0
 70
   128
  0
VERTEX
  5
DF
330
DE
100
AcDbEntity
  8
Border (ANSI)
100
AcDbVertex
100
AcDb2dVertex
 10
5.500000105129451
 20
8.369999983179287
 30
0.0
  0
VERTEX
  5
E0
330
DE
100
AcDbEntity
  8
Border (ANSI)
100
AcDbVertex
100
AcDb2dVertex
 10
5.500000105129451
 20
8.119999893068328
 30
0.0
  0
VERTEX
  5
E2
330
DE
100
AcDbEntity
  8
Border (ANSI)
100
AcDbVertex
100
AcDb2dVertex
 10
5.413397466103861
 20
8.270000097319835
 30
0.0
  0
VERTEX
  5
E3
330
DE
100
AcDbEntity
  8
Border (ANSI)
100
AcDbVertex
100
AcDb2dVertex
 10
5.586602368692712
 20
8.270000097319835
 30
0.0
  0
VERTEX
  5
E4
330
DE
100
AcDbEntity
  8
Border (ANSI)
100
AcDbVertex
100
AcDb2dVertex
 10
5.500000105129451
 20
8.119999893068328
 30
0.0
  0
SEQEND
  5
E1
330
DE
100
AcDbEntity
  8
Border (ANSI)
  0
POLYLINE
  5
E5
330
CD
100
AcDbEntity
  8
Border (ANSI)
100
AcDb2dPolyline
 66
     1
 10
0.0
 20
0.0
 30
0.0
 70
   128
  0
VERTEX
  5
E6
330
E5
100
AcDbEntity
  8
Border (ANSI)
100
AcDbVertex
100
AcDb2dVertex
 10
0.1299999947623005
 20
4.250000030036986
 30
0.0
  0
VERTEX
  5
E7
330
E5
100
AcDbEntity
  8
Border (ANSI)
100
AcDbVertex
100
AcDb2dVertex
 10
0.380000002740875
 20
4.250000030036986
 30
0.0
  0
VERTEX
  5
E9
330
E5
100
AcDbEntity
  8
Border (ANSI)
100
AcDbVertex
100
AcDb2dVertex
 10
0.2300000096869281
 20
4.336602669062576
 30
0.0
  0
VERTEX
  5
EA
330
E5
100
AcDbEntity
  8
Border (ANSI)
100
AcDbVertex
100
AcDb2dVertex
 10
0.2300000096869281
 20
4.163397391011395
 30
0.0
  0
VERTEX
  5
EB
330
E5
100
AcDbEntity
  8
Border (ANSI)
100
AcDbVertex
100
AcDb2dVertex
 10
0.380000002740875
 20
4.250000030036986
 30
0.0
  0
SEQEND
  5
E8
330
E5
100
AcDbEntity
  8
Border (ANSI)
  0
POLYLINE
  5
EC
330
CD
100
AcDbEntity
  8
Border (ANSI)
100
AcDb2dPolyline
 66
     1
 10
0.0
 20
0.0
 30
0.0
 70
   128
  0
VERTEX
  5
ED
330
EC
100
AcDbEntity
  8
Border (ANSI)
100
AcDbVertex
100
AcDb2dVertex
 10
10.87000013336422
 20
4.250000030036986
 30
0.0
  0
VERTEX
  5
EE
330
EC
100
AcDbEntity
  8
Border (ANSI)
100
AcDbVertex
100
AcDb2dVertex
 10
10.62000004325326
 20
4.250000030036986
 30
0.0
  0
VERTEX
  5
F0
330
EC
100
AcDbEntity
  8
Border (ANSI)
100
AcDbVertex
100
AcDb2dVertex
 10
10.77000024750476
 20
4.336602669062576
 30
0.0
  0
VERTEX
  5
F1
330
EC
100
AcDbEntity
  8
Border (ANSI)
100
AcDbVertex
100
AcDb2dVertex
 10
10.77000024750476
 20
4.163397391011395
 30
0.0
  0
VERTEX
  5
F2
330
EC
100
AcDbEntity
  8
Border (ANSI)
100
AcDbVertex
100
AcDb2dVertex
 10
10.62000004325326
 20
4.250000030036986
 30
0.0
  0
SEQEND
  5
EF
330
EC
100
AcDbEntity
  8
Border (ANSI)
  0
MTEXT
  5
F4
330
CD
100
AcDbEntity
  8
Border (ANSI)
100
AcDbMText
 10
8.24092395498058
 20
8.16
 30
0.0
 40
0.1200000014830762
 41
0.0
 71
     7
 72
     1
  1
1
  7
Text Style29
 73
     1
 44
1.0
1001
ACAD
1000
MTEXTBEGIN
1070
    73
1070
     1
1070
    44
1040
1.0
1070
    74
1070
     0
1000
MTEXTEND
  0
MTEXT
  5
F7
330
CD
100
AcDbEntity
  8
Border (ANSI)
100
AcDbMText
 10
8.24092395498058
 20
0.2199999985169238
 30
0.0
 40
0.1200000014830762
 41
0.0
 71
     7
 72
     1
  1
1
  7
Text Style29
 73
     1
 44
1.0
1001
ACAD
1000
MTEXTBEGIN
1070
    73
1070
     1
1070
    44
1040
1.0
1070
    74
1070
     0
1000
MTEXTEND
  0
MTEXT
  5
F8
330
CD
100
AcDbEntity
  8
Border (ANSI)
100
AcDbMText
 10
2.722276993858532
 20
8.16
 30
0.0
 40
0.1200000014830762
 41
0.0
 71
     7
 72
     1
  1
2
  7
Text Style29
 73
     1
 44
1.0
1001
ACAD
1000
MTEXTBEGIN
1070
    73
1070
     1
1070
    44
1040
1.0
1070
    74
1070
     0
1000
MTEXTEND
  0
MTEXT
  5
F9
330
CD
100
AcDbEntity
  8
Border (ANSI)
100
AcDbMText
 10
2.722276993858532
 20
0.2199999985169238
 30
0.0
 40
0.1200000014830762
 41
0.0
 71
     7
 72
     1
  1
2
  7
Text Style29
 73
     1
 44
1.0
1001
ACAD
1000
MTEXTBEGIN
1070
    73
1070
     1
1070
    44
1040
1.0
1070
    74
1070
     0
1000
MTEXTEND
  0
MTEXT
  5
FA
330
CD
100
AcDbEntity
  8
Border (ANSI)
100
AcDbMText
 10
0.2281865791448458
 20
2.064999999258461
 30
0.0
 40
0.1200000014830762
 41
0.0
 71
     7
 72
     1
  1
A
  7
Text Style29
 73
     1
 44
1.0
1001
ACAD
1000
MTEXTBEGIN
1070
    73
1070
     1
1070
    44
1040
1.0
1070
    74
1070
     0
1000
MTEXTEND
  0
MTEXT
  5
FB
330
CD
100
AcDbEntity
  8
Border (ANSI)
100
AcDbMText
 10
10.66818658062792
 20
2.064999999258461
 30
0.0
 40
0.1200000014830762
 41
0.0
 71
     7
 72
     1
  1
A
  7
Text Style29
 73
     1
 44
1.0
1001
ACAD
1000
MTEXTBEGIN
1070
    73
1070
     1
1070
    44
1040
1.0
1070
    74
1070
     0
1000
MTEXTEND
  0
MTEXT
  5
FC
330
CD
100
AcDbEntity
  8
Border (ANSI)
100
AcDbMText
 10
0.2554072225563169
 20
6.314999999258461
 30
0.0
 40
0.1200000014830762
 41
0.0
 71
     7
 72
     1
  1
B
  7
Text Style29
 73
     1
 44
1.0
1001
ACAD
1000
MTEXTBEGIN
1070
    73
1070
     1
1070
    44
1040
1.0
1070
    74
1070
     0
1000
MTEXTEND
  0
MTEXT
  5
FD
330
CD
100
AcDbEntity
  8
Border (ANSI)
100
AcDbMText
 10
10.69540722403939
 20
6.314999999258461
 30
0.0
 40
0.1200000014830762
 41
0.0
 71
     7
 72
     1
  1
B
  7
Text Style29
 73
     1
 44
1.0
1001
ACAD
1000
MTEXTBEGIN
1070
    73
1070
     1
1070
    44
1040
1.0
1070
    74
1070
     0
1000
MTEXTEND
  0
ENDBLK
  5
CF
330
CD
100
AcDbEntity
  8
0
100
AcDbBlockEnd
  0
BLOCK
  5
15D
330
152
100
AcDbEntity
  8
0
100
AcDbBlockBegin
  2
*D5
 70
     1
 10
0.0
 20
0.0
 30
0.0
  3
*D5
  1

  0
LINE
  5
227
330
152
100
AcDbEntity
  8
Dimension (ANSI)
100
AcDbLine
 10
1.08621659517401
 20
1.362618482086903
 30
0.0
 11
1.08621659517401
 21
1.487210537145036
 31
0.0
  0
LINE
  5
228
330
152
100
AcDbEntity
  8
Dimension (ANSI)
100
AcDbLine
 10
1.08726659517401
 20
1.395970379664721
 30
0.0
 11
1.08726659517401
 21
1.487210537145036
 31
0.0
  0
LINE
  5
229
330
152
100
AcDbEntity
  8
Dimension (ANSI)
100
AcDbLine
 10
1.066531556249793
 20
1.462210537145036
 30
0.0
 11
1.046846517325575
 21
1.462210537145036
 31
0.0
  0
LINE
  5
22A
330
152
100
AcDbEntity
  8
Dimension (ANSI)
100
AcDbLine
 10
1.106951634098227
 20
1.462210537145036
 30
0.0
 11
1.160994371752151
 21
1.462210537145036
 31
0.0
  0
SOLID
  5
22B
330
152
100
AcDbEntity
  8
Dimension (ANSI)
100
AcDbTrace
 10
1.066531556249793
 20
1.465491376965739
 30
0.0
 11
1.066531556249793
 21
1.458929697324333
 31
0.0
 12
1.08621659517401
 22
1.462210537145036
 32
0.0
 13
1.08621659517401
 23
1.462210537145036
 33
0.0
  0
SOLID
  5
22C
330
152
100
AcDbEntity
  8
Dimension (ANSI)
100
AcDbTrace
 10
1.106951634098227
 20
1.465491376965739
 30
0.0
 11
1.106951634098227
 21
1.458929697324333
 31
0.0
 12
1.08726659517401
 22
1.462210537145036
 32
0.0
 13
1.08726659517401
 23
1.462210537145036
 33
0.0
  0
MTEXT
  5
22D
330
152
100
AcDbEntity
  8
Dimension (ANSI)
100
AcDbMText
 10
1.167293584350576
 20
1.474702142745504
 30
0.0
 40
0.0240000009536743
 41
0.0
 71
     1
 72
     1
  1
\A1;0.001 in
  7
Note Text (ANSI)
 73
     1
 44
1.0
1001
ACAD
1000
MTEXTBEGIN
1070
    73
1070
     1
1070
    44
1040
1.0
1070
    74
1070
     0
1000
MTEXTEND
  0
POINT
  5
22E
330
152
100
AcDbEntity
  8
Defpoints
 62
     0
100
AcDbPoint
 10
1.08621659517401
 20
1.350118482086903
 30
0.0
  0
POINT
  5
22F
330
152
100
AcDbEntity
  8
Defpoints
 62
     0
100
AcDbPoint
 10
1.08726659517401
 20
1.383470379664721
 30
0.0
  0
POINT
  5
230
330
152
100
AcDbEntity
  8
Defpoints
 62
     0
100
AcDbPoint
 10
1.08726659517401
 20
1.462210537145036
 30
0.0
  0
ENDBLK
  5
15E
330
152
100
AcDbEntity
  8
0
100
AcDbBlockEnd
  0
BLOCK
  5
23D
330
232
100
AcDbEntity
  8
0
100
AcDbBlockBegin
  2
*D6
 70
     1
 10
0.0
 20
0.0
 30
0.0
  3
*D6
  1

  0
LINE
  5
2FE
330
232
100
AcDbEntity
  8
Dimension (ANSI)
100
AcDbLine
 10
1.067581556249793
 20
1.386532240862539
 30
0.0
 11
0.9769516340982276
 21
1.386532240862539
 31
0.0
  0
LINE
  5
2FF
330
232
100
AcDbEntity
  8
Dimension (ANSI)
100
AcDbLine
 10
0.9572665951740104
 20
1.386532240862539
 30
0.0
 11
0.8877427898042542
 21
1.386532240862539
 31
0.0
  0
SOLID
  5
300
330
232
100
AcDbEntity
  8
Dimension (ANSI)
100
AcDbTrace
 10
1.067581556249793
 20
1.389813080683242
 30
0.0
 11
1.067581556249793
 21
1.383251401041836
 31
0.0
 12
1.08726659517401
 22
1.386532240862539
 32
0.0
 13
1.08726659517401
 23
1.386532240862539
 33
0.0
  0
SOLID
  5
301
330
232
100
AcDbEntity
  8
Dimension (ANSI)
100
AcDbTrace
 10
0.9769516340982276
 20
1.389813080683242
 30
0.0
 11
0.9769516340982276
 21
1.383251401041836
 31
0.0
 12
0.9572665951740104
 22
1.386532240862539
 32
0.0
 13
0.9572665951740104
 23
1.386532240862539
 33
0.0
  0
MTEXT
  5
302
330
232
100
AcDbEntity
  8
Dimension (ANSI)
100
AcDbMText
 10
0.7665046874807441
 20
1.399031905563395
 30
0.0
 40
0.0240000009536743
 41
0.0
 71
     1
 72
     1
  1
\A1;0.130 in
  7
Note Text (ANSI)
 73
     1
 44
1.0
1001
ACAD
1000
MTEXTBEGIN
1070
    73
1070
     1
1070
    44
1040
1.0
1070
    74
1070
     0
1000
MTEXTEND
  0
POINT
  5
303
330
232
100
AcDbEntity
  8
Defpoints
 62
     0
100
AcDbPoint
 10
0.9572665951740104
 20
1.28493621883995
 30
0.0
  0
POINT
  5
304
330
232
100
AcDbEntity
  8
Defpoints
 62
     0
100
AcDbPoint
 10
1.08726659517401
 20
1.297041570669107
 30
0.0
  0
POINT
  5
305
330
232
100
AcDbEntity
  8
Defpoints
 62
     0
100
AcDbPoint
 10
1.08726659517401
 20
1.386532240862539
 30
0.0
  0
ENDBLK
  5
23E
330
232
100
AcDbEntity
  8
0
100
AcDbBlockEnd
  0
BLOCK
  5
30D
330
307
100
AcDbEntity
  8
0
100
AcDbBlockBegin
  2
*D7
 70
     1
 10
0.0
 20
0.0
 30
0.0
  3
*D7
  1

  0
LINE
  5
397
330
307
100
AcDbEntity
  8
Dimension (ANSI)
100
AcDbLine
 10
0.5727588015119293
 20
1.189187670522181
 30
0.0
 11
0.5985952088981759
 21
1.189187670522181
 31
0.0
  0
LINE
  5
398
330
307
100
AcDbEntity
  8
Dimension (ANSI)
100
AcDbLine
 10
0.5985952088981759
 20
1.189187670522181
 30
0.0
 11
0.6272212680135441
 21
1.154167634430442
 31
0.0
  0
MTEXT
  5
399
330
307
100
AcDbEntity
  8
Dimension (ANSI)
100
AcDbMText
 10
0.4141103551901129
 20
1.201735689825362
 30
0.0
 40
0.0240000009536743
 41
0.0
 71
     1
 72
     1
  1
\A1;R0.0308 in
  7
Note Text (ANSI)
 73
     1
 44
1.0
1001
ACAD
1000
MTEXTBEGIN
1070
    73
1070
     1
1070
    44
1040
1.0
1070
    74
1070
     0
1000
MTEXTEND
  0
SOLID
  5
39A
330
307
100
AcDbEntity
  8
Dimension (ANSI)
100
AcDbTrace
 10
0.6297614467604245
 20
1.15624402597902
 30
0.0
 11
0.624681089266664
 21
1.152091242881863
 31
0.0
 12
0.6396796173050142
 22
1.13892656194916
 32
0.0
 13
0.6396796173050142
 23
1.13892656194916
 33
0.0
  0
POINT
  5
39B
330
307
100
AcDbEntity
  8
Defpoints
 62
     0
100
AcDbPoint
 10
0.6396796173050142
 20
1.13892656194916
 30
0.0
  0
POINT
  5
39C
330
307
100
AcDbEntity
  8
Defpoints
 62
     0
100
AcDbPoint
 10
0.6591408051740105
 20
1.115118482086903
 30
0.0
  0
ENDBLK
  5
30E
330
307
100
AcDbEntity
  8
0
100
AcDbBlockEnd
  0
BLOCK
  5
3A4
330
39E
100
AcDbEntity
  8
0
100
AcDbBlockBegin
  2
*D8
 70
     1
 10
0.0
 20
0.0
 30
0.0
  3
*D8
  1

  0
LINE
  5
42E
330
39E
100
AcDbEntity
  8
Dimension (ANSI)
100
AcDbLine
 10
1.129660012881218
 20
0.8676033581386239
 30
0.0
 11
1.103823605494971
 21
0.8676033581386237
 31
0.0
  0
LINE
  5
42F
330
39E
100
AcDbEntity
  8
Dimension (ANSI)
100
AcDbLine
 10
1.103823605494971
 20
0.8676033581386237
 30
0.0
 11
1.052353417626709
 21
0.9859431381253587
 31
0.0
  0
MTEXT
  5
430
330
39E
100
AcDbEntity
  8
Dimension (ANSI)
100
AcDbMText
 10
1.135959225479643
 20
0.8801513774418042
 30
0.0
 40
0.0240000009536743
 41
0.0
 71
     1
 72
     1
  1
\A1;R0.0558 in
  7
Note Text (ANSI)
 73
     1
 44
1.0
1001
ACAD
1000
MTEXTBEGIN
1070
    73
1070
     1
1070
    44
1040
1.0
1070
    74
1070
     0
1000
MTEXTEND
  0
SOLID
  5
431
330
39E
100
AcDbEntity
  8
Dimension (ANSI)
100
AcDbTrace
 10
1.055362009208504
 20
0.9872516818285097
 30
0.0
 11
1.049344826044912
 21
0.9846345944222075
 31
0.0
 12
1.044502155407803
 22
1.003994687616134
 32
0.0
 13
1.044502155407803
 23
1.003994687616134
 33
0.0
  0
POINT
  5
432
330
39E
100
AcDbEntity
  8
Defpoints
 62
     0
100
AcDbPoint
 10
1.044502155407803
 20
1.003994687616134
 30
0.0
  0
POINT
  5
433
330
39E
100
AcDbEntity
  8
Defpoints
 62
     0
100
AcDbPoint
 10
1.02226659517401
 20
1.055118482086903
 30
0.0
  0
ENDBLK
  5
3A5
330
39E
100
AcDbEntity
  8
0
100
AcDbBlockEnd
  0
BLOCK
  5
440
330
435
100
AcDbEntity
  8
0
100
AcDbBlockBegin
  2
*D9
 70
     1
 10
0.0
 20
0.0
 30
0.0
  3
*D9
  1

  0
LINE
  5
50A
330
435
100
AcDbEntity
  8
Dimension (ANSI)
100
AcDbLine
 10
1.08621659517401
 20
1.362618482086903
 30
0.0
 11
1.08621659517401
 21
1.580176093614774
 31
0.0
  0
LINE
  5
50B
330
435
100
AcDbEntity
  8
Dimension (ANSI)
100
AcDbLine
 10
0.6191408051740103
 20
1.195158766559744
 30
0.0
 11
0.6191408051740103
 21
1.580176093614774
 31
0.0
  0
LINE
  5
50C
330
435
100
AcDbEntity
  8
Dimension (ANSI)
100
AcDbLine
 10
1.066531556249793
 20
1.555176093614774
 30
0.0
 11
0.9349825307152297
 21
1.555176093614774
 31
0.0
  0
LINE
  5
50D
330
435
100
AcDbEntity
  8
Dimension (ANSI)
100
AcDbLine
 10
0.6388258440982276
 20
1.555176093614774
 30
0.0
 11
0.7894250673270702
 21
1.555176093614774
 31
0.0
  0
SOLID
  5
50E
330
435
100
AcDbEntity
  8
Dimension (ANSI)
100
AcDbTrace
 10
1.066531556249793
 20
1.558456933435477
 30
0.0
 11
1.066531556249793
 21
1.551895253794071
 31
0.0
 12
1.08621659517401
 22
1.555176093614774
 32
0.0
 13
1.08621659517401
 23
1.555176093614774
 33
0.0
  0
SOLID
  5
50F
330
435
100
AcDbEntity
  8
Dimension (ANSI)
100
AcDbTrace
 10
0.6388258440982276
 20
1.558456933435477
 30
0.0
 11
0.6388258440982276
 21
1.551895253794071
 31
0.0
 12
0.6191408051740103
 22
1.555176093614774
 32
0.0
 13
0.6191408051740103
 23
1.555176093614774
 33
0.0
  0
MTEXT
  5
510
330
435
100
AcDbEntity
  8
Dimension (ANSI)
100
AcDbMText
 10
0.7957242799254953
 20
1.567667699215242
 30
0.0
 40
0.0240000009536743
 41
0.0
 71
     1
 72
     1
  1
\A1;0.4671 in
  7
Note Text (ANSI)
 73
     1
 44
1.0
1001
ACAD
1000
MTEXTBEGIN
1070
    73
1070
     1
1070
    44
1040
1.0
1070
    74
1070
     0
1000
MTEXTEND
  0
POINT
  5
511
330
435
100
AcDbEntity
  8
Defpoints
 62
     0
100
AcDbPoint
 10
1.08621659517401
 20
1.350118482086903
 30
0.0
  0
POINT
  5
512
330
435
100
AcDbEntity
  8
Defpoints
 62
     0
100
AcDbPoint
 10
0.6191408051740103
 20
1.182658766559745
 30
0.0
  0
POINT
  5
513
330
435
100
AcDbEntity
  8
Defpoints
 62
     0
100
AcDbPoint
 10
0.6191408051740103
 20
1.555176093614774
 30
0.0
  0
ENDBLK
  5
441
330
435
100
AcDbEntity
  8
0
100
AcDbBlockEnd
  0
BLOCK
  5
520
330
515
100
AcDbEntity
  8
0
100
AcDbBlockBegin
  2
*D10
 70
     1
 10
0.0
 20
0.0
 30
0.0
  3
*D10
  1

  0
LINE
  5
5D6
330
515
100
AcDbEntity
  8
Dimension (ANSI)
100
AcDbLine
 10
1.084851020435876
 20
1.155118482086903
 30
0.0
 11
1.308130906247445
 21
1.155118482086903
 31
0.0
  0
LINE
  5
5D7
330
515
100
AcDbEntity
  8
Dimension (ANSI)
100
AcDbLine
 10
0.9605165951740101
 20
1.350118482086903
 30
0.0
 11
1.308130906247445
 21
1.350118482086903
 31
0.0
  0
LINE
  5
5D8
330
515
100
AcDbEntity
  8
Dimension (ANSI)
100
AcDbLine
 10
1.283130906247445
 20
1.17480352101112
 30
0.0
 11
1.283130906247445
 21
1.233827663888009
 31
0.0
  0
LINE
  5
5D9
330
515
100
AcDbEntity
  8
Dimension (ANSI)
100
AcDbLine
 10
1.283130906247445
 20
1.330433443162686
 30
0.0
 11
1.283130906247445
 21
1.271409300285796
 31
0.0
  0
SOLID
  5
5DA
330
515
100
AcDbEntity
  8
Dimension (ANSI)
100
AcDbTrace
 10
1.279850066426742
 20
1.17480352101112
 30
0.0
 11
1.286411746068148
 21
1.17480352101112
 31
0.0
 12
1.283130906247445
 22
1.155118482086903
 32
0.0
 13
1.283130906247445
 23
1.155118482086903
 33
0.0
  0
SOLID
  5
5DB
330
515
100
AcDbEntity
  8
Dimension (ANSI)
100
AcDbTrace
 10
1.279850066426742
 20
1.330433443162686
 30
0.0
 11
1.286411746068148
 21
1.330433443162686
 31
0.0
 12
1.283130906247445
 22
1.350118482086903
 32
0.0
 13
1.283130906247445
 23
1.350118482086903
 33
0.0
  0
MTEXT
  5
5DC
330
515
100
AcDbEntity
  8
Dimension (ANSI)
100
AcDbMText
 10
1.206263206752433
 20
1.265110087687371
 30
0.0
 40
0.0240000009536743
 41
0.0
 71
     1
 72
     1
  1
\A1;0.195 in*B
  7
Note Text (ANSI)
 73
     1
 44
1.0
1001
ACAD
1000
MTEXTBEGIN
1070
    73
1070
     1
1070
    44
1040
1.0
1070
    74
1070
     0
1000
MTEXTEND
  0
POINT
  5
5DD
330
515
100
AcDbEntity
  8
Defpoints
 62
     0
100
AcDbPoint
 10
1.072351020435876
 20
1.155118482086903
 30
0.0
  0
POINT
  5
5DE
330
515
100
AcDbEntity
  8
Defpoints
 62
     0
100
AcDbPoint
 10
0.9480165951740101
 20
1.350118482086903
 30
0.0
  0
POINT
  5
5DF
330
515
100
AcDbEntity
  8
Defpoints
 62
     0
100
AcDbPoint
 10
1.283130906247445
 20
1.350118482086903
 30
0.0
  0
ENDBLK
  5
521
330
515
100
AcDbEntity
  8
0
100
AcDbBlockEnd
  0
BLOCK
  5
5F0
330
5E5
100
AcDbEntity
  8
0
100
AcDbBlockBegin
  2
*D11
 70
     1
 10
0.0
 20
0.0
 30
0.0
  3
*D11
  1

  0
LINE
  5
6A6
330
5E5
100
AcDbEntity
  8
Dimension (ANSI)
100
AcDbLine
 10
1.08621659517401
 20
1.362618482086903
 30
0.0
 11
1.08621659517401
 21
1.51192964844593
 31
0.0
  0
LINE
  5
6A7
330
5E5
100
AcDbEntity
  8
Dimension (ANSI)
100
AcDbLine
 10
0.9172665951740103
 20
1.216868482086903
 30
0.0
 11
0.9172665951740103
 21
1.51192964844593
 31
0.0
  0
LINE
  5
6A8
330
5E5
100
AcDbEntity
  8
Dimension (ANSI)
100
AcDbLine
 10
1.066531556249793
 20
1.48692964844593
 30
0.0
 11
0.9369516340982276
 21
1.48692964844593
 31
0.0
  0
LINE
  5
6A9
330
5E5
100
AcDbEntity
  8
Dimension (ANSI)
100
AcDbLine
 10
0.9172665951740103
 20
1.48692964844593
 30
0.0
 11
0.8350102004288817
 21
1.48692964844593
 31
0.0
  0
SOLID
  5
6AA
330
5E5
100
AcDbEntity
  8
Dimension (ANSI)
100
AcDbTrace
 10
1.066531556249793
 20
1.490210488266633
 30
0.0
 11
1.066531556249793
 21
1.483648808625227
 31
0.0
 12
1.08621659517401
 22
1.48692964844593
 32
0.0
 13
1.08621659517401
 23
1.48692964844593
 33
0.0
  0
SOLID
  5
6AB
330
5E5
100
AcDbEntity
  8
Dimension (ANSI)
100
AcDbTrace
 10
0.9369516340982276
 20
1.490210488266633
 30
0.0
 11
0.9369516340982276
 21
1.483648808625227
 31
0.0
 12
0.9172665951740103
 22
1.48692964844593
 32
0.0
 13
0.9172665951740103
 23
1.48692964844593
 33
0.0
  0
MTEXT
  5
6AC
330
5E5
100
AcDbEntity
  8
Dimension (ANSI)
100
AcDbMText
 10
0.6738956693885213
 20
1.499421254046398
 30
0.0
 40
0.0240000009536743
 41
0.0
 71
     1
 72
     1
  1
\A1;0.169 in*A
  7
Note Text (ANSI)
 73
     1
 44
1.0
1001
ACAD
1000
MTEXTBEGIN
1070
    73
1070
     1
1070
    44
1040
1.0
1070
    74
1070
     0
1000
MTEXTEND
  0
POINT
  5
6AD
330
5E5
100
AcDbEntity
  8
Defpoints
 62
     0
100
AcDbPoint
 10
1.08621659517401
 20
1.350118482086903
 30
0.0
  0
POINT
  5
6AE
330
5E5
100
AcDbEntity
  8
Defpoints
 62
     0
100
AcDbPoint
 10
0.9172665951740103
 20
1.204368482086903
 30
0.0
  0
POINT
  5
6AF
330
5E5
100
AcDbEntity
  8
Defpoints
 62
     0
100
AcDbPoint
 10
0.9172665951740103
 20
1.48692964844593
 30
0.0
  0
ENDBLK
  5
5F1
330
5E5
100
AcDbEntity
  8
0
100
AcDbBlockEnd
  0
BLOCK
  5
6BC
330
6B1
100
AcDbEntity
  8
0
100
AcDbBlockBegin
  2
*D12
 70
     1
 10
0.0
 20
0.0
 30
0.0
  3
*D12
  1

  0
LINE
  5
772
330
6B1
100
AcDbEntity
  8
Dimension (ANSI)
100
AcDbLine
 10
1.03476659517401
 20
1.055118482086903
 30
0.0
 11
1.42617722509527
 21
1.055118482086903
 31
0.0
  0
LINE
  5
773
330
6B1
100
AcDbEntity
  8
Dimension (ANSI)
100
AcDbLine
 10
1.09871659517401
 20
1.350118482086903
 30
0.0
 11
1.42617722509527
 21
1.350118482086903
 31
0.0
  0
LINE
  5
774
330
6B1
100
AcDbEntity
  8
Dimension (ANSI)
100
AcDbLine
 10
1.40117722509527
 20
1.07480352101112
 30
0.0
 11
1.40117722509527
 21
1.183819604787621
 31
0.0
  0
LINE
  5
775
330
6B1
100
AcDbEntity
  8
Dimension (ANSI)
100
AcDbLine
 10
1.40117722509527
 20
1.330433443162686
 30
0.0
 11
1.40117722509527
 21
1.221417359386184
 31
0.0
  0
SOLID
  5
776
330
6B1
100
AcDbEntity
  8
Dimension (ANSI)
100
AcDbTrace
 10
1.397896385274567
 20
1.07480352101112
 30
0.0
 11
1.404458064915973
 21
1.07480352101112
 31
0.0
 12
1.40117722509527
 22
1.055118482086903
 32
0.0
 13
1.40117722509527
 23
1.055118482086903
 33
0.0
  0
SOLID
  5
777
330
6B1
100
AcDbEntity
  8
Dimension (ANSI)
100
AcDbTrace
 10
1.397896385274567
 20
1.330433443162686
 30
0.0
 11
1.404458064915973
 21
1.330433443162686
 31
0.0
 12
1.40117722509527
 22
1.350118482086903
 32
0.0
 13
1.40117722509527
 23
1.350118482086903
 33
0.0
  0
MTEXT
  5
778
330
6B1
100
AcDbEntity
  8
Dimension (ANSI)
100
AcDbMText
 10
1.343707780232727
 20
1.215118146787759
 30
0.0
 40
0.0240000009536743
 41
0.0
 71
     1
 72
     1
  1
\A1;0.295 in
  7
Note Text (ANSI)
 73
     1
 44
1.0
1001
ACAD
1000
MTEXTBEGIN
1070
    73
1070
     1
1070
    44
1040
1.0
1070
    74
1070
     0
1000
MTEXTEND
  0
POINT
  5
779
330
6B1
100
AcDbEntity
  8
Defpoints
 62
     0
100
AcDbPoint
 10
1.02226659517401
 20
1.055118482086903
 30
0.0
  0
POINT
  5
77A
330
6B1
100
AcDbEntity
  8
Defpoints
 62
     0
100
AcDbPoint
 10
1.08621659517401
 20
1.350118482086903
 30
0.0
  0
POINT
  5
77B
330
6B1
100
AcDbEntity
  8
Defpoints
 62
     0
100
AcDbPoint
 10
1.40117722509527
 20
1.350118482086903
 30
0.0
  0
ENDBLK
  5
6BD
330
6B1
100
AcDbEntity
  8
0
100
AcDbBlockEnd
  0
BLOCK
  5
790
330
785
100
AcDbEntity
  8
0
100
AcDbBlockBegin
  2
*D13
 70
     1
 10
0.0
 20
0.0
 30
0.0
  3
*D13
  1

  0
LINE
  5
861
330
785
100
AcDbEntity
  8
Dimension (ANSI)
100
AcDbLine
 10
0.7158354085515511
 20
1.126183443162686
 30
0.0
 11
0.7158354085515511
 21
1.106498404238468
 31
0.0
  0
LINE
  5
862
330
785
100
AcDbEntity
  8
Dimension (ANSI)
100
AcDbLine
 10
0.7158354085515511
 20
1.18405352101112
 30
0.0
 11
0.7158354085515511
 21
1.203738559935337
 31
0.0
  0
LINE
  5
863
330
785
100
AcDbEntity
  8
Dimension (ANSI)
100
AcDbLine
 10
0.6961503696273339
 20
1.319440654621077
 30
0.0
 11
0.7158354085515512
 21
1.319440654621077
 31
0.0
  0
LINE
  5
864
330
785
100
AcDbEntity
  8
Dimension (ANSI)
100
AcDbLine
 10
0.7158354085515512
 20
1.319440654621077
 30
0.0
 11
0.7158354085515511
 21
1.203738559935337
 31
0.0
  0
MTEXT
  5
865
330
785
100
AcDbEntity
  8
Dimension (ANSI)
100
AcDbMText
 10
0.5568921188375993
 20
1.331988673924258
 30
0.0
 40
0.0240000009536743
 41
0.0
 71
     1
 72
     1
  1
\A1;0.0185 in
  7
Note Text (ANSI)
 73
     1
 44
1.0
1001
ACAD
1000
MTEXTBEGIN
1070
    73
1070
     1
1070
    44
1040
1.0
1070
    74
1070
     0
1000
MTEXTEND
  0
SOLID
  5
866
330
785
100
AcDbEntity
  8
Dimension (ANSI)
100
AcDbTrace
 10
0.7125545687308482
 20
1.126183443162686
 30
0.0
 11
0.7191162483722539
 21
1.126183443162686
 31
0.0
 12
0.7158354085515511
 22
1.145868482086903
 32
0.0
 13
0.7158354085515511
 23
1.145868482086903
 33
0.0
  0
SOLID
  5
867
330
785
100
AcDbEntity
  8
Dimension (ANSI)
100
AcDbTrace
 10
0.7125545687308482
 20
1.18405352101112
 30
0.0
 11
0.7191162483722539
 21
1.18405352101112
 31
0.0
 12
0.7158354085515511
 22
1.164368482086903
 32
0.0
 13
0.7158354085515511
 23
1.164368482086903
 33
0.0
  0
POINT
  5
868
330
785
100
AcDbEntity
  8
Defpoints
 62
     0
100
AcDbPoint
 10
0.7158354085515511
 20
1.145868482086903
 30
0.0
  0
POINT
  5
869
330
785
100
AcDbEntity
  8
Defpoints
 62
     0
100
AcDbPoint
 10
0.7158354085515511
 20
1.164368482086903
 30
0.0
  0
POINT
  5
86A
330
785
100
AcDbEntity
  8
Defpoints
 62
     0
100
AcDbPoint
 10
0.7158354085515511
 20
1.164368482086903
 30
0.0
  0
ENDBLK
  5
791
330
785
100
AcDbEntity
  8
0
100
AcDbBlockEnd
  0
BLOCK
  5
877
330
86C
100
AcDbEntity
  8
0
100
AcDbBlockBegin
  2
*D14
 70
     1
 10
0.0
 20
0.0
 30
0.0
  3
*D14
  1

  0
LINE
  5
92D
330
86C
100
AcDbEntity
  8
Dimension (ANSI)
100
AcDbLine
 10
1.08621659517401
 20
1.362618482086903
 30
0.0
 11
1.08621659517401
 21
1.453858639567218
 31
0.0
  0
LINE
  5
92E
330
86C
100
AcDbEntity
  8
Dimension (ANSI)
100
AcDbLine
 10
1.02226659517401
 20
1.067618482086903
 30
0.0
 11
1.02226659517401
 21
1.453858639567218
 31
0.0
  0
LINE
  5
92F
330
86C
100
AcDbEntity
  8
Dimension (ANSI)
100
AcDbLine
 10
1.066531556249793
 20
1.428858639567218
 30
0.0
 11
1.041951634098227
 21
1.428858639567218
 31
0.0
  0
LINE
  5
930
330
86C
100
AcDbEntity
  8
Dimension (ANSI)
100
AcDbLine
 10
1.02226659517401
 20
1.428858639567218
 30
0.0
 11
0.8833086389820435
 21
1.428858639567218
 31
0.0
  0
SOLID
  5
931
330
86C
100
AcDbEntity
  8
Dimension (ANSI)
100
AcDbTrace
 10
1.066531556249793
 20
1.432139479387921
 30
0.0
 11
1.066531556249793
 21
1.425577799746515
 31
0.0
 12
1.08621659517401
 22
1.428858639567218
 32
0.0
 13
1.08621659517401
 23
1.428858639567218
 33
0.0
  0
SOLID
  5
932
330
86C
100
AcDbEntity
  8
Dimension (ANSI)
100
AcDbTrace
 10
1.041951634098227
 20
1.432139479387921
 30
0.0
 11
1.041951634098227
 21
1.425577799746515
 31
0.0
 12
1.02226659517401
 22
1.428858639567218
 32
0.0
 13
1.02226659517401
 23
1.428858639567218
 33
0.0
  0
MTEXT
  5
933
330
86C
100
AcDbEntity
  8
Dimension (ANSI)
100
AcDbMText
 10
0.7620705366585334
 20
1.441350245167686
 30
0.0
 40
0.0240000009536743
 41
0.0
 71
     1
 72
     1
  1
\A1;0.064 in
  7
Note Text (ANSI)
 73
     1
 44
1.0
1001
ACAD
1000
MTEXTBEGIN
1070
    73
1070
     1
1070
    44
1040
1.0
1070
    74
1070
     0
1000
MTEXTEND
  0
POINT
  5
934
330
86C
100
AcDbEntity
  8
Defpoints
 62
     0
100
AcDbPoint
 10
1.08621659517401
 20
1.350118482086903
 30
0.0
  0
POINT
  5
935
330
86C
100
AcDbEntity
  8
Defpoints
 62
     0
100
AcDbPoint
 10
1.02226659517401
 20
1.055118482086903
 30
0.0
  0
POINT
  5
936
330
86C
100
AcDbEntity
  8
Defpoints
 62
     0
100
AcDbPoint
 10
1.02226659517401
 20
1.428858639567218
 30
0.0
  0
ENDBLK
  5
878
330
86C
100
AcDbEntity
  8
0
100
AcDbBlockEnd
  0
BLOCK
  5
93F
330
939
100
AcDbEntity
  8
0
100
AcDbBlockBegin
  2
*D15
 70
     1
 10
0.0
 20
0.0
 30
0.0
  3
*D15
  1

  0
LINE
  5
9C9
330
939
100
AcDbEntity
  8
Dimension (ANSI)
100
AcDbLine
 10
0.956048050497934
 20
0.8495896209146652
 30
0.0
 11
0.981884457884181
 21
0.8495896209146652
 31
0.0
  0
LINE
  5
9CA
330
939
100
AcDbEntity
  8
Dimension (ANSI)
100
AcDbLine
 10
0.981884457884181
 20
0.8495896209146652
 30
0.0
 11
1.004156568206399
 21
0.9629457178833346
 31
0.0
  0
MTEXT
  5
9CB
330
939
100
AcDbEntity
  8
Dimension (ANSI)
100
AcDbMText
 10
0.7973996041761175
 20
0.8620892856155212
 30
0.0
 40
0.0240000009536743
 41
0.0
 71
     1
 72
     1
  1
\A1;R0.0743 in
  7
Note Text (ANSI)
 73
     1
 44
1.0
1001
ACAD
1000
MTEXTBEGIN
1070
    73
1070
     1
1070
    44
1040
1.0
1070
    74
1070
     0
1000
MTEXTEND
  0
SOLID
  5
9CC
330
939
100
AcDbEntity
  8
Dimension (ANSI)
100
AcDbTrace
 10
1.000937278805483
 20
0.9635782411495174
 30
0.0
 11
1.007375857607315
 21
0.9623131946171522
 31
0.0
 12
1.007951707803495
 22
0.9822614542888279
 32
0.0
 13
1.007951707803495
 23
0.9822614542888279
 33
0.0
  0
POINT
  5
9CD
330
939
100
AcDbEntity
  8
Defpoints
 62
     0
100
AcDbPoint
 10
1.007951707803495
 20
0.9822614542888279
 30
0.0
  0
POINT
  5
9CE
330
939
100
AcDbEntity
  8
Defpoints
 62
     0
100
AcDbPoint
 10
1.02226659517401
 20
1.055118482086903
 30
0.0
  0
ENDBLK
  5
940
330
939
100
AcDbEntity
  8
0
100
AcDbBlockEnd
  0
BLOCK
  5
9D4
330
9D1
100
AcDbEntity
  8
0
100
AcDbBlockBegin
  2
_Dot
 70
     0
 10
0.0
 20
0.0
 30
0.0
  3
_Dot
  1

  0
LWPOLYLINE
  5
9D2
330
9D1
100
AcDbEntity
  8
0
  6
ByBlock
 62
     0
100
AcDbPolyline
 90
        2
 70
     1
 43
0.5
 10
-0.25
 20
0.0
 42
1.0
 10
0.25
 20
0.0
 42
1.0
  0
LINE
  5
9D3
330
9D1
100
AcDbEntity
  8
0
  6
ByBlock
 62
     0
370
    -2
100
AcDbLine
 10
-0.5
 20
0.0
 30
0.0
 11
-1.0
 21
0.0
 31
0.0
  0
ENDBLK
  5
9D5
330
9D1
100
AcDbEntity
  8
0
100
AcDbBlockEnd
  0
BLOCK
  5
9E9
330
9E8
100
AcDbEntity
  8
0
100
AcDbBlockBegin
  2
Origin Indicator Symbol5
 70
     0
 10
0.0
 20
0.0
 30
0.0
  3
Origin Indicator Symbol5
  1

  0
CIRCLE
  5
9EB
330
9E8
100
AcDbEntity
  8
Dimension (ANSI)
100
AcDbCircle
 10
5.43108297587005
 20
3.235522316668008
 30
0.0
 40
0.0984251968503937
  0
LINE
  5
9EC
102
{ACAD_REACTORS
330
9EE
102
}
330
9E8
100
AcDbEntity
  8
Dimension (ANSI)
100
AcDbLine
 10
5.43108297587005
 20
3.333947513518402
 30
0.0
 11
5.529508172720444
 21
3.235522316668008
 31
0.0
  0
ARC
  5
9ED
102
{ACAD_REACTORS
330
9EE
102
}
330
9E8
100
AcDbEntity
  8
Dimension (ANSI)
100
AcDbCircle
 10
5.43108297587005
 20
3.235522316668008
 30
0.0
 40
0.0984251968503937
100
AcDbArc
 50
0.0
 51
90.0
  0
HATCH
  5
9EE
330
9E8
100
AcDbEntity
  8
Dimension (ANSI)
100
AcDbHatch
 10
0.0
 20
0.0
 30
0.0
210
0.0
220
0.0
230
1.0
  2
SOLID
 70
     1
 71
     1
 91
        1
 92
        0
 93
        2
 72
     1
 10
5.43108297587005
 20
3.333947513518402
 11
5.529508172720444
 21
3.235522316668009
 72
     2
 10
5.43108297587005
 20
3.235522316668008
 40
0.0984251968503937
 50
0.0
 51
90.0
 73
     1
 97
        2
330
9EC
330
9ED
 75
     0
 76
     1
 98
        1
 10
0.0
 20
0.0
  0
LINE
  5
9EF
102
{ACAD_REACTORS
330
9F1
102
}
330
9E8
100
AcDbEntity
  8
Dimension (ANSI)
100
AcDbLine
 10
5.43108297587005
 20
3.137097119817615
 30
0.0
 11
5.332657779019656
 21
3.235522316668008
 31
0.0
  0
ARC
  5
9F0
102
{ACAD_REACTORS
330
9F1
102
}
330
9E8
100
AcDbEntity
  8
Dimension (ANSI)
100
AcDbCircle
 10
5.43108297587005
 20
3.235522316668008
 30
0.0
 40
0.0984251968503937
100
AcDbArc
 50
180.0
 51
270.0
  0
HATCH
  5
9F1
330
9E8
100
AcDbEntity
  8
Dimension (ANSI)
100
AcDbHatch
 10
0.0
 20
0.0
 30
0.0
210
0.0
220
0.0
230
1.0
  2
SOLID
 70
     1
 71
     1
 91
        1
 92
        0
 93
        2
 72
     1
 10
5.43108297587005
 20
3.137097119817615
 11
5.332657779019656
 21
3.235522316668008
 72
     2
 10
5.43108297587005
 20
3.235522316668008
 40
0.0984251968503937
 50
180.0
 51
270.0
 73
     1
 97
        2
330
9EF
330
9F0
 75
     0
 76
     1
 98
        1
 10
0.0
 20
0.0
  0
POLYLINE
  5
9F2
330
9E8
100
AcDbEntity
  8
Dimension (ANSI)
100
AcDb2dPolyline
 66
     1
 10
0.0
 20
0.0
 30
0.0
 70
   128
  0
VERTEX
  5
9F3
330
9F2
100
AcDbEntity
  8
Dimension (ANSI)
100
AcDbVertex
100
AcDb2dVertex
 10
5.431082868200586
 20
3.23552221763791
 30
0.0
  0
VERTEX
  5
9F4
330
9F2
100
AcDbEntity
  8
Dimension (ANSI)
100
AcDbVertex
100
AcDb2dVertex
 10
5.52950806505098
 20
3.23552221763791
 30
0.0
  0
VERTEX
  5
9F6
330
9F2
100
AcDbEntity
  8
Dimension (ANSI)
100
AcDbVertex
100
AcDb2dVertex
 10
5.431082868200586
 20
3.333947414488303
 30
0.0
  0
VERTEX
  5
9F7
330
9F2
100
AcDbEntity
  8
Dimension (ANSI)
100
AcDbVertex
100
AcDb2dVertex
 10
5.431082868200586
 20
3.23552221763791
 30
0.0
  0
SEQEND
  5
9F5
330
9F2
100
AcDbEntity
  8
Dimension (ANSI)
  0
SOLID
  5
9F8
330
9E8
100
AcDbEntity
  8
Dimension (ANSI)
100
AcDbTrace
 10
5.431082868200586
 20
3.23552221763791
 30
0.0
 11
5.52950806505098
 21
3.23552221763791
 31
0.0
 12
5.431082868200586
 22
3.333947414488303
 32
0.0
 13
5.431082868200586
 23
3.23552221763791
 33
0.0
  0
POLYLINE
  5
9F9
330
9E8
100
AcDbEntity
  8
Dimension (ANSI)
100
AcDb2dPolyline
 66
     1
 10
0.0
 20
0.0
 30
0.0
 70
   128
  0
VERTEX
  5
9FA
330
9F9
100
AcDbEntity
  8
Dimension (ANSI)
100
AcDbVertex
100
AcDb2dVertex
 10
5.431082868200586
 20
3.23552221763791
 30
0.0
  0
VERTEX
  5
9FB
330
9F9
100
AcDbEntity
  8
Dimension (ANSI)
100
AcDbVertex
100
AcDb2dVertex
 10
5.431082868200586
 20
3.333947414488303
 30
0.0
  0
VERTEX
  5
9FD
330
9F9
100
AcDbEntity
  8
Dimension (ANSI)
100
AcDbVertex
100
AcDb2dVertex
 10
5.431082868200586
 20
3.137097208518681
 30
0.0
  0
VERTEX
  5
9FE
330
9F9
100
AcDbEntity
  8
Dimension (ANSI)
100
AcDbVertex
100
AcDb2dVertex
 10
5.431082868200586
 20
3.23552221763791
 30
0.0
  0
SEQEND
  5
9FC
330
9F9
100
AcDbEntity
  8
Dimension (ANSI)
  0
SOLID
  5
9FF
330
9E8
100
AcDbEntity
  8
Dimension (ANSI)
100
AcDbTrace
 10
5.431082868200586
 20
3.23552221763791
 30
0.0
 11
5.431082868200586
 21
3.333947414488303
 31
0.0
 12
5.431082868200586
 22
3.137097208518681
 32
0.0
 13
5.431082868200586
 23
3.23552221763791
 33
0.0
  0
POLYLINE
  5
A00
330
9E8
100
AcDbEntity
  8
Dimension (ANSI)
100
AcDb2dPolyline
 66
     1
 10
0.0
 20
0.0
 30
0.0
 70
   128
  0
VERTEX
  5
A01
330
A00
100
AcDbEntity
  8
Dimension (ANSI)
100
AcDbVertex
100
AcDb2dVertex
 10
5.431082868200586
 20
3.23552221763791
 30
0.0
  0
VERTEX
  5
A02
330
A00
100
AcDbEntity
  8
Dimension (ANSI)
100
AcDbVertex
100
AcDb2dVertex
 10
5.431082868200586
 20
3.137097208518681
 30
0.0
  0
VERTEX
  5
A04
330
A00
100
AcDbEntity
  8
Dimension (ANSI)
100
AcDbVertex
100
AcDb2dVertex
 10
5.332657671350193
 20
3.23552221763791
 30
0.0
  0
VERTEX
  5
A05
330
A00
100
AcDbEntity
  8
Dimension (ANSI)
100
AcDbVertex
100
AcDb2dVertex
 10
5.431082868200586
 20
3.23552221763791
 30
0.0
  0
SEQEND
  5
A03
330
A00
100
AcDbEntity
  8
Dimension (ANSI)
  0
SOLID
  5
A06
330
9E8
100
AcDbEntity
  8
Dimension (ANSI)
100
AcDbTrace
 10
5.431082868200586
 20
3.23552221763791
 30
0.0
 11
5.431082868200586
 21
3.137097208518681
 31
0.0
 12
5.332657671350193
 22
3.23552221763791
 32
0.0
 13
5.431082868200586
 23
3.23552221763791
 33
0.0
  0
POLYLINE
  5
A07
330
9E8
100
AcDbEntity
  8
Dimension (ANSI)
100
AcDb2dPolyline
 66
     1
 10
0.0
 20
0.0
 30
0.0
 70
   128
  0
VERTEX
  5
A08
330
A07
100
AcDbEntity
  8
Dimension (ANSI)
100
AcDbVertex
100
AcDb2dVertex
 10
5.431082868200586
 20
3.23552221763791
 30
0.0
  0
VERTEX
  5
A09
330
A07
100
AcDbEntity
  8
Dimension (ANSI)
100
AcDbVertex
100
AcDb2dVertex
 10
5.332657671350193
 20
3.23552221763791
 30
0.0
  0
VERTEX
  5
A0B
330
A07
100
AcDbEntity
  8
Dimension (ANSI)
100
AcDbVertex
100
AcDb2dVertex
 10
5.431082868200586
 20
3.23552221763791
 30
0.0
  0
VERTEX
  5
A0C
330
A07
100
AcDbEntity
  8
Dimension (ANSI)
100
AcDbVertex
100
AcDb2dVertex
 10
5.431082868200586
 20
3.23552221763791
 30
0.0
  0
SEQEND
  5
A0A
330
A07
100
AcDbEntity
  8
Dimension (ANSI)
  0
SOLID
  5
A0D
330
9E8
100
AcDbEntity
  8
Dimension (ANSI)
100
AcDbTrace
 10
5.431082868200586
 20
3.23552221763791
 30
0.0
 11
5.332657671350193
 21
3.23552221763791
 31
0.0
 12
5.431082868200586
 22
3.23552221763791
 32
0.0
 13
5.431082868200586
 23
3.23552221763791
 33
0.0
  0
ENDBLK
  5
9EA
330
9E8
100
AcDbEntity
  8
0
100
AcDbBlockEnd
  0
BLOCK
  5
A10
330
A0F
100
AcDbEntity
  8
0
100
AcDbBlockBegin
  2
Hole Table5
 70
     0
 10
0.0
 20
0.0
 30
0.0
  3
Hole Table5
  1

  0
MTEXT
  5
A12
330
A0F
100
AcDbEntity
  8
Symbol (ANSI)
100
AcDbMText
 10
7.975282569407299
 20
2.461471865318015
 30
0.0
 40
0.1200000014830762
 41
0.0
 71
     7
 72
     1
  1
Hole Table
  7
Text Style29
 73
     1
 44
1.0
1001
ACAD
1000
MTEXTBEGIN
1070
    73
1070
     1
1070
    44
1040
1.0
1070
    74
1070
     0
1000
MTEXTEND
  0
LINE
  5
A13
330
A0F
100
AcDbEntity
  8
Symbol (ANSI)
100
AcDbLine
 10
6.226092302266422
 20
2.430370905675234
 30
0.0
 11
6.68292516718866
 21
2.430370905675234
 31
0.0
  0
LINE
  5
A14
330
A0F
100
AcDbEntity
  8
Symbol (ANSI)
100
AcDbLine
 10
6.68292516718866
 20
2.430370905675234
 30
0.0
 11
6.68292516718866
 21
2.25095567109231
 31
0.0
  0
LINE
  5
A15
330
A0F
100
AcDbEntity
  8
Symbol (ANSI)
100
AcDbLine
 10
6.226092302266422
 20
2.25095567109231
 30
0.0
 11
6.68292516718866
 21
2.25095567109231
 31
0.0
  0
MTEXT
  5
A16
330
A0F
100
AcDbEntity
  8
Symbol (ANSI)
100
AcDbMText
 10
6.277095861549525
 20
2.278134925817794
 30
0.0
 40
0.1200000014830762
 41
0.0
 71
     7
 72
     1
  1
HOLE
  7
Text Style29
 73
     1
 44
1.0
1001
ACAD
1000
MTEXTBEGIN
1070
    73
1070
     1
1070
    44
1040
1.0
1070
    74
1070
     0
1000
MTEXTEND
  0
LINE
  5
A17
330
A0F
100
AcDbEntity
  8
Symbol (ANSI)
100
AcDbLine
 10
6.68292516718866
 20
2.430370905675234
 30
0.0
 11
7.273476348291022
 21
2.430370905675234
 31
0.0
  0
LINE
  5
A18
330
A0F
100
AcDbEntity
  8
Symbol (ANSI)
100
AcDbLine
 10
6.68292516718866
 20
2.430370905675234
 30
0.0
 11
6.68292516718866
 21
2.25095567109231
 31
0.0
  0
LINE
  5
A19
330
A0F
100
AcDbEntity
  8
Symbol (ANSI)
100
AcDbLine
 10
7.273476348291022
 20
2.430370905675234
 30
0.0
 11
7.273476348291022
 21
2.25095567109231
 31
0.0
  0
LINE
  5
A1A
330
A0F
100
AcDbEntity
  8
Symbol (ANSI)
100
AcDbLine
 10
6.68292516718866
 20
2.25095567109231
 30
0.0
 11
7.273476348291022
 21
2.25095567109231
 31
0.0
  0
MTEXT
  5
A1B
330
A0F
100
AcDbEntity
  8
Symbol (ANSI)
100
AcDbMText
 10
6.781313029003684
 20
2.280663288845345
 30
0.0
 40
0.1200000014830762
 41
0.0
 71
     7
 72
     1
  1
XDIM
  7
Text Style29
 73
     1
 44
1.0
1001
ACAD
1000
MTEXTBEGIN
1070
    73
1070
     1
1070
    44
1040
1.0
1070
    74
1070
     0
1000
MTEXTEND
  0
LINE
  5
A1C
330
A0F
100
AcDbEntity
  8
Symbol (ANSI)
100
AcDbLine
 10
7.273476348291022
 20
2.430370905675234
 30
0.0
 11
7.864027529393384
 21
2.430370905675234
 31
0.0
  0
LINE
  5
A1D
330
A0F
100
AcDbEntity
  8
Symbol (ANSI)
100
AcDbLine
 10
7.273476348291022
 20
2.430370905675234
 30
0.0
 11
7.273476348291022
 21
2.25095567109231
 31
0.0
  0
LINE
  5
A1E
330
A0F
100
AcDbEntity
  8
Symbol (ANSI)
100
AcDbLine
 10
7.864027529393384
 20
2.430370905675234
 30
0.0
 11
7.864027529393384
 21
2.25095567109231
 31
0.0
  0
LINE
  5
A1F
330
A0F
100
AcDbEntity
  8
Symbol (ANSI)
100
AcDbLine
 10
7.273476348291022
 20
2.25095567109231
 30
0.0
 11
7.864027529393384
 21
2.25095567109231
 31
0.0
  0
MTEXT
  5
A20
330
A0F
100
AcDbEntity
  8
Symbol (ANSI)
100
AcDbMText
 10
7.369128779305976
 20
2.280663288845345
 30
0.0
 40
0.1200000014830762
 41
0.0
 71
     7
 72
     1
  1
YDIM
  7
Text Style29
 73
     1
 44
1.0
1001
ACAD
1000
MTEXTBEGIN
1070
    73
1070
     1
1070
    44
1040
1.0
1070
    74
1070
     0
1000
MTEXTEND
  0
LINE
  5
A21
330
A0F
100
AcDbEntity
  8
Symbol (ANSI)
100
AcDbLine
 10
7.864027529393384
 20
2.430370905675234
 30
0.0
 11
10.45232937122071
 21
2.430370905675234
 31
0.0
  0
LINE
  5
A22
330
A0F
100
AcDbEntity
  8
Symbol (ANSI)
100
AcDbLine
 10
7.864027529393384
 20
2.430370905675234
 30
0.0
 11
7.864027529393384
 21
2.25095567109231
 31
0.0
  0
LINE
  5
A23
330
A0F
100
AcDbEntity
  8
Symbol (ANSI)
100
AcDbLine
 10
7.864027529393384
 20
2.25095567109231
 30
0.0
 11
10.45232937122071
 21
2.25095567109231
 31
0.0
  0
MTEXT
  5
A24
330
A0F
100
AcDbEntity
  8
Symbol (ANSI)
100
AcDbMText
 10
8.664525695425796
 20
2.278134925817794
 30
0.0
 40
0.1200000014830762
 41
0.0
 71
     7
 72
     1
  1
DESCRIPTION
  7
Text Style29
 73
     1
 44
1.0
1001
ACAD
1000
MTEXTBEGIN
1070
    73
1070
     1
1070
    44
1040
1.0
1070
    74
1070
     0
1000
MTEXTEND
  0
LINE
  5
A25
330
A0F
100
AcDbEntity
  8
Symbol (ANSI)
100
AcDbLine
 10
6.226092302266422
 20
2.25095567109231
 30
0.0
 11
6.68292516718866
 21
2.25095567109231
 31
0.0
  0
LINE
  5
A26
330
A0F
100
AcDbEntity
  8
Symbol (ANSI)
100
AcDbLine
 10
6.68292516718866
 20
2.25095567109231
 30
0.0
 11
6.68292516718866
 21
2.005162643250233
 31
0.0
  0
LINE
  5
A27
330
A0F
100
AcDbEntity
  8
Symbol (ANSI)
100
AcDbLine
 10
6.226092302266422
 20
2.005162643250233
 30
0.0
 11
6.68292516718866
 21
2.005162643250233
 31
0.0
  0
MTEXT
  5
A28
330
A0F
100
AcDbEntity
  8
Symbol (ANSI)
100
AcDbMText
 10
6.445432689708121
 20
2.067864668169187
 30
0.0
 40
0.1200000014830762
 41
0.0
 71
     7
 72
     1
  1
1
  7
Text Style29
 73
     1
 44
1.0
1001
ACAD
1000
MTEXTBEGIN
1070
    73
1070
     1
1070
    44
1040
1.0
1070
    74
1070
     0
1000
MTEXTEND
  0
LINE
  5
A29
330
A0F
100
AcDbEntity
  8
Symbol (ANSI)
100
AcDbLine
 10
6.68292516718866
 20
2.25095567109231
 30
0.0
 11
7.273476348291022
 21
2.25095567109231
 31
0.0
  0
LINE
  5
A2A
330
A0F
100
AcDbEntity
  8
Symbol (ANSI)
100
AcDbLine
 10
6.68292516718866
 20
2.25095567109231
 30
0.0
 11
6.68292516718866
 21
2.005162643250233
 31
0.0
  0
LINE
  5
A2B
330
A0F
100
AcDbEntity
  8
Symbol (ANSI)
100
AcDbLine
 10
7.273476348291022
 20
2.25095567109231
 30
0.0
 11
7.273476348291022
 21
2.005162643250233
 31
0.0
  0
LINE
  5
A2C
330
A0F
100
AcDbEntity
  8
Symbol (ANSI)
100
AcDbLine
 10
6.68292516718866
 20
2.005162643250233
 30
0.0
 11
7.273476348291022
 21
2.005162643250233
 31
0.0
  0
MTEXT
  5
A2D
330
A0F
100
AcDbEntity
  8
Symbol (ANSI)
100
AcDbMText
 10
6.712553673984287
 20
2.065579416971208
 30
0.0
 40
0.1200000014830762
 41
0.0
 71
     7
 72
     1
  1
-0.4671
  7
Text Style29
 73
     1
 44
1.0
1001
ACAD
1000
MTEXTBEGIN
1070
    73
1070
     1
1070
    44
1040
1.0
1070
    74
1070
     0
1000
MTEXTEND
  0
LINE
  5
A2E
330
A0F
100
AcDbEntity
  8
Symbol (ANSI)
100
AcDbLine
 10
7.273476348291022
 20
2.25095567109231
 30
0.0
 11
7.864027529393384
 21
2.25095567109231
 31
0.0
  0
LINE
  5
A2F
330
A0F
100
AcDbEntity
  8
Symbol (ANSI)
100
AcDbLine
 10
7.273476348291022
 20
2.25095567109231
 30
0.0
 11
7.273476348291022
 21
2.005162643250233
 31
0.0
  0
LINE
  5
A30
330
A0F
100
AcDbEntity
  8
Symbol (ANSI)
100
AcDbLine
 10
7.864027529393384
 20
2.25095567109231
 30
0.0
 11
7.864027529393384
 21
2.005162643250233
 31
0.0
  0
LINE
  5
A31
330
A0F
100
AcDbEntity
  8
Symbol (ANSI)
100
AcDbLine
 10
7.273476348291022
 20
2.005162643250233
 30
0.0
 11
7.864027529393384
 21
2.005162643250233
 31
0.0
  0
MTEXT
  5
A32
330
A0F
100
AcDbEntity
  8
Symbol (ANSI)
100
AcDbMText
 10
7.303104855086649
 20
2.065579416971208
 30
0.0
 40
0.1200000014830762
 41
0.0
 71
     7
 72
     1
  1
-0.1400
  7
Text Style29
 73
     1
 44
1.0
1001
ACAD
1000
MTEXTBEGIN
1070
    73
1070
     1
1070
    44
1040
1.0
1070
    74
1070
     0
1000
MTEXTEND
  0
MTEXT
  5
A34
330
A0F
100
AcDbEntity
  8
Symbol (ANSI)
100
AcDbMText
 10
8.391836545820789
 20
2.040202013328974
 30
0.0
 40
0.1200000014830762
 41
0.0
 71
     7
 72
     1
  1
n
  7
Text Style6
 73
     1
 44
1.0
1001
ACAD
1000
MTEXTBEGIN
1070
    73
1070
     1
1070
    44
1040
1.0
1070
    74
1070
     0
1000
MTEXTEND
  0
MTEXT
  5
A36
330
A0F
100
AcDbEntity
  8
Symbol (ANSI)
100
AcDbMText
 10
8.525738603239462
 20
2.067789480754946
 30
0.0
 40
0.1200000014830762
 41
0.0
 71
     7
 72
     1
  1
0.0635 in 
  7
Text Style29
 73
     1
 44
1.0
1001
ACAD
1000
MTEXTBEGIN
1070
    73
1070
     1
1070
    44
1040
1.0
1070
    74
1070
     0
1000
MTEXTEND
  0
MTEXT
  5
A37
330
A0F
100
AcDbEntity
  8
Symbol (ANSI)
100
AcDbMText
 10
9.265882142638135
 20
2.062209735583472
 30
0.0
 40
0.1200000014830762
 41
0.0
 71
     7
 72
     1
  1
x
  7
Text Style6
 73
     1
 44
1.0
1001
ACAD
1000
MTEXTBEGIN
1070
    73
1070
     1
1070
    44
1040
1.0
1070
    74
1070
     0
1000
MTEXTEND
  0
MTEXT
  5
A38
330
A0F
100
AcDbEntity
  8
Symbol (ANSI)
100
AcDbMText
 10
9.385427834702765
 20
2.067789480754946
 30
0.0
 40
0.1200000014830762
 41
0.0
 71
     7
 72
     1
  1
 0.21 in
  7
Text Style29
 73
     1
 44
1.0
1001
ACAD
1000
MTEXTBEGIN
1070
    73
1070
     1
1070
    44
1040
1.0
1070
    74
1070
     0
1000
MTEXTEND
  0
LINE
  5
A39
330
A0F
100
AcDbEntity
  8
Symbol (ANSI)
100
AcDbLine
 10
6.226092302266422
 20
2.005162643250233
 30
0.0
 11
6.226092302266422
 21
2.620449647315791
 31
0.0
  0
LINE
  5
A3A
330
A0F
100
AcDbEntity
  8
Symbol (ANSI)
100
AcDbLine
 10
6.226092302266422
 20
2.620449647315791
 30
0.0
 11
10.45232937122071
 21
2.620449647315791
 31
0.0
  0
LINE
  5
A3B
330
A0F
100
AcDbEntity
  8
Symbol (ANSI)
100
AcDbLine
 10
10.45232937122071
 20
2.620449647315791
 30
0.0
 11
10.45232937122071
 21
2.005162643250233
 31
0.0
  0
LINE
  5
A3C
330
A0F
100
AcDbEntity
  8
Symbol (ANSI)
100
AcDbLine
 10
10.45232937122071
 20
2.005162643250233
 30
0.0
 11
6.226092302266422
 21
2.005162643250233
 31
0.0
  0
ENDBLK
  5
A11
330
A0F
100
AcDbEntity
  8
0
100
AcDbBlockEnd
  0
BLOCK
  5
A3F
330
A3E
100
AcDbEntity
  8
0
100
AcDbBlockBegin
  2
Leader Text16
 70
     0
 10
0.0
 20
0.0
 30
0.0
  3
Leader Text16
  1

  0
LINE
  5
A41
330
A3E
100
AcDbEntity
  8
Symbol (ANSI)
100
AcDbLine
 10
3.219408209675981
 20
2.310053124129548
 30
0.0
 11
3.17206457470873
 21
2.396343909287214
 31
0.0
  0
POLYLINE
  5
A42
330
A3E
100
AcDbEntity
  8
Symbol (ANSI)
100
AcDb2dPolyline
 66
     1
 10
0.0
 20
0.0
 30
0.0
 70
   128
  0
VERTEX
  5
A43
330
A42
100
AcDbEntity
  8
Symbol (ANSI)
100
AcDbVertex
100
AcDb2dVertex
 10
3.236666251355268
 20
2.319521791353
 30
0.0
  0
VERTEX
  5
A44
330
A42
100
AcDbEntity
  8
Symbol (ANSI)
100
AcDbVertex
100
AcDb2dVertex
 10
3.172064578439306
 20
2.396343824431652
 30
0.0
  0
VERTEX
  5
A46
330
A42
100
AcDbEntity
  8
Symbol (ANSI)
100
AcDbVertex
100
AcDb2dVertex
 10
3.202149999423289
 20
2.300584410119244
 30
0.0
  0
VERTEX
  5
A47
330
A42
100
AcDbEntity
  8
Symbol (ANSI)
100
AcDbVertex
100
AcDb2dVertex
 10
3.236666251355268
 20
2.319521791353
 30
0.0
  0
SEQEND
  5
A45
330
A42
100
AcDbEntity
  8
Symbol (ANSI)
  0
SOLID
  5
A48
330
A3E
100
AcDbEntity
  8
Symbol (ANSI)
100
AcDbTrace
 10
3.236666251355268
 20
2.319521791353
 30
0.0
 11
3.172064578439306
 21
2.396343824431652
 31
0.0
 12
3.202149999423289
 22
2.300584410119244
 32
0.0
 13
3.236666251355268
 23
2.319521791353
 33
0.0
  0
LINE
  5
A49
330
A3E
100
AcDbEntity
  8
Symbol (ANSI)
100
AcDbLine
 10
3.236666366707515
 20
2.319521851122998
 30
0.0
 11
3.17206457470873
 21
2.396343909287214
 31
0.0
  0
LINE
  5
A4A
330
A3E
100
AcDbEntity
  8
Symbol (ANSI)
100
AcDbLine
 10
3.17206457470873
 20
2.396343909287214
 30
0.0
 11
3.202150052644448
 21
2.300584397136098
 31
0.0
  0
LINE
  5
A4B
330
A3E
100
AcDbEntity
  8
Symbol (ANSI)
100
AcDbLine
 10
3.202150052644448
 20
2.300584397136098
 30
0.0
 11
3.236666366707515
 21
2.319521851122998
 31
0.0
  0
LINE
  5
A4C
330
A3E
100
AcDbEntity
  8
Symbol (ANSI)
100
AcDbLine
 10
3.219408209675981
 20
2.310053124129548
 30
0.0
 11
3.31931286546301
 21
2.12796209553125
 31
0.0
  0
LINE
  5
A4D
330
A3E
100
AcDbEntity
  8
Symbol (ANSI)
100
AcDbLine
 10
3.31931286546301
 20
2.12796209553125
 30
0.0
 11
3.417738062313404
 21
2.12796209553125
 31
0.0
  0
MTEXT
  5
A4E
330
A3E
100
AcDbEntity
  8
Symbol (ANSI)
100
AcDbMText
 10
3.45368632756931
 20
2.067767606529165
 30
0.0
 40
0.1200000014830762
 41
0.0
 71
     7
 72
     1
  1
1
  7
Text Style29
 73
     1
 44
1.0
1001
ACAD
1000
MTEXTBEGIN
1070
    73
1070
     1
1070
    44
1040
1.0
1070
    74
1070
     0
1000
MTEXTEND
  0
ENDBLK
  5
A40
330
A3E
100
AcDbEntity
  8
0
100
AcDbBlockEnd
  0
BLOCK
  5
A57
330
A51
100
AcDbEntity
  8
0
100
AcDbBlockBegin
  2
*D20
 70
     1
 10
0.0
 20
0.0
 30
0.0
  3
*D20
  1

  0
LINE
  5
AE1
330
A51
100
AcDbEntity
  8
Dimension (ANSI)
100
AcDbLine
 10
0.5529614614182834
 20
1.14400911727159
 30
0.0
 11
0.5726465003425007
 21
1.14400911727159
 31
0.0
  0
LINE
  5
AE2
330
A51
100
AcDbEntity
  8
Dimension (ANSI)
100
AcDbLine
 10
0.5726465003425007
 20
1.14400911727159
 30
0.0
 11
0.5937567229609098
 21
1.136957927698774
 31
0.0
  0
MTEXT
  5
AE3
330
A51
100
AcDbEntity
  8
Dimension (ANSI)
100
AcDbMText
 10
0.3943130150964669
 20
1.156508781972446
 30
0.0
 40
0.0240000009536743
 41
0.0
 71
     1
 72
     1
  1
\A1;R0.0493 in
  7
Note Text (ANSI)
 73
     1
 44
1.0
1001
ACAD
1000
MTEXTBEGIN
1070
    73
1070
     1
1070
    44
1040
1.0
1070
    74
1070
     0
1000
MTEXTEND
  0
SOLID
  5
AE4
330
A51
100
AcDbEntity
  8
Dimension (ANSI)
100
AcDbTrace
 10
0.5947961322938655
 20
1.140069766089127
 30
0.0
 11
0.5927173136279541
 21
1.133846089308421
 31
0.0
 12
0.6124277533030272
 22
1.130721471701039
 32
0.0
 13
0.6124277533030272
 23
1.130721471701039
 33
0.0
  0
POINT
  5
AE5
330
A51
100
AcDbEntity
  8
Defpoints
 62
     0
100
AcDbPoint
 10
0.6124277533030272
 20
1.130721471701039
 30
0.0
  0
POINT
  5
AE6
330
A51
100
AcDbEntity
  8
Defpoints
 62
     0
100
AcDbPoint
 10
0.6591408051740105
 20
1.115118482086903
 30
0.0
  0
ENDBLK
  5
A58
330
A51
100
AcDbEntity
  8
0
100
AcDbBlockEnd
  0
ENDSEC
  0
SECTION
  2
ENTITIES
  0
INSERT
  5
FE
330
37
100
AcDbEntity
  8
0
100
AcDbBlockReference
  2
Borders Default Border
 10
0.0
 20
0.0
 30
0.0
 41
0.2
 42
0.2
 43
0.2
  0
LINE
  5
FF
330
37
100
AcDbEntity
  8
Visible (ANSI)
100
AcDbLine
 10
1.15651659517401
 20
1.350118482086903
 30
0.0
 11
1.15651659517401
 21
1.328118482086903
 31
0.0
  0
LINE
  5
100
330
37
100
AcDbEntity
  8
Visible (ANSI)
100
AcDbLine
 10
1.15651659517401
 20
1.328118482086903
 30
0.0
 11
1.15651659517401
 21
0.9001184820869031
 31
0.0
  0
LINE
  5
101
330
37
100
AcDbEntity
  8
Visible (ANSI)
100
AcDbLine
 10
0.6098918051740104
 20
0.9001184820869031
 30
0.0
 11
0.2565166051740105
 21
0.9001184820869031
 31
0.0
  0
LINE
  5
102
330
37
100
AcDbEntity
  8
Visible (ANSI)
100
AcDbLine
 10
1.15651659517401
 20
0.9001184820869031
 30
0.0
 11
0.6283898051740104
 21
0.9001184820869031
 31
0.0
  0
LINE
  5
103
330
37
100
AcDbEntity
  8
Visible (ANSI)
100
AcDbLine
 10
0.6283898051740104
 20
0.9001184820869031
 30
0.0
 11
0.6098918051740104
 21
0.9001184820869031
 31
0.0
  0
LINE
  5
104
330
37
100
AcDbEntity
  8
Visible (ANSI)
100
AcDbLine
 10
1.08621659517401
 20
1.350118482086903
 30
0.0
 11
1.09651659517401
 21
1.350118482086903
 31
0.0
  0
LINE
  5
105
330
37
100
AcDbEntity
  8
Visible (ANSI)
100
AcDbLine
 10
1.09651659517401
 20
1.350118482086903
 30
0.0
 11
1.15651659517401
 21
1.350118482086903
 31
0.0
  0
LINE
  5
106
330
37
100
AcDbEntity
  8
Visible (ANSI)
100
AcDbLine
 10
0.9665165951740103
 20
1.350118482086903
 30
0.0
 11
0.9980165951740103
 21
1.350118482086903
 31
0.0
  0
LINE
  5
107
330
37
100
AcDbEntity
  8
Visible (ANSI)
100
AcDbLine
 10
0.2565166051740105
 20
1.350118482086903
 30
0.0
 11
0.9480165951740103
 21
1.350118482086903
 31
0.0
  0
LINE
  5
108
330
37
100
AcDbEntity
  8
Visible (ANSI)
100
AcDbLine
 10
0.9480165951740103
 20
1.350118482086903
 30
0.0
 11
0.9665165951740103
 21
1.350118482086903
 31
0.0
  0
LINE
  5
109
330
37
100
AcDbEntity
  8
Visible (ANSI)
100
AcDbLine
 10
0.9480165951740103
 20
1.204368482086903
 30
0.0
 11
0.9480165951740103
 21
1.350118482086903
 31
0.0
  0
LINE
  5
10A
330
37
100
AcDbEntity
  8
Visible (ANSI)
100
AcDbLine
 10
0.2565166051740105
 20
1.350118482086903
 30
0.0
 11
0.2565166051740105
 21
0.9001184820869031
 31
0.0
  0
LINE
  5
10B
330
37
100
AcDbEntity
  8
Visible (ANSI)
100
AcDbLine
 10
0.6098918051740104
 20
0.9001184820869031
 30
0.0
 11
0.6098918051740104
 21
0.9901184820875169
 31
0.0
  0
LINE
  5
10C
330
37
100
AcDbEntity
  8
Visible (ANSI)
100
AcDbLine
 10
0.6098918051740104
 20
0.9901184820875169
 30
0.0
 11
0.6098908051740103
 21
1.015118482086903
 31
0.0
  0
LINE
  5
10D
330
37
100
AcDbEntity
  8
Visible (ANSI)
100
AcDbLine
 10
0.6098908051740103
 20
1.015118482086903
 30
0.0
 11
0.6098908051740103
 21
1.115118482086903
 31
0.0
  0
ARC
  5
10E
330
37
100
AcDbEntity
  8
Visible (ANSI)
100
AcDbCircle
 10
0.6591408051740104
 20
1.115118482086903
 30
0.0
 40
0.0492499999999999
100
AcDbArc
 50
90.0
 51
180.0
  0
LINE
  5
10F
330
37
100
AcDbEntity
  8
Visible (ANSI)
100
AcDbLine
 10
0.6591408051740105
 20
1.164368482086903
 30
0.0
 11
0.8645650538695795
 21
1.164368482086903
 31
0.0
  0
ARC
  5
110
330
37
100
AcDbEntity
  8
Visible (ANSI)
100
AcDbCircle
 10
0.8691408051740102
 20
1.156618482086903
 30
0.0
 40
0.0089999999999997
100
AcDbArc
 50
90.0
 51
120.5584317859356
  0
LINE
  5
111
330
37
100
AcDbEntity
  8
Visible (ANSI)
100
AcDbLine
 10
0.8691408051740102
 20
1.165618482086903
 30
0.0
 11
0.8769158553750159
 21
1.165618482086903
 31
0.0
  0
ARC
  5
112
330
37
100
AcDbEntity
  8
Visible (ANSI)
100
AcDbCircle
 10
0.8831408051740103
 20
1.159118482086903
 30
0.0
 40
0.009
100
AcDbArc
 50
90.0
 51
133.7617426926797
  0
LINE
  5
113
330
37
100
AcDbEntity
  8
Visible (ANSI)
100
AcDbLine
 10
0.8831408051740103
 20
1.168118482086903
 30
0.0
 11
0.8900169017496228
 21
1.168118482086903
 31
0.0
  0
ARC
  5
114
330
37
100
AcDbEntity
  8
Visible (ANSI)
100
AcDbCircle
 10
0.8971408051740104
 20
1.162618482086903
 30
0.0
 40
0.0090000000000001
100
AcDbArc
 50
90.0
 51
142.33011303567
  0
LINE
  5
115
330
37
100
AcDbEntity
  8
Visible (ANSI)
100
AcDbLine
 10
0.8971408051740104
 20
1.171618482086903
 30
0.0
 11
0.9044839509245178
 21
1.171618482086903
 31
0.0
  0
ARC
  5
116
330
37
100
AcDbEntity
  8
Visible (ANSI)
100
AcDbCircle
 10
0.9101408051740104
 20
1.164618482086903
 30
0.0
 40
0.009
100
AcDbArc
 50
90.0
 51
128.9424412689814
  0
LINE
  5
117
330
37
100
AcDbEntity
  8
Visible (ANSI)
100
AcDbLine
 10
0.9101408051740104
 20
1.173618482086903
 30
0.0
 11
0.9172665951740103
 21
1.173618482086903
 31
0.0
  0
ARC
  5
118
330
37
100
AcDbEntity
  8
Visible (ANSI)
100
AcDbCircle
 10
0.9172665951740103
 20
1.204368482086903
 30
0.0
 40
0.03075
100
AcDbArc
 50
270.0
 51
0.0
  0
LINE
  5
119
330
37
100
AcDbEntity
  8
Visible (ANSI)
100
AcDbLine
 10
0.6283898051740104
 20
0.9901184820875169
 30
0.0
 11
0.6283898051740104
 21
0.9001184820869031
 31
0.0
  0
LINE
  5
11A
330
37
100
AcDbEntity
  8
Visible (ANSI)
100
AcDbLine
 10
1.15651659517401
 20
1.328118482086903
 30
0.0
 11
1.09651659517401
 21
1.328118482086903
 31
0.0
  0
LINE
  5
11B
330
37
100
AcDbEntity
  8
Visible (ANSI)
100
AcDbLine
 10
1.09651659517401
 20
1.328118482086903
 30
0.0
 11
1.09651659517401
 21
1.055118482086903
 31
0.0
  0
ARC
  5
11C
330
37
100
AcDbEntity
  8
Visible (ANSI)
100
AcDbCircle
 10
1.02226659517401
 20
1.055118482086903
 30
0.0
 40
0.07425
100
AcDbArc
 50
180.0
 51
0.0
  0
LINE
  5
11D
330
37
100
AcDbEntity
  8
Visible (ANSI)
100
AcDbLine
 10
0.9480165951740103
 20
1.055118482086903
 30
0.0
 11
0.9480165951740103
 21
1.105868482086903
 31
0.0
  0
ARC
  5
11E
330
37
100
AcDbEntity
  8
Visible (ANSI)
100
AcDbCircle
 10
0.9172665951740103
 20
1.105868482086903
 30
0.0
 40
0.03075
100
AcDbArc
 50
0.0
 51
89.99999999999975
  0
LINE
  5
11F
330
37
100
AcDbEntity
  8
Visible (ANSI)
100
AcDbLine
 10
0.9172665951740103
 20
1.136618482086903
 30
0.0
 11
0.9101408051740104
 21
1.136618482086903
 31
0.0
  0
ARC
  5
120
330
37
100
AcDbEntity
  8
Visible (ANSI)
100
AcDbCircle
 10
0.9101408051740103
 20
1.145618482086902
 30
0.0
 40
0.0089999999999997
100
AcDbArc
 50
231.0575587310188
 51
270.0000000000009
  0
LINE
  5
121
330
37
100
AcDbEntity
  8
Visible (ANSI)
100
AcDbLine
 10
0.9044839509245178
 20
1.138618482086903
 30
0.0
 11
0.8971408051740104
 21
1.138618482086903
 31
0.0
  0
ARC
  5
122
330
37
100
AcDbEntity
  8
Visible (ANSI)
100
AcDbCircle
 10
0.8971408051740104
 20
1.147618482086903
 30
0.0
 40
0.0090000000000001
100
AcDbArc
 50
217.6698869643307
 51
270.0
  0
LINE
  5
123
330
37
100
AcDbEntity
  8
Visible (ANSI)
100
AcDbLine
 10
0.8900169017496228
 20
1.142118482086903
 30
0.0
 11
0.8831408051740103
 21
1.142118482086903
 31
0.0
  0
ARC
  5
124
330
37
100
AcDbEntity
  8
Visible (ANSI)
100
AcDbCircle
 10
0.8831408051740103
 20
1.151118482086903
 30
0.0
 40
0.0090000000000003
100
AcDbArc
 50
226.2382573073208
 51
269.9999999999991
  0
LINE
  5
125
330
37
100
AcDbEntity
  8
Visible (ANSI)
100
AcDbLine
 10
0.8769158553750159
 20
1.144618482086903
 30
0.0
 11
0.8691408051740102
 21
1.144618482086903
 31
0.0
  0
ARC
  5
126
330
37
100
AcDbEntity
  8
Visible (ANSI)
100
AcDbCircle
 10
0.8691408051740104
 20
1.153618482086903
 30
0.0
 40
0.009
100
AcDbArc
 50
239.4415682140657
 51
270.0
  0
LINE
  5
127
330
37
100
AcDbEntity
  8
Visible (ANSI)
100
AcDbLine
 10
0.8645650538695795
 20
1.145868482086903
 30
0.0
 11
0.6591408051740105
 21
1.145868482086903
 31
0.0
  0
ARC
  5
128
330
37
100
AcDbEntity
  8
Visible (ANSI)
100
AcDbCircle
 10
0.6591408051740105
 20
1.115118482086903
 30
0.0
 40
0.03075
100
AcDbArc
 50
90.00000000000024
 51
180.0
  0
LINE
  5
129
330
37
100
AcDbEntity
  8
Visible (ANSI)
100
AcDbLine
 10
0.6283908051740104
 20
1.115118482086903
 30
0.0
 11
0.6283908051740104
 21
1.015118482086903
 31
0.0
  0
LINE
  5
12A
330
37
100
AcDbEntity
  8
Visible (ANSI)
100
AcDbLine
 10
0.6283908051740104
 20
1.015118482086903
 30
0.0
 11
0.6283898051740104
 21
0.9901184820875169
 31
0.0
  0
LINE
  5
12B
330
37
100
AcDbEntity
  8
Visible (ANSI)
100
AcDbLine
 10
1.08151659517401
 20
1.341618482086903
 30
0.0
 11
1.08621659517401
 21
1.341618482086903
 31
0.0
  0
LINE
  5
12C
330
37
100
AcDbEntity
  8
Visible (ANSI)
100
AcDbLine
 10
1.08621659517401
 20
1.341618482086903
 30
0.0
 11
1.08621659517401
 21
1.350118482086903
 31
0.0
  0
LINE
  5
12D
330
37
100
AcDbEntity
  8
Visible (ANSI)
100
AcDbLine
 10
0.9980165951740104
 20
1.350118482086903
 30
0.0
 11
1.01651659517401
 21
1.350118482086903
 31
0.0
  0
LINE
  5
12E
330
37
100
AcDbEntity
  8
Visible (ANSI)
100
AcDbLine
 10
1.01651659517401
 20
1.350118482086903
 30
0.0
 11
1.01651659517401
 21
1.331618482086903
 31
0.0
  0
LINE
  5
12F
330
37
100
AcDbEntity
  8
Visible (ANSI)
100
AcDbLine
 10
1.01651659517401
 20
1.331618482086903
 30
0.0
 11
0.9980165951740103
 21
1.331618482086903
 31
0.0
  0
LINE
  5
130
330
37
100
AcDbEntity
  8
Visible (ANSI)
100
AcDbLine
 10
1.09651659517401
 20
1.331618482086903
 30
0.0
 11
1.07801659517401
 21
1.331618482086903
 31
0.0
  0
LINE
  5
131
330
37
100
AcDbEntity
  8
Visible (ANSI)
100
AcDbLine
 10
0.9980165951740103
 20
1.331618482086903
 30
0.0
 11
0.9980165951740103
 21
1.350118482086903
 31
0.0
  0
ARC
  5
132
330
37
100
AcDbEntity
  8
Visible (ANSI)
100
AcDbCircle
 10
1.08151659517401
 20
1.338118482086903
 30
0.0
 40
0.0035
100
AcDbArc
 50
90.0
 51
180.0
  0
ARC
  5
133
330
37
100
AcDbEntity
  8
Visible (ANSI)
100
AcDbCircle
 10
1.02226659517401
 20
1.055118482086903
 30
0.0
 40
0.05575
100
AcDbArc
 50
180.0
 51
0.0
  0
LINE
  5
134
330
37
100
AcDbEntity
  8
Visible (ANSI)
100
AcDbLine
 10
0.9665165951740103
 20
1.105868482086903
 30
0.0
 11
0.9665165951740103
 21
1.055118482086903
 31
0.0
  0
ARC
  5
135
330
37
100
AcDbEntity
  8
Visible (ANSI)
100
AcDbCircle
 10
0.9172665951740103
 20
1.105868482086903
 30
0.0
 40
0.04925
100
AcDbArc
 50
0.0
 51
78.43429361637873
  0
LINE
  5
136
330
37
100
AcDbEntity
  8
Visible (ANSI)
100
AcDbLine
 10
0.9271408051740102
 20
1.156118482326531
 30
0.0
 11
0.9271408051740102
 21
1.154118481847275
 31
0.0
  0
ARC
  5
137
330
37
100
AcDbEntity
  8
Visible (ANSI)
100
AcDbCircle
 10
0.9172665951740103
 20
1.204368482086903
 30
0.0
 40
0.04925
100
AcDbArc
 50
281.5657063836212
 51
0.0
  0
LINE
  5
138
330
37
100
AcDbEntity
  8
Visible (ANSI)
100
AcDbLine
 10
0.9665165951740103
 20
1.350118482086903
 30
0.0
 11
0.9665165951740103
 21
1.204368482086903
 31
0.0
  0
LINE
  5
139
330
37
100
AcDbEntity
  8
Visible (ANSI)
100
AcDbLine
 10
1.09651659517401
 20
1.328118482086903
 30
0.0
 11
1.09651659517401
 21
1.350118482086903
 31
0.0
  0
LINE
  5
13A
330
37
100
AcDbEntity
  8
Visible (ANSI)
100
AcDbLine
 10
1.07801659517401
 20
1.055118482086903
 30
0.0
 11
1.07801659517401
 21
1.338118482086903
 31
0.0
  0
LINE
  5
13B
330
37
100
AcDbEntity
  8
Visible (ANSI)
100
AcDbLine
 10
1.01651659517401
 20
1.350118482086903
 30
0.0
 11
1.08621659517401
 21
1.350118482086903
 31
0.0
  0
CIRCLE
  5
13C
330
37
100
AcDbEntity
  8
Visible (ANSI)
100
AcDbCircle
 10
0.6191458559740104
 20
1.251123532886903
 30
0.0
 40
0.0445
  0
CIRCLE
  5
13D
330
37
100
AcDbEntity
  8
Visible (ANSI)
100
AcDbCircle
 10
0.6191458559740104
 20
1.251123532886903
 30
0.0
 40
0.0475
  0
CIRCLE
  5
13E
330
37
100
AcDbEntity
  8
Visible (ANSI)
100
AcDbCircle
 10
0.8171357543740104
 20
1.251123532886903
 30
0.0
 40
0.0475
  0
CIRCLE
  5
13F
330
37
100
AcDbEntity
  8
Visible (ANSI)
100
AcDbCircle
 10
0.4011560051740104
 20
0.9821184820869031
 30
0.0
 40
0.05
  0
CIRCLE
  5
140
330
37
100
AcDbEntity
  8
Visible (ANSI)
100
AcDbCircle
 10
0.3711560051740102
 20
1.251123532086903
 30
0.0
 40
0.046
  0
CIRCLE
  5
141
330
37
100
AcDbEntity
  8
Visible (ANSI)
100
AcDbCircle
 10
0.8171357543740104
 20
1.251123532886903
 30
0.0
 40
0.0445
  0
CIRCLE
  5
142
330
37
100
AcDbEntity
  8
Visible (ANSI)
100
AcDbCircle
 10
0.3711560051740102
 20
1.251123532086903
 30
0.0
 40
0.043
  0
CIRCLE
  5
143
330
37
100
AcDbEntity
  8
Visible (ANSI)
100
AcDbCircle
 10
0.4011560051740104
 20
0.9821184820869031
 30
0.0
 40
0.047
  0
CIRCLE
  5
144
330
37
100
AcDbEntity
  8
Visible (ANSI)
100
AcDbCircle
 10
0.8171357051740102
 20
1.060118482086903
 30
0.0
 40
0.043
  0
CIRCLE
  5
145
330
37
100
AcDbEntity
  8
Visible (ANSI)
100
AcDbCircle
 10
0.8171357051740102
 20
1.060118482086903
 30
0.0
 40
0.046
  0
CIRCLE
  5
146
330
37
100
AcDbEntity
  8
Visible (ANSI)
100
AcDbCircle
 10
0.8931408051740103
 20
0.9821184820869031
 30
0.0
 40
0.05
  0
CIRCLE
  5
147
330
37
100
AcDbEntity
  8
Visible (ANSI)
100
AcDbCircle
 10
0.8931408051740103
 20
0.9821184820869031
 30
0.0
 40
0.047
  0
CIRCLE
  5
148
330
37
100
AcDbEntity
  8
Hidden Narrow (ANSI)
 48
1.14316713809967
100
AcDbCircle
 10
0.3711560051740102
 20
1.251123532086903
 30
0.0
 40
0.05265
  0
CIRCLE
  5
149
330
37
100
AcDbEntity
  8
Hidden Narrow (ANSI)
 48
1.14316713809967
100
AcDbCircle
 10
0.8171357051740102
 20
1.060118482086903
 30
0.0
 40
0.05265
  0
LINE
  5
14A
330
37
100
AcDbEntity
  8
Centerline (ANSI)
  6
CHAIN
 48
0.9524481296539306
100
AcDbLine
 10
0.6191408051740103
 20
1.182658766559745
 30
0.0
 11
0.6191408051740103
 21
0.7973222757856786
 31
0.0
  0
LINE
  5
14B
330
37
100
AcDbEntity
  8
Centerline (ANSI)
  6
CHAIN
 48
0.5436204075813294
100
AcDbLine
 10
0.9572665951740104
 20
1.375118482086903
 30
0.0
 11
0.9572665951740104
 21
1.179368482086903
 31
0.0
  0
LINE
  5
14C
330
37
100
AcDbEntity
  8
Centerline (ANSI)
  6
CHAIN
 48
0.9524481296539306
100
AcDbLine
 10
0.6341408051740104
 20
1.155118482086903
 30
0.0
 11
1.072351020435876
 21
1.155118482086903
 31
0.0
  0
LINE
  5
14D
330
37
100
AcDbEntity
  8
Centerline (ANSI)
  6
CHAIN
 48
0.9524481296539306
100
AcDbLine
 10
1.08726659517401
 20
1.030118482086903
 30
0.0
 11
1.08726659517401
 21
1.387425950671373
 31
0.0
  0
LINE
  5
14E
330
37
100
AcDbEntity
  8
Center Mark (ANSI)
  6
CHAIN
 48
0.4484866857528687
100
AcDbLine
 10
1.10301659517401
 20
1.055118482086903
 30
0.0
 11
0.9415165951740101
 21
1.055118482086903
 31
0.0
  0
LINE
  5
14F
330
37
100
AcDbEntity
  8
Center Mark (ANSI)
  6
CHAIN
 48
0.224193349480629
100
AcDbLine
 10
1.02226659517401
 20
1.055118482086903
 30
0.0
 11
1.02226659517401
 21
0.9743684820869031
 31
0.0
  0
DIMENSION
  5
150
330
37
100
AcDbEntity
  8
Dimension (ANSI)
100
AcDbDimension
  2
*D5
 10
1.08726659517401
 20
1.462210537145036
 30
0.0
 11
1.224763029213118
 21
1.462210537145036
 31
0.0
 70
   160
  1
<>
 42
0.00105
  3
Default (ANSI)
100
AcDbAlignedDimension
 13
1.08621659517401
 23
1.350118482086903
 33
0.0
 14
1.08726659517401
 24
1.383470379664721
 34
0.0
100
AcDbRotatedDimension
1001
ACAD
1000
DSTYLE
1002
{
1070
    73
1070
     0
1070
    74
1070
     0
1070
   271
1070
     3
1070
   272
1070
     3
1070
    48
1040
0.0
1070
    47
1040
0.0
1002
}
  0
DIMENSION
  5
231
330
37
100
AcDbEntity
  8
Dimension (ANSI)
100
AcDbDimension
  2
*D6
 10
1.08726659517401
 20
1.386532240862539
 30
0.0
 11
0.8239741323432864
 21
1.386532240862539
 31
0.0
 70
   160
  1
<>
 42
0.13
  3
Default (ANSI)
100
AcDbAlignedDimension
 13
0.9572665951740104
 23
1.28493621883995
 33
0.0
 14
1.08726659517401
 24
1.297041570669107
 34
0.0
 50
180.0
100
AcDbRotatedDimension
1001
ACAD
1000
DSTYLE
1002
{
1070
    73
1070
     0
1070
    74
1070
     0
1070
   271
1070
     3
1070
    76
1070
     1
1070
    75
1070
     1
1070
   272
1070
     3
1070
    48
1040
0.0
1070
    47
1040
0.0
1002
}
  0
DIMENSION
  5
306
330
37
100
AcDbEntity
  8
Dimension (ANSI)
100
AcDbDimension
  2
*D7
 10
0.6591408051740105
 20
1.115118482086903
 30
0.0
 11
0.4902849720518086
 21
1.189187670522181
 31
0.0
 70
   164
  1
<>
 42
0.0307499999999999
  3
Default (ANSI)
100
AcDbRadialDimension
 15
0.6396796173050142
 25
1.13892656194916
 35
0.0
 40
0.0
1001
ACAD
1000
DSTYLE
1002
{
1070
   271
1070
     4
1070
   141
1040
0.0
1070
   272
1070
     3
1070
    48
1040
0.0
1070
    47
1040
0.0
1002
}
  0
DIMENSION
  5
39D
330
37
100
AcDbEntity
  8
Dimension (ANSI)
100
AcDbDimension
  2
*D8
 10
1.02226659517401
 20
1.055118482086903
 30
0.0
 11
1.212133842341338
 21
0.8676033581386239
 31
0.0
 70
   164
  1
<>
 42
0.0557500000000001
  3
Default (ANSI)
100
AcDbRadialDimension
 15
1.044502155407803
 25
1.003994687616134
 35
0.0
 40
0.0
1001
ACAD
1000
DSTYLE
1002
{
1070
   271
1070
     4
1070
   141
1040
0.0
1070
   272
1070
     3
1070
    48
1040
0.0
1070
    47
1040
0.0
1002
}
  0
DIMENSION
  5
434
330
37
100
AcDbEntity
  8
Dimension (ANSI)
100
AcDbDimension
  2
*D9
 10
0.6191408051740103
 20
1.555176093614774
 30
0.0
 11
0.8622037990211499
 21
1.555176093614774
 31
0.0
 70
   160
  1
<>
 42
0.4670757900000001
  3
Default (ANSI)
100
AcDbAlignedDimension
 13
1.08621659517401
 23
1.350118482086903
 33
0.0
 14
0.6191408051740103
 24
1.182658766559745
 34
0.0
 50
180.0
100
AcDbRotatedDimension
1001
ACAD
1000
DSTYLE
1002
{
1070
    73
1070
     0
1070
    74
1070
     0
1070
   271
1070
     4
1070
   272
1070
     3
1070
    48
1040
0.0
1070
    47
1040
0.0
1002
}
  0
DIMENSION
  5
514
330
37
100
AcDbEntity
  8
Dimension (ANSI)
100
AcDbDimension
  2
*D10
 10
1.283130906247445
 20
1.350118482086903
 30
0.0
 11
1.283130906247445
 21
1.252618482086903
 31
0.0
 70
   160
  1
<>*B
 42
0.1950000000000001
  3
Default (ANSI)
100
AcDbAlignedDimension
 13
1.072351020435876
 23
1.155118482086903
 33
0.0
 14
0.9480165951740101
 24
1.350118482086903
 34
0.0
 50
270.0
100
AcDbRotatedDimension
1001
ACAD
1000
DSTYLE
1002
{
1070
   271
1070
     3
1070
   272
1070
     3
1070
    48
1040
0.0
1070
    47
1040
0.0
1002
}
  0
LINE
  5
5E0
330
37
100
AcDbEntity
  8
Center Mark (ANSI)
  6
CHAIN
 48
0.1547526866197586
100
AcDbLine
 10
0.9730165951740103
 20
1.204368482086903
 30
0.0
 11
0.9172665951740103
 21
1.204368482086903
 31
0.0
  0
LINE
  5
5E1
330
37
100
AcDbEntity
  8
Center Mark (ANSI)
  6
CHAIN
 48
0.1547526866197586
100
AcDbLine
 10
0.9172665951740103
 20
1.204368482086903
 30
0.0
 11
0.9172665951740103
 21
1.148618482086903
 31
0.0
  0
LINE
  5
5E2
330
37
100
AcDbEntity
  8
Center Mark (ANSI)
  6
CHAIN
 48
0.1547526866197586
100
AcDbLine
 10
0.9730165951740103
 20
1.105868482086903
 30
0.0
 11
0.9172665951740103
 21
1.105868482086903
 31
0.0
  0
LINE
  5
5E3
330
37
100
AcDbEntity
  8
Center Mark (ANSI)
  6
CHAIN
 48
0.1547526866197586
100
AcDbLine
 10
0.9172665951740103
 20
1.161618482086903
 30
0.0
 11
0.9172665951740103
 21
1.105868482086903
 31
0.0
  0
DIMENSION
  5
5E4
330
37
100
AcDbEntity
  8
Dimension (ANSI)
100
AcDbDimension
  2
*D11
 10
0.9172665951740103
 20
1.48692964844593
 30
0.0
 11
0.751303328609489
 21
1.48692964844593
 31
0.0
 70
   160
  1
<>*A
 42
0.16895
  3
Default (ANSI)
100
AcDbAlignedDimension
 13
1.08621659517401
 23
1.350118482086903
 33
0.0
 14
0.9172665951740103
 24
1.204368482086903
 34
0.0
 50
180.0
100
AcDbRotatedDimension
1001
ACAD
1000
DSTYLE
1002
{
1070
   271
1070
     3
1070
   272
1070
     3
1070
    48
1040
0.0
1070
    47
1040
0.0
1002
}
  0
DIMENSION
  5
6B0
330
37
100
AcDbEntity
  8
Dimension (ANSI)
100
AcDbDimension
  2
*D12
 10
1.40117722509527
 20
1.350118482086903
 30
0.0
 11
1.401177225095269
 21
1.202618482086903
 31
0.0
 70
   160
  1
<>
 42
0.2950000000000001
  3
Default (ANSI)
100
AcDbAlignedDimension
 13
1.02226659517401
 23
1.055118482086903
 33
0.0
 14
1.08621659517401
 24
1.350118482086903
 34
0.0
 50
270.0
100
AcDbRotatedDimension
1001
ACAD
1000
DSTYLE
1002
{
1070
   271
1070
     3
1070
   272
1070
     3
1070
    48
1040
0.0
1070
    47
1040
0.0
1002
}
  0
MTEXT
  5
77D
330
37
100
AcDbEntity
  8
Symbol (ANSI)
100
AcDbMText
 10
1.401100000585698
 20
0.7937432410076149
 30
0.0
 40
0.0359999992716031
 41
0.0
 71
     7
 72
     1
  1
Y Junction 
  7
Text Style30
 73
     1
 44
1.0
1001
ACAD
1000
MTEXTBEGIN
1070
    73
1070
     1
1070
    44
1040
1.0
1070
    74
1070
     0
1000
MTEXTEND
  0
MTEXT
  5
77E
330
37
100
AcDbEntity
  8
Symbol (ANSI)
100
AcDbMText
 10
1.513953314814582
 20
0.735228699786101
 30
0.0
 40
0.0359999992716031
 41
0.0
 71
     7
 72
     1
  1
 
  7
Text Style30
 73
     1
 44
2.797345161437988
1001
ACAD
1000
MTEXTBEGIN
1070
    73
1070
     1
1070
    44
1040
2.797345161437988
1070
    74
1070
     0
1000
MTEXTEND
  0
LINE
  5
77F
330
37
100
AcDbEntity
  8
Sketch Geometry (ANSI)
100
AcDbLine
 10
0.8737973224189067
 20
1.222275300192677
 30
0.0
 11
0.9828869950692725
 21
1.222275300192677
 31
0.0
  0
LINE
  5
780
330
37
100
AcDbEntity
  8
Sketch Geometry (ANSI)
100
AcDbLine
 10
0.9828869950692725
 20
1.222275300192677
 30
0.0
 11
0.9828869950692725
 21
1.077730495301927
 31
0.0
  0
LINE
  5
781
330
37
100
AcDbEntity
  8
Sketch Geometry (ANSI)
100
AcDbLine
 10
0.9828869950692725
 20
1.077730495301927
 30
0.0
 11
0.8737973224189067
 21
1.077730495301927
 31
0.0
  0
LINE
  5
782
330
37
100
AcDbEntity
  8
Sketch Geometry (ANSI)
100
AcDbLine
 10
0.8737973224189067
 20
1.077730495301927
 30
0.0
 11
0.8737973224189067
 21
1.222275300192677
 31
0.0
  0
LINE
  5
783
330
37
100
AcDbEntity
  8
Sketch Geometry (ANSI)
100
AcDbLine
 10
0.9828869950692725
 20
1.077730495301927
 30
0.0
 11
1.470023684931215
 21
0.8414691943538942
 31
0.0
  0
DIMENSION
  5
784
330
37
100
AcDbEntity
  8
Dimension (ANSI)
100
AcDbDimension
  2
*D13
 10
0.7158354085515511
 20
1.164368482086903
 30
0.0
 11
0.7129674456067994
 21
1.319440654621077
 31
0.0
 70
   160
  1
<>
 42
0.0185
  3
Default (ANSI)
100
AcDbAlignedDimension
 13
0.7158354085515511
 23
1.145868482086903
 33
0.0
 14
0.7158354085515511
 24
1.164368482086903
 34
0.0
 50
90.0
100
AcDbRotatedDimension
1001
ACAD
1000
DSTYLE
1002
{
1070
   279
1070
     1
1070
   271
1070
     4
1070
    76
1070
     1
1070
    75
1070
     1
1070
   272
1070
     3
1070
    48
1040
0.0
1070
    47
1040
0.0
1002
}
  0
DIMENSION
  5
86B
330
37
100
AcDbEntity
  8
Dimension (ANSI)
100
AcDbDimension
  2
*D14
 10
1.02226659517401
 20
1.428858639567218
 30
0.0
 11
0.8195399815210759
 21
1.428858639567218
 31
0.0
 70
   160
  1
<>
 42
0.0639500000000002
  3
Default (ANSI)
100
AcDbAlignedDimension
 13
1.08621659517401
 23
1.350118482086903
 33
0.0
 14
1.02226659517401
 24
1.055118482086903
 34
0.0
 50
180.0
100
AcDbRotatedDimension
1001
ACAD
1000
DSTYLE
1002
{
1070
   271
1070
     3
1070
   272
1070
     3
1070
    48
1040
0.0
1070
    47
1040
0.0
1002
}
  0
MTEXT
  5
937
330
37
100
AcDbEntity
  8
Symbol (ANSI)
100
AcDbMText
 10
1.526787037663651
 20
0.2225676817759711
 30
0.0
 40
0.0240000002966153
 41
0.0
 71
     1
 72
     1
  1
{B2}
  7
Note Text (ANSI)
 73
     1
 44
1.0
1001
ACAD
1000
MTEXTBEGIN
1070
    73
1070
     1
1070
    44
1040
1.0
1070
    74
1070
     0
1000
MTEXTEND
  0
DIMENSION
  5
938
330
37
100
AcDbEntity
  8
Dimension (ANSI)
100
AcDbDimension
  2
*D15
 10
1.02226659517401
 20
1.055118482086903
 30
0.0
 11
0.8735742210378131
 21
0.8495896209146652
 31
0.0
 70
   164
  1
<>
 42
0.0742500000000002
  3
Default (ANSI)
100
AcDbRadialDimension
 15
1.007951707803495
 25
0.9822614542888279
 35
0.0
 40
0.0
1001
ACAD
1000
DSTYLE
1002
{
1070
   271
1070
     4
1070
   141
1040
0.0
1070
   272
1070
     3
1070
    48
1040
0.0
1070
    47
1040
0.0
1002
}
  0
MTEXT
  5
9CF
102
{ACAD_REACTORS
330
9D0
102
}
330
37
100
AcDbEntity
  8
Symbol (ANSI)
100
AcDbMText
 10
1.210925195408173
 20
1.43539387462819
 30
0.0
 40
0.0240000002966153
 41
0.2391831330427035
 71
     1
 72
     1
  1
{TURNING STUB }
  7
Note Text (ANSI)
 73
     1
 44
1.0
1001
ACAD
1000
MTEXTBEGIN
1070
    73
1070
     1
1070
    44
1040
1.0
1070
    74
1070
     0
1000
MTEXTEND
  0
LEADER
  5
9D0
330
37
100
AcDbEntity
  8
Symbol (ANSI)
100
AcDbLeader
  3
Default (ANSI)$7
 73
     0
 40
0.0249348559159596
 41
0.2282014803220138
 76
     3
 10
1.081868067476042
 20
1.3461450563444
 30
0.0
 10
1.191240156038094
 20
1.423393874479882
 30
0.0
 10
1.204625982809747
 20
1.423393874479882
 30
0.0
340
9CF
210
0.0
220
0.0
230
0.9999999999999998
213
0.0
223
-0.0120000001483076
233
0.0
1001
ACAD
1000
DSTYLE
1002
{
1070
    77
1070
     0
1070
    41
1040
0.0492125984251969
1070
   341
1005
9D1
1002
}
  0
MTEXT
  5
9D6
102
{ACAD_REACTORS
330
9D7
102
}
330
37
100
AcDbEntity
  8
Symbol (ANSI)
100
AcDbMText
 10
0.5074445339450228
 20
1.07525343137423
 30
0.0
 40
0.0240000002966153
 41
0.1468395435903955
 71
     3
 72
     1
  1
{0.0185 dp}
  7
Note Text (ANSI)
 73
     1
 44
1.0
1001
ACAD
1000
MTEXTBEGIN
1070
    73
1070
     1
1070
    44
1040
1.0
1070
    74
1070
     0
1000
MTEXTEND
  0
LEADER
  5
9D7
330
37
100
AcDbEntity
  8
Symbol (ANSI)
100
AcDbLeader
  3
Default (ANSI)$7
 73
     0
 40
0.0317206182563726
 41
0.1446124933923653
 76
     3
 10
0.6098908051740103
 20
1.015118482086903
 30
0.0
 10
0.5617558560349765
 20
1.063253431225922
 30
0.0
 10
0.5137437465434481
 20
1.063253431225922
 30
0.0
340
9D6
210
0.0
220
0.0
230
-0.9999999999999998
213
0.0
223
-0.0120000001483076
233
0.0
1001
ACAD
1000
DSTYLE
1002
{
1070
    77
1070
     0
1070
    41
1040
0.0492125984251969
1070
   341
1005
9D1
1002
}
  0
MTEXT
  5
9D8
330
37
100
AcDbEntity
  8
Symbol (ANSI)
100
AcDbMText
 10
1.841113720539466
 20
1.590047389799653
 30
0.0
 40
0.0240000002966153
 41
0.2492576884472464
 71
     1
 72
     1
  1
{4 OF 4 (BLOCK2)}
  7
Note Text (ANSI)
 73
     1
 44
1.0
1001
ACAD
1000
MTEXTBEGIN
1070
    73
1070
     1
1070
    44
1040
1.0
1070
    74
1070
     0
1000
MTEXTEND
  0
LINE
  5
9D9
330
37
100
AcDbEntity
  8
Visible (ANSI)
100
AcDbLine
 10
1.15651659517401
 20
0.1971044633336018
 30
0.0
 11
1.15651659517401
 21
0.6471044633336019
 31
0.0
  0
LINE
  5
9DA
330
37
100
AcDbEntity
  8
Visible (ANSI)
100
AcDbLine
 10
0.6098918051740104
 20
0.6286044633336018
 30
0.0
 11
0.6098918051740104
 21
0.6471044633336019
 31
0.0
  0
LINE
  5
9DB
330
37
100
AcDbEntity
  8
Visible (ANSI)
100
AcDbLine
 10
0.6098918051740104
 20
0.6471044633336019
 30
0.0
 11
0.2565166051740105
 21
0.6471044633336019
 31
0.0
  0
LINE
  5
9DC
330
37
100
AcDbEntity
  8
Visible (ANSI)
100
AcDbLine
 10
0.2565166051740105
 20
0.6471044633336019
 30
0.0
 11
0.2565166051740105
 21
0.1971044633336018
 31
0.0
  0
LINE
  5
9DD
330
37
100
AcDbEntity
  8
Visible (ANSI)
100
AcDbLine
 10
0.2565166051740105
 20
0.1971044633336018
 30
0.0
 11
1.15651659517401
 21
0.1971044633336018
 31
0.0
  0
LINE
  5
9DE
330
37
100
AcDbEntity
  8
Visible (ANSI)
100
AcDbLine
 10
1.15651659517401
 20
0.6471044633336019
 30
0.0
 11
0.6283898051740104
 21
0.6471044633336019
 31
0.0
  0
LINE
  5
9DF
330
37
100
AcDbEntity
  8
Visible (ANSI)
100
AcDbLine
 10
0.6283898051740104
 20
0.6471044633336019
 30
0.0
 11
0.6283898051740104
 21
0.6286044633336018
 31
0.0
  0
LINE
  5
9E0
330
37
100
AcDbEntity
  8
Visible (ANSI)
100
AcDbLine
 10
0.6283898051740104
 20
0.6286044633336018
 30
0.0
 11
0.6098918051740104
 21
0.6286044633336018
 31
0.0
  0
LINE
  5
9E1
330
37
100
AcDbEntity
  8
Visible (ANSI)
100
AcDbLine
 10
0.6098918051740104
 20
0.6471044633336658
 30
0.0
 11
0.6283898051740104
 21
0.6471044633336769
 31
0.0
  0
CIRCLE
  5
9E2
330
37
100
AcDbEntity
  8
Visible (ANSI)
100
AcDbCircle
 10
0.7181357543740104
 20
0.5481095141336028
 30
0.0
 40
0.0445
  0
CIRCLE
  5
9E3
330
37
100
AcDbEntity
  8
Visible (ANSI)
100
AcDbCircle
 10
0.7181357543740104
 20
0.5481095141336018
 30
0.0
 40
0.0475
  0
CIRCLE
  5
9E4
330
37
100
AcDbEntity
  8
Visible (ANSI)
100
AcDbCircle
 10
0.5201458559740103
 20
0.5481095141336018
 30
0.0
 40
0.0475
  0
CIRCLE
  5
9E5
330
37
100
AcDbEntity
  8
Visible (ANSI)
100
AcDbCircle
 10
0.6191408051740104
 20
0.5071044633336018
 30
0.0
 40
0.03475
  0
CIRCLE
  5
9E6
330
37
100
AcDbEntity
  8
Visible (ANSI)
100
AcDbCircle
 10
0.5201458559740103
 20
0.5481095141336028
 30
0.0
 40
0.0445
  0
CIRCLE
  5
9E7
330
37
100
AcDbEntity
  8
Visible (ANSI)
100
AcDbCircle
 10
0.6191408051740104
 20
0.5071044633336026
 30
0.0
 40
0.03175
  0
INSERT
  5
A0E
330
37
100
AcDbEntity
  8
Dimension (ANSI)
100
AcDbBlockReference
  2
Origin Indicator Symbol5
 10
0.0
 20
0.0
 30
0.0
 41
0.2
 42
0.2
 43
0.2
  0
INSERT
  5
A3D
330
37
100
AcDbEntity
  8
Symbol (ANSI)
100
AcDbBlockReference
  2
Hole Table5
 10
0.0
 20
0.0
 30
0.0
 41
0.2
 42
0.2
 43
0.2
  0
INSERT
  5
A4F
330
37
100
AcDbEntity
  8
Symbol (ANSI)
100
AcDbBlockReference
  2
Leader Text16
 10
0.0
 20
0.0
 30
0.0
 41
0.2
 42
0.2
 43
0.2
  0
DIMENSION
  5
A50
330
37
100
AcDbEntity
  8
Dimension (ANSI)
100
AcDbDimension
  2
*D20
 10
0.6591408051740105
 20
1.115118482086903
 30
0.0
 11
0.4704876319581626
 21
1.14400911727159
 31
0.0
 70
   164
  1
<>
 42
0.0492500000000001
  3
Default (ANSI)
100
AcDbRadialDimension
 15
0.6124277533030272
 25
1.130721471701039
 35
0.0
 40
0.0
1001
ACAD
1000
DSTYLE
1002
{
1070
   271
1070
     4
1070
   141
1040
0.0
1070
   272
1070
     3
1070
    48
1040
0.0
1070
    47
1040
0.0
1002
}
  0
ENDSEC
  0
SECTION
  2
OBJECTS
  0
DICTIONARY
  5
C
330
0
100
AcDbDictionary
281
     1
  3
ACAD_COLOR
350
30
  3
ACAD_GROUP
350
D
  3
ACAD_LAYOUT
350
2F
  3
ACAD_MATERIAL
350
10
  3
ACAD_MLINESTYLE
350
2C
  3
ACAD_PLOTSETTINGS
350
2E
  3
ACAD_PLOTSTYLENAME
350
E
  3
ACAD_TABLESTYLE
350
31
  3
ACAD_VISUALSTYLE
350
14
  3
AcDbVariableDictionary
350
AE7
  3
DWGPROPS
350
AED
  0
DICTIONARY
  5
30
102
{ACAD_REACTORS
330
C
102
}
330
C
100
AcDbDictionary
281
     1
  0
DICTIONARY
  5
D
102
{ACAD_REACTORS
330
C
102
}
330
C
100
AcDbDictionary
281
     1
  0
DICTIONARY
  5
2F
102
{ACAD_REACTORS
330
C
102
}
330
C
100
AcDbDictionary
281
     1
  3
Layout1
350
36
  3
Layout2
350
3E
  3
Model
350
3A
  0
DICTIONARY
  5
10
102
{ACAD_REACTORS
330
C
102
}
330
C
100
AcDbDictionary
281
     1
  3
ByBlock
350
12
  3
ByLayer
350
11
  3
Global
350
13
  0
DICTIONARY
  5
2C
102
{ACAD_REACTORS
330
C
102
}
330
C
100
AcDbDictionary
281
     1
  3
Standard
350
2D
  0
DICTIONARY
  5
2E
102
{ACAD_REACTORS
330
C
102
}
330
C
100
AcDbDictionary
281
     1
  0
ACDBDICTIONARYWDFLT
  5
E
102
{ACAD_REACTORS
330
C
102
}
330
C
100
AcDbDictionary
281
     1
  3
Normal
350
F
100
AcDbDictionaryWithDefault
340
F
  0
DICTIONARY
  5
31
102
{ACAD_REACTORS
330
C
102
}
330
C
100
AcDbDictionary
281
     1
  3
Standard
350
32
  0
DICTIONARY
  5
14
102
{ACAD_REACTORS
330
C
102
}
330
C
100
AcDbDictionary
281
     1
  3
2dWireframe
350
1A
  3
3D Hidden
350
1C
  3
3dWireframe
350
1B
  3
Basic
350
19
  3
Brighten
350
20
  3
ColorChange
350
24
  3
Conceptual
350
1D
  3
Dim
350
1F
  3
Facepattern
350
23
  3
Flat
350
15
  3
FlatWithEdges
350
16
  3
Gouraud
350
17
  3
GouraudWithEdges
350
18
  3
Linepattern
350
22
  3
Realistic
350
1E
  3
Thicken
350
21
  0
DICTIONARY
  5
AE7
102
{ACAD_REACTORS
330
C
102
}
330
C
100
AcDbDictionary
281
     1
  3
CTABLESTYLE
350
AE8
  3
DIMASSOC
350
AEC
  3
HIDETEXT
350
AEB
  3
INDEXCTL
350
AEA
  3
SORTENTS
350
AE9
  0
XRECORD
  5
AED
102
{ACAD_REACTORS
330
C
102
}
330
C
100
AcDbXrecord
280
     1
  1
DWGPROPS COOKIE
  2

  3

  4
Da Chow
  6

  7

  8

  9

300
Manager=
301
Company=RADIO ASTRONOMY LABORATORY
302
Category=
303
Part Number=Block2-V61
304
Description=
305
Project=
306
Designer=Da Chow
307
Engineer=
308
Authority=
309
Cost Center=
 40
0.0000320138888889
 41
2454846.693093704
 42
2454846.693093704
  1

 90
       17
300
Vendor=
300
User Status=REV
300
Design Status=WorkInProgress
300
Checked by=
300
Date Checked=01/14/2009
300
Engr Approved by=
300
Mfg Approved by=
  0
LAYOUT
  5
36
102
{ACAD_XDICTIONARY
360
AF6
102
}
102
{ACAD_REACTORS
330
2F
102
}
330
2F
100
AcDbPlotSettings
  1

  2

  4

  6

 40
0.0
 41
0.0
 42
0.0
 43
0.0
 44
0.0
 45
0.0
 46
0.0
 47
0.0
 48
0.0
 49
0.0
140
0.0
141
0.0
142
1.0
143
1.0
 70
   688
 72
     0
 73
     0
 74
     5
  7

 75
    16
147
1.0
148
0.0
149
0.0
100
AcDbLayout
  1
Layout1
 70
     1
 71
     1
 10
0.0
 20
0.0
 11
12.0
 21
9.0
 12
0.0
 22
0.0
 32
0.0
 14
0.0
 24
0.0
 34
0.0
 15
0.0
 25
0.0
 35
0.0
146
0.0
 13
0.0
 23
0.0
 33
0.0
 16
1.0
 26
0.0
 36
0.0
 17
0.0
 27
1.0
 37
0.0
 76
     0
330
33
  0
LAYOUT
  5
3E
102
{ACAD_XDICTIONARY
360
AFA
102
}
102
{ACAD_REACTORS
330
2F
102
}
330
2F
100
AcDbPlotSettings
  1

  2

  4

  6

 40
0.0
 41
0.0
 42
0.0
 43
0.0
 44
0.0
 45
0.0
 46
0.0
 47
0.0
 48
0.0
 49
0.0
140
0.0
141
0.0
142
1.0
143
1.0
 70
   688
 72
     0
 73
     0
 74
     5
  7

 75
    16
147
1.0
148
0.0
149
0.0
100
AcDbLayout
  1
Layout2
 70
     1
 71
     2
 10
0.0
 20
0.0
 11
12.0
 21
9.0
 12
0.0
 22
0.0
 32
0.0
 14
0.0
 24
0.0
 34
0.0
 15
0.0
 25
0.0
 35
0.0
146
0.0
 13
0.0
 23
0.0
 33
0.0
 16
1.0
 26
0.0
 36
0.0
 17
0.0
 27
1.0
 37
0.0
 76
     0
330
3B
  0
LAYOUT
  5
3A
102
{ACAD_XDICTIONARY
360
AF8
102
}
102
{ACAD_REACTORS
330
2F
102
}
330
2F
100
AcDbPlotSettings
  1

  2

  4

  6

 40
0.0
 41
0.0
 42
0.0
 43
0.0
 44
0.0
 45
0.0
 46
0.0
 47
0.0
 48
0.0
 49
0.0
140
0.0
141
0.0
142
1.0
143
1.0
 70
  1712
 72
     0
 73
     0
 74
     0
  7

 75
     0
147
1.0
148
0.0
149
0.0
100
AcDbLayout
  1
Model
 70
     1
 71
     0
 10
0.0
 20
0.0
 11
12.0
 21
9.0
 12
0.0
 22
0.0
 32
0.0
 14
0.0
 24
0.0
 34
0.0
 15
0.0
 25
0.0
 35
0.0
146
0.0
 13
0.0
 23
0.0
 33
0.0
 16
1.0
 26
0.0
 36
0.0
 17
0.0
 27
1.0
 37
0.0
 76
     0
330
37
  0
MATERIAL
  5
12
102
{ACAD_XDICTIONARY
360
AF0
102
}
102
{ACAD_REACTORS
330
10
102
}
330
10
100
AcDbMaterial
  1
ByBlock
  0
MATERIAL
  5
11
102
{ACAD_XDICTIONARY
360
AEE
102
}
102
{ACAD_REACTORS
330
10
102
}
330
10
100
AcDbMaterial
  1
ByLayer
  0
MATERIAL
  5
13
102
{ACAD_XDICTIONARY
360
AF2
102
}
102
{ACAD_REACTORS
330
10
102
}
330
10
100
AcDbMaterial
  1
Global
  0
MLINESTYLE
  5
2D
102
{ACAD_REACTORS
330
2C
102
}
330
2C
100
AcDbMlineStyle
  2
STANDARD
 70
     0
  3

 62
   256
 51
90.0
 52
90.0
 71
     2
 49
0.5
 62
   256
  6
BYLAYER
 49
-0.5
 62
   256
  6
BYLAYER
  0
ACDBPLACEHOLDER
  5
F
102
{ACAD_REACTORS
330
E
102
}
330
E
  0
TABLESTYLE
  5
32
102
{ACAD_XDICTIONARY
360
AF4
102
}
102
{ACAD_REACTORS
330
31
102
}
330
31
100
AcDbTableStyle
  3
Standard
 70
     0
 71
     0
 40
0.06
 41
0.06
280
     0
281
     0
  7
Standard
140
0.18
170
     2
 62
     0
 63
     7
283
     0
274
    -2
284
     1
 64
     0
275
    -2
285
     1
 65
     0
276
    -2
286
     1
 66
     0
277
    -2
287
     1
 67
     0
278
    -2
288
     1
 68
     0
279
    -2
289
     1
 69
     0
  7
Standard
140
0.25
170
     5
 62
     0
 63
     7
283
     0
274
    -2
284
     1
 64
     0
275
    -2
285
     1
 65
     0
276
    -2
286
     1
 66
     0
277
    -2
287
     1
 67
     0
278
    -2
288
     1
 68
     0
279
    -2
289
     1
 69
     0
  7
Standard
140
0.18
170
     5
 62
     0
 63
     7
283
     0
274
    -2
284
     1
 64
     0
275
    -2
285
     1
 65
     0
276
    -2
286
     1
 66
     0
277
    -2
287
     1
 67
     0
278
    -2
288
     1
 68
     0
279
    -2
289
     1
 69
     0
  0
VISUALSTYLE
  5
1A
102
{ACAD_REACTORS
330
14
102
}
330
14
100
AcDbVisualStyle
  2
2dWireframe
 70
     4
 71
     0
 72
     2
 73
     0
 90
        0
 40
-0.6
 41
-30.0
 62
     5
 63
     7
 74
     1
 91
        4
 64
     7
 65
   257
 75
     1
175
     1
 42
1.0
 92
        0
 66
   257
 43
1.0
 76
     1
 77
     6
 78
     2
 67
     7
 79
     5
170
     0
171
     0
290
     0
174
     0
 93
        1
 44
0.0
173
     0
291
     0
 45
0.0
1001
ACAD
1000
AcDbSavedByObjectVersion
1070
     0
  0
VISUALSTYLE
  5
1C
102
{ACAD_REACTORS
330
14
102
}
330
14
100
AcDbVisualStyle
  2
3D Hidden
 70
     6
 71
     1
 72
     2
 73
     2
 90
        0
 40
-0.6
 41
-30.0
 62
     5
 63
     7
 74
     2
 91
        2
 64
     7
 65
   257
 75
     2
175
     1
 42
40.0
 92
        0
 66
   257
 43
1.0
 76
     1
 77
     6
 78
     2
 67
     7
 79
     3
170
     0
171
     0
290
     0
174
     0
 93
        1
 44
0.0
173
     0
291
     0
 45
0.0
1001
ACAD
1000
AcDbSavedByObjectVersion
1070
     0
  0
VISUALSTYLE
  5
1B
102
{ACAD_REACTORS
330
14
102
}
330
14
100
AcDbVisualStyle
  2
3dWireframe
 70
     5
 71
     0
 72
     2
 73
     0
 90
        0
 40
-0.6
 41
-30.0
 62
     5
 63
     7
 74
     1
 91
        4
 64
     7
 65
   257
 75
     1
175
     1
 42
1.0
 92
        0
 66
   257
 43
1.0
 76
     1
 77
     6
 78
     2
 67
     7
 79
     5
170
     0
171
     0
290
     0
174
     0
 93
        1
 44
0.0
173
     0
291
     0
 45
0.0
1001
ACAD
1000
AcDbSavedByObjectVersion
1070
     0
  0
VISUALSTYLE
  5
19
102
{ACAD_REACTORS
330
14
102
}
330
14
100
AcDbVisualStyle
  2
Basic
 70
     7
 71
     1
 72
     0
 73
     1
 90
        0
 40
-0.6
 41
-30.0
 62
     5
 63
     7
 74
     0
 91
        4
 64
     7
 65
   257
 75
     1
175
     1
 42
1.0
 92
        8
 66
     7
 43
1.0
 76
     1
 77
     6
 78
     2
 67
     7
 79
     5
170
     0
171
     0
290
     0
174
     0
 93
        1
 44
0.0
173
     0
291
     1
 45
0.0
1001
ACAD
1000
AcDbSavedByObjectVersion
1070
     0
  0
VISUALSTYLE
  5
20
102
{ACAD_REACTORS
330
14
102
}
330
14
100
AcDbVisualStyle
  2
Brighten
 70
    12
 71
     2
 72
     2
 73
     0
 90
        0
 40
-0.6
 41
-30.0
 62
     5
 63
     7
 74
     1
 91
        4
 64
     7
 65
   257
 75
     1
175
     1
 42
1.0
 92
        8
 66
     7
 43
1.0
 76
     1
 77
     6
 78
     2
 67
     7
 79
     5
170
     0
171
     0
290
     0
174
     0
 93
        1
 44
50.0
173
     0
291
     1
 45
0.0
1001
ACAD
1000
AcDbSavedByObjectVersion
1070
     0
  0
VISUALSTYLE
  5
24
102
{ACAD_REACTORS
330
14
102
}
330
14
100
AcDbVisualStyle
  2
ColorChange
 70
    16
 71
     2
 72
     2
 73
     3
 90
        0
 40
-0.6
 41
-30.0
 62
     5
 63
     8
 74
     1
 91
        4
 64
     7
 65
   257
 75
     1
175
     1
 42
1.0
 92
        8
 66
     8
 43
1.0
 76
     1
 77
     6
 78
     2
 67
     7
 79
     5
170
     0
171
     0
290
     0
174
     0
 93
        1
 44
0.0
173
     0
291
     1
 45
0.0
1001
ACAD
1000
AcDbSavedByObjectVersion
1070
     0
  0
VISUALSTYLE
  5
1D
102
{ACAD_REACTORS
330
14
102
}
330
14
100
AcDbVisualStyle
  2
Conceptual
 70
     9
 71
     3
 72
     2
 73
     0
 90
        0
 40
-0.6
 41
-30.0
 62
     5
 63
     7
 74
     2
 91
        2
 64
     7
 65
   257
 75
     1
175
     1
 42
40.0
 92
        8
 66
     7
 43
1.0
 76
     1
 77
     6
 78
     2
 67
     7
 79
     3
170
     0
171
     0
290
     0
174
     0
 93
        1
 44
0.0
173
     0
291
     0
 45
0.0
1001
ACAD
1000
AcDbSavedByObjectVersion
1070
     0
  0
VISUALSTYLE
  5
1F
102
{ACAD_REACTORS
330
14
102
}
330
14
100
AcDbVisualStyle
  2
Dim
 70
    11
 71
     2
 72
     2
 73
     0
 90
        0
 40
-0.6
 41
-30.0
 62
     5
 63
     7
 74
     1
 91
        4
 64
     7
 65
   257
 75
     1
175
     1
 42
1.0
 92
        8
 66
     7
 43
1.0
 76
     1
 77
     6
 78
     2
 67
     7
 79
     5
170
     0
171
     0
290
     0
174
     0
 93
        1
 44
-50.0
173
     0
291
     1
 45
0.0
1001
ACAD
1000
AcDbSavedByObjectVersion
1070
     0
  0
VISUALSTYLE
  5
23
102
{ACAD_REACTORS
330
14
102
}
330
14
100
AcDbVisualStyle
  2
Facepattern
 70
    15
 71
     2
 72
     2
 73
     0
 90
        0
 40
-0.6
 41
-30.0
 62
     5
 63
     7
 74
     1
 91
        4
 64
     7
 65
   257
 75
     1
175
     1
 42
1.0
 92
        8
 66
     7
 43
1.0
 76
     1
 77
     6
 78
     2
 67
     7
 79
     5
170
     0
171
     0
290
     0
174
     0
 93
        1
 44
0.0
173
     0
291
     1
 45
0.0
1001
ACAD
1000
AcDbSavedByObjectVersion
1070
     0
  0
VISUALSTYLE
  5
15
102
{ACAD_REACTORS
330
14
102
}
330
14
100
AcDbVisualStyle
  2
Flat
 70
     0
 71
     2
 72
     1
 73
     1
 90
        2
 40
-0.6
 41
30.0
 62
     5
 63
     7
 74
     0
 91
        4
 64
     7
 65
   257
 75
     1
175
     1
 42
1.0
 92
        8
 66
     7
 43
1.0
 76
     1
 77
     6
 78
     2
 67
     7
 79
     5
170
     0
171
     0
290
     0
174
     0
 93
       13
 44
0.0
173
     0
291
     1
 45
0.0
1001
ACAD
1000
AcDbSavedByObjectVersion
1070
     0
  0
VISUALSTYLE
  5
16
102
{ACAD_REACTORS
330
14
102
}
330
14
100
AcDbVisualStyle
  2
FlatWithEdges
 70
     1
 71
     2
 72
     1
 73
     1
 90
        2
 40
-0.6
 41
30.0
 62
     5
 63
     7
 74
     1
 91
        4
 64
     7
 65
   257
 75
     1
175
     1
 42
1.0
 92
        0
 66
   257
 43
1.0
 76
     1
 77
     6
 78
     2
 67
     7
 79
     5
170
     0
171
     0
290
     0
174
     0
 93
       13
 44
0.0
173
     0
291
     1
 45
0.0
1001
ACAD
1000
AcDbSavedByObjectVersion
1070
     0
  0
VISUALSTYLE
  5
17
102
{ACAD_REACTORS
330
14
102
}
330
14
100
AcDbVisualStyle
  2
Gouraud
 70
     2
 71
     2
 72
     2
 73
     1
 90
        2
 40
-0.6
 41
30.0
 62
     5
 63
     7
 74
     0
 91
        4
 64
     7
 65
   257
 75
     1
175
     1
 42
1.0
 92
        0
 66
     7
 43
1.0
 76
     1
 77
     6
 78
     2
 67
     7
 79
     5
170
     0
171
     0
290
     0
174
     0
 93
       13
 44
0.0
173
     0
291
     1
 45
0.0
1001
ACAD
1000
AcDbSavedByObjectVersion
1070
     0
  0
VISUALSTYLE
  5
18
102
{ACAD_REACTORS
330
14
102
}
330
14
100
AcDbVisualStyle
  2
GouraudWithEdges
 70
     3
 71
     2
 72
     2
 73
     1
 90
        2
 40
-0.6
 41
30.0
 62
     5
 63
     7
 74
     1
 91
        4
 64
     7
 65
   257
 75
     1
175
     1
 42
1.0
 92
        0
 66
   257
 43
1.0
 76
     1
 77
     6
 78
     2
 67
     7
 79
     5
170
     0
171
     0
290
     0
174
     0
 93
       13
 44
0.0
173
     0
291
     1
 45
0.0
1001
ACAD
1000
AcDbSavedByObjectVersion
1070
     0
  0
VISUALSTYLE
  5
22
102
{ACAD_REACTORS
330
14
102
}
330
14
100
AcDbVisualStyle
  2
Linepattern
 70
    14
 71
     2
 72
     2
 73
     0
 90
        0
 40
-0.6
 41
-30.0
 62
     5
 63
     7
 74
     1
 91
        4
 64
     7
 65
   257
 75
     7
175
     7
 42
1.0
 92
        8
 66
     7
 43
1.0
 76
     1
 77
     6
 78
     2
 67
     7
 79
     5
170
     0
171
     0
290
     0
174
     0
 93
        1
 44
0.0
173
     0
291
     1
 45
0.0
1001
ACAD
1000
AcDbSavedByObjectVersion
1070
     0
  0
VISUALSTYLE
  5
1E
102
{ACAD_REACTORS
330
14
102
}
330
14
100
AcDbVisualStyle
  2
Realistic
 70
     8
 71
     2
 72
     2
 73
     0
 90
        0
 40
-0.6
 41
-30.0
 62
     5
 63
     7
 74
     1
 91
        0
 64
     7
 65
   257
 75
     1
175
     1
 42
1.0
 92
        8
 66
     8
 43
1.0
 76
     1
 77
     6
 78
     2
 67
     7
 79
     5
170
     0
171
     0
290
     0
174
     0
 93
       13
 44
0.0
173
     0
291
     0
 45
0.0
1001
ACAD
1000
AcDbSavedByObjectVersion
1070
     0
  0
VISUALSTYLE
  5
21
102
{ACAD_REACTORS
330
14
102
}
330
14
100
AcDbVisualStyle
  2
Thicken
 70
    13
 71
     2
 72
     2
 73
     0
 90
        0
 40
-0.6
 41
-30.0
 62
     5
 63
     7
 74
     1
 91
        4
 64
     7
 65
   257
 75
     1
175
     1
 42
1.0
 92
       12
 66
     7
 43
1.0
 76
     1
 77
     6
 78
     2
 67
     7
 79
     5
170
     0
171
     0
290
     0
174
     0
 93
        1
 44
0.0
173
     0
291
     1
 45
0.0
1001
ACAD
1000
AcDbSavedByObjectVersion
1070
     0
  0
DICTIONARYVAR
  5
AE8
102
{ACAD_REACTORS
330
AE7
102
}
330
AE7
100
DictionaryVariables
280
     0
  1
STANDARD
  0
DICTIONARYVAR
  5
AEC
102
{ACAD_REACTORS
330
AE7
102
}
330
AE7
100
DictionaryVariables
280
     0
  1
1
  0
DICTIONARYVAR
  5
AEB
102
{ACAD_REACTORS
330
AE7
102
}
330
AE7
100
DictionaryVariables
280
     0
  1
1
  0
DICTIONARYVAR
  5
AEA
102
{ACAD_REACTORS
330
AE7
102
}
330
AE7
100
DictionaryVariables
280
     0
  1
0
  0
DICTIONARYVAR
  5
AE9
102
{ACAD_REACTORS
330
AE7
102
}
330
AE7
100
DictionaryVariables
280
     0
  1
127
  0
DICTIONARY
  5
AF6
330
36
100
AcDbDictionary
280
     1
281
     1
  3
ACAD_XREC_ROUNDTRIP
360
AF7
  0
DICTIONARY
  5
AFA
330
3E
100
AcDbDictionary
280
     1
281
     1
  3
ACAD_XREC_ROUNDTRIP
360
AFB
  0
DICTIONARY
  5
AF8
330
3A
100
AcDbDictionary
280
     1
281
     1
  3
ACAD_XREC_ROUNDTRIP
360
AF9
  0
DICTIONARY
  5
AF0
330
12
100
AcDbDictionary
280
     1
281
     1
  3
ACAD_XREC_ROUNDTRIP
360
AF1
  0
DICTIONARY
  5
AEE
330
11
100
AcDbDictionary
280
     1
281
     1
  3
ACAD_XREC_ROUNDTRIP
360
AEF
  0
DICTIONARY
  5
AF2
330
13
100
AcDbDictionary
280
     1
281
     1
  3
ACAD_XREC_ROUNDTRIP
360
AF3
  0
DICTIONARY
  5
AF4
330
32
100
AcDbDictionary
280
     1
281
     1
  3
ACAD_XREC_ROUNDTRIP
360
AF5
  0
XRECORD
  5
AF7
102
{ACAD_REACTORS
330
AF6
102
}
330
AF6
100
AcDbXrecord
280
     1
102
SHADEPLOT
 70
     0
102
SHADEPLOTRESLEVEL
 70
     2
102
SHADEPLOTCUSTOMDPI
 70
   300
  0
XRECORD
  5
AFB
102
{ACAD_REACTORS
330
AFA
102
}
330
AFA
100
AcDbXrecord
280
     1
102
SHADEPLOT
 70
     0
102
SHADEPLOTRESLEVEL
 70
     2
102
SHADEPLOTCUSTOMDPI
 70
   300
  0
XRECORD
  5
AF9
102
{ACAD_REACTORS
330
AF8
102
}
330
AF8
100
AcDbXrecord
280
     1
102
SHADEPLOT
 70
     0
102
SHADEPLOTRESLEVEL
 70
     2
102
SHADEPLOTCUSTOMDPI
 70
   300
  0
XRECORD
  5
AF1
102
{ACAD_REACTORS
330
AF0
102
}
330
AF0
100
AcDbXrecord
280
     1
102
MATERIAL
148
0.0
149
0.0
149
0.0
 93
        0
 94
       63
282
     0
 72
     1
 77
     1
171
     1
175
     1
179
     1
273
     0
  0
XRECORD
  5
AEF
102
{ACAD_REACTORS
330
AEE
102
}
330
AEE
100
AcDbXrecord
280
     1
102
MATERIAL
148
0.0
149
0.0
149
0.0
 93
        0
 94
       63
282
     0
 72
     1
 77
     1
171
     1
175
     1
179
     1
273
     0
  0
XRECORD
  5
AF3
102
{ACAD_REACTORS
330
AF2
102
}
330
AF2
100
AcDbXrecord
280
     1
102
MATERIAL
148
0.0
149
0.0
149
0.0
 93
        0
 94
       63
282
     0
 72
     1
 77
     1
171
     1
175
     1
179
     1
273
     0
  0
XRECORD
  5
AF5
102
{ACAD_REACTORS
330
AF4
102
}
330
AF4
100
AcDbXrecord
280
     1
102
ACAD_ROUNDTRIP_PRE2007_TABLESTYLE
 90
      512
 91
        0
  1

 92
      512
 93
        0
  2

 94
      512
 95
        0
  3

  0
ENDSEC
  0
EOF
