  0
SECTION
  2
HEADER
  9
$ACADVER
  1
AC1015
  9
$ACADMAINTVER
 70
    18
  9
$DWGCODEPAGE
  3
ANSI_1252
  9
$INSBASE
 10
0.0
 20
0.0
 30
0.0
  9
$EXTMIN
 10
0.0
 20
0.0
 30
0.0
  9
$EXTMAX
 10
2.75
 20
2.125
 30
0.0
  9
$LIMMIN
 10
0.0
 20
0.0
  9
$LIMMAX
 10
2.75
 20
2.125
  9
$ORTHOMODE
 70
     0
  9
$REGENMODE
 70
     1
  9
$FILLMODE
 70
     1
  9
$QTEXTMODE
 70
     0
  9
$MIRRTEXT
 70
     0
  9
$LTSCALE
 40
0.25
  9
$ATTMODE
 70
     1
  9
$TEXTSIZE
 40
0.2
  9
$TRACEWID
 40
0.05
  9
$TEXTSTYLE
  7
Standard
  9
$CLAYER
  8
0
  9
$CELTYPE
  6
ByLayer
  9
$CECOLOR
 62
   256
  9
$CELTSCALE
 40
1.0
  9
$DISPSILH
 70
     0
  9
$DIMSCALE
 40
1.0
  9
$DIMASZ
 40
0.0708661417322835
  9
$DIMEXO
 40
0.0625
  9
$DIMDLI
 40
0.38
  9
$DIMRND
 40
0.0
  9
$DIMDLE
 40
0.0
  9
$DIMEXE
 40
0.18
  9
$DIMTP
 40
0.0
  9
$DIMTM
 40
0.0
  9
$DIMTXT
 40
0.3048000037670135
  9
$DIMCEN
 40
0.09
  9
$DIMTSZ
 40
0.0
  9
$DIMTOL
 70
     0
  9
$DIMLIM
 70
     0
  9
$DIMTIH
 70
     1
  9
$DIMTOH
 70
     1
  9
$DIMSE1
 70
     0
  9
$DIMSE2
 70
     0
  9
$DIMTAD
 70
     0
  9
$DIMZIN
 70
     0
  9
$DIMBLK
  1

  9
$DIMASO
 70
     1
  9
$DIMSHO
 70
     1
  9
$DIMPOST
  1

  9
$DIMAPOST
  1

  9
$DIMALT
 70
     0
  9
$DIMALTD
 70
     2
  9
$DIMALTF
 40
25.4
  9
$DIMLFAC
 40
1.0
  9
$DIMTOFL
 70
     0
  9
$DIMTVP
 40
0.0
  9
$DIMTIX
 70
     0
  9
$DIMSOXD
 70
     0
  9
$DIMSAH
 70
     0
  9
$DIMBLK1
  1

  9
$DIMBLK2
  1

  9
$DIMSTYLE
  2
Standard
  9
$DIMCLRD
 70
     0
  9
$DIMCLRE
 70
     0
  9
$DIMCLRT
 70
     0
  9
$DIMTFAC
 40
1.0
  9
$DIMGAP
 40
0.09
  9
$DIMJUST
 70
     0
  9
$DIMSD1
 70
     0
  9
$DIMSD2
 70
     0
  9
$DIMTOLJ
 70
     1
  9
$DIMTZIN
 70
     0
  9
$DIMALTZ
 70
     0
  9
$DIMALTTZ
 70
     0
  9
$DIMUPT
 70
     0
  9
$DIMDEC
 70
     4
  9
$DIMTDEC
 70
     4
  9
$DIMALTU
 70
     2
  9
$DIMALTTD
 70
     2
  9
$DIMTXSTY
  7
Standard
  9
$DIMAUNIT
 70
     0
  9
$DIMADEC
 70
     0
  9
$DIMALTRND
 40
0.0
  9
$DIMAZIN
 70
     0
  9
$DIMDSEP
 70
    46
  9
$DIMATFIT
 70
     3
  9
$DIMFRAC
 70
     0
  9
$DIMLDRBLK
  1

  9
$DIMLUNIT
 70
     2
  9
$DIMLWD
 70
    -2
  9
$DIMLWE
 70
    -2
  9
$DIMTMOVE
 70
     0
  9
$LUNITS
 70
     2
  9
$LUPREC
 70
     4
  9
$SKETCHINC
 40
0.1
  9
$FILLETRAD
 40
0.0
  9
$AUNITS
 70
     0
  9
$AUPREC
 70
     0
  9
$MENU
  1
.
  9
$ELEVATION
 40
0.0
  9
$PELEVATION
 40
0.0
  9
$THICKNESS
 40
0.0
  9
$LIMCHECK
 70
     0
  9
$CHAMFERA
 40
0.0
  9
$CHAMFERB
 40
0.0
  9
$CHAMFERC
 40
0.0
  9
$CHAMFERD
 40
0.0
  9
$SKPOLY
 70
     0
  9
$TDCREATE
 40
2454846.639294155
  9
$TDUCREATE
 40
2454846.972627489
  9
$TDUPDATE
 40
2454846.639294155
  9
$TDUUPDATE
 40
2454846.972627489
  9
$TDINDWG
 40
0.0000236921
  9
$TDUSRTIMER
 40
0.0000236921
  9
$USRTIMER
 70
     1
  9
$ANGBASE
 50
0.0
  9
$ANGDIR
 70
     0
  9
$PDMODE
 70
     0
  9
$PDSIZE
 40
0.0
  9
$PLINEWID
 40
0.0
  9
$SPLFRAME
 70
     0
  9
$SPLINETYPE
 70
     6
  9
$SPLINESEGS
 70
     8
  9
$HANDSEED
  5
59A
  9
$SURFTAB1
 70
     6
  9
$SURFTAB2
 70
     6
  9
$SURFTYPE
 70
     6
  9
$SURFU
 70
     6
  9
$SURFV
 70
     6
  9
$UCSBASE
  2

  9
$UCSNAME
  2

  9
$UCSORG
 10
0.0
 20
0.0
 30
0.0
  9
$UCSXDIR
 10
1.0
 20
0.0
 30
0.0
  9
$UCSYDIR
 10
0.0
 20
1.0
 30
0.0
  9
$UCSORTHOREF
  2

  9
$UCSORTHOVIEW
 70
     0
  9
$UCSORGTOP
 10
0.0
 20
0.0
 30
0.0
  9
$UCSORGBOTTOM
 10
0.0
 20
0.0
 30
0.0
  9
$UCSORGLEFT
 10
0.0
 20
0.0
 30
0.0
  9
$UCSORGRIGHT
 10
0.0
 20
0.0
 30
0.0
  9
$UCSORGFRONT
 10
0.0
 20
0.0
 30
0.0
  9
$UCSORGBACK
 10
0.0
 20
0.0
 30
0.0
  9
$PUCSBASE
  2

  9
$PUCSNAME
  2

  9
$PUCSORG
 10
0.0
 20
0.0
 30
0.0
  9
$PUCSXDIR
 10
1.0
 20
0.0
 30
0.0
  9
$PUCSYDIR
 10
0.0
 20
1.0
 30
0.0
  9
$PUCSORTHOREF
  2

  9
$PUCSORTHOVIEW
 70
     0
  9
$PUCSORGTOP
 10
0.0
 20
0.0
 30
0.0
  9
$PUCSORGBOTTOM
 10
0.0
 20
0.0
 30
0.0
  9
$PUCSORGLEFT
 10
0.0
 20
0.0
 30
0.0
  9
$PUCSORGRIGHT
 10
0.0
 20
0.0
 30
0.0
  9
$PUCSORGFRONT
 10
0.0
 20
0.0
 30
0.0
  9
$PUCSORGBACK
 10
0.0
 20
0.0
 30
0.0
  9
$USERI1
 70
     0
  9
$USERI2
 70
     0
  9
$USERI3
 70
     0
  9
$USERI4
 70
     0
  9
$USERI5
 70
     0
  9
$USERR1
 40
0.0
  9
$USERR2
 40
0.0
  9
$USERR3
 40
0.0
  9
$USERR4
 40
0.0
  9
$USERR5
 40
0.0
  9
$WORLDVIEW
 70
     1
  9
$SHADEDGE
 70
     3
  9
$SHADEDIF
 70
    70
  9
$TILEMODE
 70
     1
  9
$MAXACTVP
 70
    64
  9
$PINSBASE
 10
0.0
 20
0.0
 30
0.0
  9
$PLIMCHECK
 70
     0
  9
$PEXTMIN
 10
0.0
 20
0.0
 30
0.0
  9
$PEXTMAX
 10
2.75
 20
2.125
 30
0.0
  9
$PLIMMIN
 10
0.0
 20
0.0
  9
$PLIMMAX
 10
2.75
 20
2.125
  9
$UNITMODE
 70
     0
  9
$VISRETAIN
 70
     1
  9
$PLINEGEN
 70
     0
  9
$PSLTSCALE
 70
     1
  9
$TREEDEPTH
 70
  3020
  9
$CMLSTYLE
  2
Standard
  9
$CMLJUST
 70
     0
  9
$CMLSCALE
 40
1.0
  9
$PROXYGRAPHICS
 70
     1
  9
$MEASUREMENT
 70
     0
  9
$CELWEIGHT
370
    -1
  9
$ENDCAPS
280
     0
  9
$JOINSTYLE
280
     0
  9
$LWDISPLAY
290
     0
  9
$INSUNITS
 70
     0
  9
$HYPERLINKBASE
  1

  9
$STYLESHEET
  1

  9
$XEDIT
290
     1
  9
$CEPSNTYPE
380
     0
  9
$PSTYLEMODE
290
     1
  9
$FINGERPRINTGUID
  2
{2FEE0F39-83D7-46F3-AF4B-23892CDE3B2A}
  9
$VERSIONGUID
  2
{9E12B9E7-6D7F-4A45-9A36-AA6B1553F846}
  9
$EXTNAMES
290
     1
  9
$PSVPSCALE
 40
0.0
  9
$OLESTARTUP
290
     0
  0
ENDSEC
  0
SECTION
  2
CLASSES
  0
CLASS
  1
ACDBDICTIONARYWDFLT
  2
AcDbDictionaryWithDefault
  3
ObjectDBX Classes
 90
        0
280
     0
281
     0
  0
CLASS
  1
MATERIAL
  2
AcDbMaterial
  3
ObjectDBX Classes
 90
     1024
280
     0
281
     0
  0
CLASS
  1
VISUALSTYLE
  2
AcDbVisualStyle
  3
ObjectDBX Classes
 90
     4095
280
     0
281
     0
  0
CLASS
  1
TABLESTYLE
  2
AcDbTableStyle
  3
ObjectDBX Classes
 90
     4095
280
     0
281
     0
  0
CLASS
  1
DICTIONARYVAR
  2
AcDbDictionaryVar
  3
ObjectDBX Classes
 90
        0
280
     0
281
     0
  0
CLASS
  1
ACDBPLACEHOLDER
  2
AcDbPlaceHolder
  3
ObjectDBX Classes
 90
        0
280
     0
281
     0
  0
CLASS
  1
LAYOUT
  2
AcDbLayout
  3
ObjectDBX Classes
 90
        0
280
     0
281
     0
  0
ENDSEC
  0
SECTION
  2
TABLES
  0
TABLE
  2
VPORT
  5
8
330
0
100
AcDbSymbolTable
 70
     1
  0
VPORT
  5
28
330
8
100
AcDbSymbolTableRecord
100
AcDbViewportTableRecord
  2
*Active
 70
     0
 10
0.0
 20
0.0
 11
1.0
 21
1.0
 12
1.375
 22
1.0625
 13
0.0
 23
0.0
 14
1.0
 24
1.0
 15
0.0
 25
0.0
 16
0.0
 26
0.0
 36
1.0
 17
0.0
 27
0.0
 37
0.0
 40
2.125
 41
1.294117647058823
 42
50.0
 43
0.0
 44
0.0
 50
0.0
 51
0.0
 71
     0
 72
   100
 73
     1
 74
     1
 75
     0
 76
     0
 77
     0
 78
     0
281
     0
 65
     1
110
0.0
120
0.0
130
0.0
111
1.0
121
0.0
131
0.0
112
0.0
122
1.0
132
0.0
 79
     0
146
0.0
  0
ENDTAB
  0
TABLE
  2
LTYPE
  5
5
330
0
100
AcDbSymbolTable
 70
    59
  0
LTYPE
  5
29
330
5
100
AcDbSymbolTableRecord
100
AcDbLinetypeTableRecord
  2
ByBlock
 70
     0
  3

 72
    65
 73
     0
 40
0.0
  0
LTYPE
  5
2A
330
5
100
AcDbSymbolTableRecord
100
AcDbLinetypeTableRecord
  2
ByLayer
 70
     0
  3

 72
    65
 73
     0
 40
0.0
  0
LTYPE
  5
2B
330
5
100
AcDbSymbolTableRecord
100
AcDbLinetypeTableRecord
  2
Continuous
 70
     0
  3
Solid line
 72
    65
 73
     0
 40
0.0
  0
LTYPE
  5
40
330
5
100
AcDbSymbolTableRecord
100
AcDbLinetypeTableRecord
  2
BY_STANDARD
 70
     0
  3
By Standard ____________    ____    ____   _
 72
    65
 73
     6
 40
1.240299999999999
 49
0.6614
 74
     0
 49
-0.0827
 74
     0
 49
0.1654
 74
     0
 49
-0.0827
 74
     0
 49
0.1654
 74
     0
 49
-0.0827
 74
     0
  0
LTYPE
  5
41
330
5
100
AcDbSymbolTableRecord
100
AcDbLinetypeTableRecord
  2
CHAIN
 70
     0
  3
Chain ____ _ ____ _ ____ _ ____ _ ____ _ ____
 72
    65
 73
     4
 40
0.7087
 49
0.4724000000000001
 74
     0
 49
-0.0591
 74
     0
 49
0.1181
 74
     0
 49
-0.0591
 74
     0
  0
LTYPE
  5
42
330
5
100
AcDbSymbolTableRecord
100
AcDbLinetypeTableRecord
  2
DASH_DOT
 70
     0
  3
Dash dot __ . __ . __ . __ . __ . __ . __ . __
 72
    65
 73
     4
 40
0.37
 49
0.24
 74
     0
 49
-0.06
 74
     0
 49
0.01
 74
     0
 49
-0.06
 74
     0
  0
LTYPE
  5
43
330
5
100
AcDbSymbolTableRecord
100
AcDbLinetypeTableRecord
  2
DOUBLE_DASH_DOT
 70
     0
  3
Double-Dash Dot __ __ . __ __ . __ __ . __ _
 72
    65
 73
     6
 40
0.4398
 49
0.24
 74
     0
 49
-0.06
 74
     0
 49
0.0098
 74
     0
 49
-0.06
 74
     0
 49
0.01
 74
     0
 49
-0.06
 74
     0
  0
LTYPE
  5
44
330
5
100
AcDbSymbolTableRecord
100
AcDbLinetypeTableRecord
  2
DASH_TRIPLE_DOT
 70
     0
  3
Dash Triple-Dot _ . . . _ . . . _ . . . _
 72
    65
 73
     8
 40
0.51
 49
0.24
 74
     0
 49
-0.06
 74
     0
 49
0.01
 74
     0
 49
-0.06
 74
     0
 49
0.01
 74
     0
 49
-0.06
 74
     0
 49
0.01
 74
     0
 49
-0.06
 74
     0
  0
LTYPE
  5
45
330
5
100
AcDbSymbolTableRecord
100
AcDbLinetypeTableRecord
  2
DASHED
 70
     0
  3
Dashed __ __ __ __ __ __ __ __ __ __ __ __ __ _
 72
    65
 73
     2
 40
0.2067
 49
0.1654
 74
     0
 49
-0.0413
 74
     0
  0
LTYPE
  5
46
330
5
100
AcDbSymbolTableRecord
100
AcDbLinetypeTableRecord
  2
DASH_DOUBLE_DOT
 70
     0
  3
Dash Double-Dot __ . . __ . . __ . . __ . .
 72
    65
 73
     6
 40
0.4398
 49
0.24
 74
     0
 49
-0.06
 74
     0
 49
0.0098
 74
     0
 49
-0.06
 74
     0
 49
0.01
 74
     0
 49
-0.06
 74
     0
  0
LTYPE
  5
47
330
5
100
AcDbSymbolTableRecord
100
AcDbLinetypeTableRecord
  2
DASHED_SPACE
 70
     0
  3
Dashed Space __ __ __ __ __ __ __ __ __ __ __ _
 72
    65
 73
     2
 40
0.2067
 49
0.1654
 74
     0
 49
-0.0413
 74
     0
  0
LTYPE
  5
48
330
5
100
AcDbSymbolTableRecord
100
AcDbLinetypeTableRecord
  2
DOTTED
 70
     0
  3
Dotted . . . . . . . . . . . . . . . . . . . . 
 72
    65
 73
     2
 40
0.0482
 49
0.0069
 74
     0
 49
-0.0413
 74
     0
  0
LTYPE
  5
49
330
5
100
AcDbSymbolTableRecord
100
AcDbLinetypeTableRecord
  2
DOUBLE_DASH_CHAIN
 70
     0
  3
Double-Dash Chain ______  __  __  ______  __  _
 72
    65
 73
     6
 40
1.240299999999999
 49
0.6614
 74
     0
 49
-0.0827
 74
     0
 49
0.1654
 74
     0
 49
-0.0827
 74
     0
 49
0.1654
 74
     0
 49
-0.0827
 74
     0
  0
LTYPE
  5
4B
330
5
100
AcDbSymbolTableRecord
100
AcDbLinetypeTableRecord
  2
DOUBLE_DASH_DOUBLE_DOT
 70
     0
  3
Double-Dash Double-dot _ _ . . _ _ . . _
 72
    65
 73
     8
 40
0.7400000000000001
 49
0.24
 74
     0
 49
-0.06
 74
     0
 49
0.24
 74
     0
 49
-0.06
 74
     0
 49
0.01
 74
     0
 49
-0.06
 74
     0
 49
0.01
 74
     0
 49
-0.06
 74
     0
  0
LTYPE
  5
4C
330
5
100
AcDbSymbolTableRecord
100
AcDbLinetypeTableRecord
  2
DOUBLE_DASH_TRIPLE_DOT
 70
     0
  3
Double Dash Triple Dot __ __ . . . __ __ . .
 72
    65
 73
    10
 40
0.8100000000000001
 49
0.24
 74
     0
 49
-0.06
 74
     0
 49
0.24
 74
     0
 49
-0.06
 74
     0
 49
0.01
 74
     0
 49
-0.06
 74
     0
 49
0.01
 74
     0
 49
-0.06
 74
     0
 49
0.01
 74
     0
 49
-0.06
 74
     0
  0
LTYPE
  5
4D
330
5
100
AcDbSymbolTableRecord
100
AcDbLinetypeTableRecord
  2
LONG_DASH_DOTTED
 70
     0
  3
Long Dash Dotted ____ . ____ . ____ . ____ . _
 72
    65
 73
     4
 40
0.3543
 49
0.2362
 74
     0
 49
-0.0295
 74
     0
 49
0.0591
 74
     0
 49
-0.0295
 74
     0
  0
LTYPE
  5
4E
330
5
100
AcDbSymbolTableRecord
100
AcDbLinetypeTableRecord
  2
LONG_DASH_DOUBLE_DOT
 70
     0
  3
Long Dash Double Dot ________  .  .  ________  
 72
    65
 73
     6
 40
0.6799999999999999
 49
0.48
 74
     0
 49
-0.06
 74
     0
 49
0.01
 74
     0
 49
-0.06
 74
     0
 49
0.01
 74
     0
 49
-0.06
 74
     0
  0
LTYPE
  5
4F
330
5
100
AcDbSymbolTableRecord
100
AcDbLinetypeTableRecord
  2
LONG_DASH_TRIPLE_DOT
 70
     0
  3
Long Dash Triple Dot ____ ... ____ ... ____
 72
    65
 73
     8
 40
0.3689
 49
0.2362
 74
     0
 49
-0.0295
 74
     0
 49
0.0049
 74
     0
 49
-0.0295
 74
     0
 49
0.0049
 74
     0
 49
-0.0295
 74
     0
 49
0.0049
 74
     0
 49
-0.0295
 74
     0
  0
LTYPE
  5
50
330
5
100
AcDbSymbolTableRecord
100
AcDbLinetypeTableRecord
  2
BORDER
 70
     0
  3
Border __ __ . __ __ . __ __ . __ __ . __ __ .
 72
    65
 73
     6
 40
1.75
 49
0.5
 74
     0
 49
-0.25
 74
     0
 49
0.5
 74
     0
 49
-0.25
 74
     0
 49
0.0
 74
     0
 49
-0.25
 74
     0
  0
LTYPE
  5
51
330
5
100
AcDbSymbolTableRecord
100
AcDbLinetypeTableRecord
  2
BORDER2
 70
     0
  3
Border (.5x) __.__.__.__.__.__.__.__.__.__.__.
 72
    65
 73
     6
 40
0.875
 49
0.25
 74
     0
 49
-0.125
 74
     0
 49
0.25
 74
     0
 49
-0.125
 74
     0
 49
0.0
 74
     0
 49
-0.125
 74
     0
  0
LTYPE
  5
52
330
5
100
AcDbSymbolTableRecord
100
AcDbLinetypeTableRecord
  2
BORDERX2
 70
     0
  3
Border (2x) ____  ____  .  ____  ____  .  ___
 72
    65
 73
     6
 40
3.5
 49
1.0
 74
     0
 49
-0.5
 74
     0
 49
1.0
 74
     0
 49
-0.5
 74
     0
 49
0.0
 74
     0
 49
-0.5
 74
     0
  0
LTYPE
  5
53
330
5
100
AcDbSymbolTableRecord
100
AcDbLinetypeTableRecord
  2
CENTER
 70
     0
  3
Center ____ _ ____ _ ____ _ ____ _ ____ _ ____
 72
    65
 73
     4
 40
2.0
 49
1.25
 74
     0
 49
-0.25
 74
     0
 49
0.25
 74
     0
 49
-0.25
 74
     0
  0
LTYPE
  5
54
330
5
100
AcDbSymbolTableRecord
100
AcDbLinetypeTableRecord
  2
CENTER2
 70
     0
  3
Center (.5x) ___ _ ___ _ ___ _ ___ _ ___ _ ___
 72
    65
 73
     4
 40
1.125
 49
0.75
 74
     0
 49
-0.125
 74
     0
 49
0.125
 74
     0
 49
-0.125
 74
     0
  0
LTYPE
  5
55
330
5
100
AcDbSymbolTableRecord
100
AcDbLinetypeTableRecord
  2
CENTERX2
 70
     0
  3
Center (2x) ________  __  ________  __  _____
 72
    65
 73
     4
 40
4.0
 49
2.5
 74
     0
 49
-0.5
 74
     0
 49
0.5
 74
     0
 49
-0.5
 74
     0
  0
LTYPE
  5
56
330
5
100
AcDbSymbolTableRecord
100
AcDbLinetypeTableRecord
  2
DASHDOT2
 70
     0
  3
Dash dot (.5x) _._._._._._._._._._._._._._._.
 72
    65
 73
     4
 40
0.5
 49
0.25
 74
     0
 49
-0.125
 74
     0
 49
0.0
 74
     0
 49
-0.125
 74
     0
  0
LTYPE
  5
57
330
5
100
AcDbSymbolTableRecord
100
AcDbLinetypeTableRecord
  2
DASHDOTX2
 70
     0
  3
Dash dot (2x) ____  .  ____  .  ____  .  ___
 72
    65
 73
     4
 40
2.0
 49
1.0
 74
     0
 49
-0.5
 74
     0
 49
0.0
 74
     0
 49
-0.5
 74
     0
  0
LTYPE
  5
59
330
5
100
AcDbSymbolTableRecord
100
AcDbLinetypeTableRecord
  2
DASHED2
 70
     0
  3
Dashed (.5x) _ _ _ _ _ _ _ _ _ _ _ _ _ _ _ _ _
 72
    65
 73
     2
 40
0.375
 49
0.25
 74
     0
 49
-0.125
 74
     0
  0
LTYPE
  5
5A
330
5
100
AcDbSymbolTableRecord
100
AcDbLinetypeTableRecord
  2
DASHEDX2
 70
     0
  3
Dashed (2x) ____  ____  ____  ____  ____  ___
 72
    65
 73
     2
 40
1.5
 49
1.0
 74
     0
 49
-0.5
 74
     0
  0
LTYPE
  5
5B
330
5
100
AcDbSymbolTableRecord
100
AcDbLinetypeTableRecord
  2
DIVIDE
 70
     0
  3
Divide ____ . . ____ . . ____ . . ____ . . ____
 72
    65
 73
     6
 40
1.25
 49
0.5
 74
     0
 49
-0.25
 74
     0
 49
0.0
 74
     0
 49
-0.25
 74
     0
 49
0.0
 74
     0
 49
-0.25
 74
     0
  0
LTYPE
  5
5C
330
5
100
AcDbSymbolTableRecord
100
AcDbLinetypeTableRecord
  2
DIVIDE2
 70
     0
  3
Divide (.5x) __..__..__..__..__..__..__..__.._
 72
    65
 73
     6
 40
0.625
 49
0.25
 74
     0
 49
-0.125
 74
     0
 49
0.0
 74
     0
 49
-0.125
 74
     0
 49
0.0
 74
     0
 49
-0.125
 74
     0
  0
LTYPE
  5
5D
330
5
100
AcDbSymbolTableRecord
100
AcDbLinetypeTableRecord
  2
DIVIDEX2
 70
     0
  3
Divide (2x) ________  .  .  ________  .  .  _
 72
    65
 73
     6
 40
2.5
 49
1.0
 74
     0
 49
-0.5
 74
     0
 49
0.0
 74
     0
 49
-0.5
 74
     0
 49
0.0
 74
     0
 49
-0.5
 74
     0
  0
LTYPE
  5
5E
330
5
100
AcDbSymbolTableRecord
100
AcDbLinetypeTableRecord
  2
DOT
 70
     0
  3
Dot . . . . . . . . . . . . . . . . . . . . . .
 72
    65
 73
     2
 40
0.25
 49
0.0
 74
     0
 49
-0.25
 74
     0
  0
LTYPE
  5
5F
330
5
100
AcDbSymbolTableRecord
100
AcDbLinetypeTableRecord
  2
DOT2
 70
     0
  3
Dot (.5x) .....................................
 72
    65
 73
     2
 40
0.125
 49
0.0
 74
     0
 49
-0.125
 74
     0
  0
LTYPE
  5
60
330
5
100
AcDbSymbolTableRecord
100
AcDbLinetypeTableRecord
  2
DOTX2
 70
     0
  3
Dot (2x) .  .  .  .  .  .  .  .  .  .  .  .  . 
 72
    65
 73
     2
 40
0.5
 49
0.0
 74
     0
 49
-0.5
 74
     0
  0
LTYPE
  5
61
330
5
100
AcDbSymbolTableRecord
100
AcDbLinetypeTableRecord
  2
HIDDEN
 70
     0
  3
Hidden __ __ __ __ __ __ __ __ __ __ __ __ __ _
 72
    65
 73
     2
 40
0.375
 49
0.25
 74
     0
 49
-0.125
 74
     0
  0
LTYPE
  5
62
330
5
100
AcDbSymbolTableRecord
100
AcDbLinetypeTableRecord
  2
HIDDEN2
 70
     0
  3
Hidden (.5x) _ _ _ _ _ _ _ _ _ _ _ _ _ _ _ _ _
 72
    65
 73
     2
 40
0.1875
 49
0.125
 74
     0
 49
-0.0625
 74
     0
  0
LTYPE
  5
63
330
5
100
AcDbSymbolTableRecord
100
AcDbLinetypeTableRecord
  2
HIDDENX2
 70
     0
  3
Hidden (2x) ____ ____ ____ ____ ____ ____ ____
 72
    65
 73
     2
 40
0.75
 49
0.5
 74
     0
 49
-0.25
 74
     0
  0
LTYPE
  5
64
330
5
100
AcDbSymbolTableRecord
100
AcDbLinetypeTableRecord
  2
PHANTOM
 70
     0
  3
Phantom ______  __  __  ______  __  __  ______
 72
    65
 73
     6
 40
2.5
 49
1.25
 74
     0
 49
-0.25
 74
     0
 49
0.25
 74
     0
 49
-0.25
 74
     0
 49
0.25
 74
     0
 49
-0.25
 74
     0
  0
LTYPE
  5
65
330
5
100
AcDbSymbolTableRecord
100
AcDbLinetypeTableRecord
  2
PHANTOM2
 70
     0
  3
Phantom (.5x) ___ _ _ ___ _ _ ___ _ _ ___ _ _
 72
    65
 73
     6
 40
1.25
 49
0.625
 74
     0
 49
-0.125
 74
     0
 49
0.125
 74
     0
 49
-0.125
 74
     0
 49
0.125
 74
     0
 49
-0.125
 74
     0
  0
LTYPE
  5
66
330
5
100
AcDbSymbolTableRecord
100
AcDbLinetypeTableRecord
  2
PHANTOMX2
 70
     0
  3
Phantom (2x) ____________    ____    ____   _
 72
    65
 73
     6
 40
5.0
 49
2.5
 74
     0
 49
-0.5
 74
     0
 49
0.5
 74
     0
 49
-0.5
 74
     0
 49
0.5
 74
     0
 49
-0.5
 74
     0
  0
LTYPE
  5
67
330
5
100
AcDbSymbolTableRecord
100
AcDbLinetypeTableRecord
  2
ACAD_ISO02W100
 70
     0
  3
ISO dash __ __ __ __ __ __ __ __ __ __ __ __ __
 72
    65
 73
     2
 40
0.59
 49
0.47
 74
     0
 49
-0.12
 74
     0
  0
LTYPE
  5
68
330
5
100
AcDbSymbolTableRecord
100
AcDbLinetypeTableRecord
  2
ACAD_ISO03W100
 70
     0
  3
ISO dash space __    __    __    __    __    __
 72
    65
 73
     2
 40
1.179999999999999
 49
0.47
 74
     0
 49
-0.71
 74
     0
  0
LTYPE
  5
69
330
5
100
AcDbSymbolTableRecord
100
AcDbLinetypeTableRecord
  2
ACAD_ISO04W100
 70
     0
  3
ISO long-dash dot ____ . ____ . ____ . ____ . _
 72
    65
 73
     4
 40
1.179999999999999
 49
0.9399999999999998
 74
     0
 49
-0.12
 74
     0
 49
0.0
 74
     0
 49
-0.12
 74
     0
  0
LTYPE
  5
6A
330
5
100
AcDbSymbolTableRecord
100
AcDbLinetypeTableRecord
  2
ACAD_ISO05W100
 70
     0
  3
ISO long-dash double-dot ____ .. ____ .. ____ .
 72
    65
 73
     6
 40
1.299999999999999
 49
0.9399999999999998
 74
     0
 49
-0.12
 74
     0
 49
0.0
 74
     0
 49
-0.12
 74
     0
 49
0.0
 74
     0
 49
-0.12
 74
     0
  0
LTYPE
  5
6B
330
5
100
AcDbSymbolTableRecord
100
AcDbLinetypeTableRecord
  2
ACAD_ISO06W100
 70
     0
  3
ISO long-dash triple-dot ____ ... ____ ... ____
 72
    65
 73
     8
 40
1.419999999999999
 49
0.9399999999999998
 74
     0
 49
-0.12
 74
     0
 49
0.0
 74
     0
 49
-0.12
 74
     0
 49
0.0
 74
     0
 49
-0.12
 74
     0
 49
0.0
 74
     0
 49
-0.12
 74
     0
  0
LTYPE
  5
6C
330
5
100
AcDbSymbolTableRecord
100
AcDbLinetypeTableRecord
  2
ACAD_ISO07W100
 70
     0
  3
ISO dot . . . . . . . . . . . . . . . . . . . .
 72
    65
 73
     2
 40
0.12
 49
0.0
 74
     0
 49
-0.12
 74
     0
  0
LTYPE
  5
6D
330
5
100
AcDbSymbolTableRecord
100
AcDbLinetypeTableRecord
  2
ACAD_ISO08W100
 70
     0
  3
ISO long-dash short-dash ____ __ ____ __ ____ _
 72
    65
 73
     4
 40
0.95
 49
0.47
 74
     0
 49
-0.12
 74
     0
 49
0.24
 74
     0
 49
-0.12
 74
     0
  0
LTYPE
  5
6E
330
5
100
AcDbSymbolTableRecord
100
AcDbLinetypeTableRecord
  2
ACAD_ISO09W100
 70
     0
  3
ISO long-dash double-short-dash ____ __ __ ____
 72
    65
 73
     6
 40
1.31
 49
0.47
 74
     0
 49
-0.12
 74
     0
 49
0.24
 74
     0
 49
-0.12
 74
     0
 49
0.24
 74
     0
 49
-0.12
 74
     0
  0
LTYPE
  5
6F
330
5
100
AcDbSymbolTableRecord
100
AcDbLinetypeTableRecord
  2
ACAD_ISO10W100
 70
     0
  3
ISO dash dot __ . __ . __ . __ . __ . __ . __ .
 72
    65
 73
     4
 40
0.71
 49
0.47
 74
     0
 49
-0.12
 74
     0
 49
0.0
 74
     0
 49
-0.12
 74
     0
  0
LTYPE
  5
70
330
5
100
AcDbSymbolTableRecord
100
AcDbLinetypeTableRecord
  2
ACAD_ISO11W100
 70
     0
  3
ISO double-dash dot __ __ . __ __ . __ __ . __ 
 72
    65
 73
     6
 40
1.299999999999999
 49
0.47
 74
     0
 49
-0.12
 74
     0
 49
0.47
 74
     0
 49
-0.12
 74
     0
 49
0.0
 74
     0
 49
-0.12
 74
     0
  0
LTYPE
  5
71
330
5
100
AcDbSymbolTableRecord
100
AcDbLinetypeTableRecord
  2
ACAD_ISO12W100
 70
     0
  3
ISO dash double-dot __ . . __ . . __ . . __ . .
 72
    65
 73
     6
 40
0.8299999999999998
 49
0.47
 74
     0
 49
-0.12
 74
     0
 49
0.0
 74
     0
 49
-0.12
 74
     0
 49
0.0
 74
     0
 49
-0.12
 74
     0
  0
LTYPE
  5
72
330
5
100
AcDbSymbolTableRecord
100
AcDbLinetypeTableRecord
  2
ACAD_ISO13W100
 70
     0
  3
ISO double-dash double-dot __ __ . . __ __ . . 
 72
    65
 73
     8
 40
1.419999999999999
 49
0.47
 74
     0
 49
-0.12
 74
     0
 49
0.47
 74
     0
 49
-0.12
 74
     0
 49
0.0
 74
     0
 49
-0.12
 74
     0
 49
0.0
 74
     0
 49
-0.12
 74
     0
  0
LTYPE
  5
73
330
5
100
AcDbSymbolTableRecord
100
AcDbLinetypeTableRecord
  2
ACAD_ISO14W100
 70
     0
  3
ISO dash triple-dot __ . . . __ . . . __ . . . 
 72
    65
 73
     8
 40
0.95
 49
0.47
 74
     0
 49
-0.12
 74
     0
 49
0.0
 74
     0
 49
-0.12
 74
     0
 49
0.0
 74
     0
 49
-0.12
 74
     0
 49
0.0
 74
     0
 49
-0.12
 74
     0
  0
LTYPE
  5
74
330
5
100
AcDbSymbolTableRecord
100
AcDbLinetypeTableRecord
  2
ACAD_ISO15W100
 70
     0
  3
ISO double-dash triple-dot __ __ . . . __ __ . 
 72
    65
 73
    10
 40
1.539999999999999
 49
0.47
 74
     0
 49
-0.12
 74
     0
 49
0.47
 74
     0
 49
-0.12
 74
     0
 49
0.0
 74
     0
 49
-0.12
 74
     0
 49
0.0
 74
     0
 49
-0.12
 74
     0
 49
0.0
 74
     0
 49
-0.12
 74
     0
  0
LTYPE
  5
77
330
5
100
AcDbSymbolTableRecord
100
AcDbLinetypeTableRecord
  2
FENCELINE1
 70
     0
  3
Fenceline circle ----0-----0----0-----0----0---
 72
    65
 73
     4
 40
1.45
 49
0.25
 74
     0
 49
-0.1
 74
     4
 75
   133
340
76
 46
0.1
 50
0.0
 44
-0.1
 45
0.0
 49
-0.1
 74
     0
 49
1.0
 74
     0
  0
LTYPE
  5
78
330
5
100
AcDbSymbolTableRecord
100
AcDbLinetypeTableRecord
  2
FENCELINE2
 70
     0
  3
Fenceline square ----[]-----[]----[]-----[]----
 72
    65
 73
     4
 40
1.45
 49
0.25
 74
     0
 49
-0.1
 74
     4
 75
   132
340
76
 46
0.1
 50
0.0
 44
-0.1
 45
0.0
 49
-0.1
 74
     0
 49
1.0
 74
     0
  0
LTYPE
  5
79
330
5
100
AcDbSymbolTableRecord
100
AcDbLinetypeTableRecord
  2
TRACKS
 70
     0
  3
Tracks -|-|-|-|-|-|-|-|-|-|-|-|-|-|-|-|-|-|-|-|
 72
    65
 73
     2
 40
0.3
 49
0.15
 74
     4
 75
   130
340
76
 46
0.25
 50
0.0
 44
0.0
 45
0.0
 49
0.15
 74
     0
  0
LTYPE
  5
7A
330
5
100
AcDbSymbolTableRecord
100
AcDbLinetypeTableRecord
  2
BATTING
 70
     0
  3
Batting SSSSSSSSSSSSSSSSSSSSSSSSSSSSSSSSSSSSSSS
 72
    65
 73
     4
 40
0.4001000000000001
 49
0.0001
 74
     0
 49
-0.1
 74
     4
 75
   134
340
76
 46
0.1
 50
0.0
 44
-0.1
 45
0.0
 49
-0.2
 74
     4
 75
   134
340
76
 46
0.1
 50
180.0
 44
0.1
 45
0.0
 49
-0.1
 74
     0
  0
LTYPE
  5
7B
330
5
100
AcDbSymbolTableRecord
100
AcDbLinetypeTableRecord
  2
HOT_WATER_SUPPLY
 70
     0
  3
Hot water supply ---- HW ---- HW ---- HW ----
 72
    65
 73
     3
 40
0.9
 49
0.5
 74
     0
 49
-0.2
 74
     2
 75
     0
340
26
 46
0.1
 50
0.0
 44
-0.1
 45
-0.05
  9
HW
 49
-0.2
 74
     0
  0
LTYPE
  5
7C
330
5
100
AcDbSymbolTableRecord
100
AcDbLinetypeTableRecord
  2
GAS_LINE
 70
     0
  3
Gas line ----GAS----GAS----GAS----GAS----GAS---
 72
    65
 73
     3
 40
0.95
 49
0.5
 74
     0
 49
-0.2
 74
     2
 75
     0
340
26
 46
0.1
 50
0.0
 44
-0.1
 45
-0.05
  9
GAS
 49
-0.25
 74
     0
  0
LTYPE
  5
7D
330
5
100
AcDbSymbolTableRecord
100
AcDbLinetypeTableRecord
  2
ZIGZAG
 70
     0
  3
Zig zag /\/\/\/\/\/\/\/\/\/\/\/\/\/\/\/\/\/\/\/
 72
    65
 73
     4
 40
0.8001000000000001
 49
0.0001
 74
     0
 49
-0.2
 74
     4
 75
   131
340
76
 46
0.2
 50
0.0
 44
-0.2
 45
0.0
 49
-0.4
 74
     4
 75
   131
340
76
 46
0.2
 50
180.0
 44
0.2
 45
0.0
 49
-0.2
 74
     0
  0
ENDTAB
  0
TABLE
  2
LAYER
  5
2
330
0
100
AcDbSymbolTable
 70
    26
  0
LAYER
  5
25
330
2
100
AcDbSymbolTableRecord
100
AcDbLayerTableRecord
  2
0
 70
     0
 62
     7
  6
Continuous
370
    -3
390
F
  0
LAYER
  5
81
330
2
100
AcDbSymbolTableRecord
100
AcDbLayerTableRecord
  2
Border (ANSI)
 70
     0
 62
     7
  6
Continuous
370
    70
390
F
  0
LAYER
  5
86
330
2
100
AcDbSymbolTableRecord
100
AcDbLayerTableRecord
  2
Dimension (ANSI)
 70
     0
 62
     7
  6
Continuous
370
    25
390
F
  0
LAYER
  5
89
330
2
100
AcDbSymbolTableRecord
100
AcDbLayerTableRecord
  2
Hidden Narrow (ANSI)
 70
     0
 62
     7
  6
DASHED
370
    25
390
F
  0
LAYER
  5
8E
330
2
100
AcDbSymbolTableRecord
100
AcDbLayerTableRecord
  2
Symbol (ANSI)
 70
     0
 62
     7
  6
Continuous
370
    25
390
F
  0
LAYER
  5
8F
330
2
100
AcDbSymbolTableRecord
100
AcDbLayerTableRecord
  2
Title (ANSI)
 70
     0
 62
     7
  6
Continuous
370
    50
390
F
  0
LAYER
  5
91
330
2
100
AcDbSymbolTableRecord
100
AcDbLayerTableRecord
  2
Visible (ANSI)
 70
     0
 62
     7
  6
Continuous
370
    50
390
F
  0
LAYER
  5
92
330
2
100
AcDbSymbolTableRecord
100
AcDbLayerTableRecord
  2
Visible Narrow (ANSI)
 70
     0
 62
     7
  6
Continuous
370
    35
390
F
  0
LAYER
  5
217
330
2
100
AcDbSymbolTableRecord
100
AcDbLayerTableRecord
  2
Defpoints
 70
     0
 62
     7
  6
Continuous
290
     0
370
    -3
390
F
  0
ENDTAB
  0
TABLE
  2
STYLE
  5
3
330
0
100
AcDbSymbolTable
 70
    11
  0
STYLE
  5
26
330
3
100
AcDbSymbolTableRecord
100
AcDbTextStyleTableRecord
  2
Standard
 70
     0
 40
0.0
 41
1.0
 50
0.0
 71
     0
 42
0.2
  3
TAHOMA.TTF
  4

1001
ACAD
1000
Tahoma
1071
      256
  0
STYLE
  5
76
330
3
100
AcDbSymbolTableRecord
100
AcDbTextStyleTableRecord
  2

 70
     1
 40
0.0
 41
1.0
 50
0.0
 71
     0
 42
0.2
  3
ltypeshp.shx
  4

  0
STYLE
  5
96
330
3
100
AcDbSymbolTableRecord
100
AcDbTextStyleTableRecord
  2
Label Text (ANSI)
 70
     0
 40
0.0
 41
1.0
 50
0.0
 71
     0
 42
0.2
  3
TAHOMA.TTF
  4

1001
ACAD
1000
Tahoma
1071
      256
  0
STYLE
  5
97
330
3
100
AcDbSymbolTableRecord
100
AcDbTextStyleTableRecord
  2
Label Text (DIN)
 70
     0
 40
0.0
 41
1.0
 50
0.0
 71
     0
 42
0.2
  3
isocpeur.ttf
  4

1001
ACAD
1000
ISOCPEUR
1071
      256
  0
STYLE
  5
98
330
3
100
AcDbSymbolTableRecord
100
AcDbTextStyleTableRecord
  2
Label Text (ISO)
 70
     0
 40
0.0
 41
1.0
 50
0.0
 71
     0
 42
0.2
  3
TAHOMA.TTF
  4

1001
ACAD
1000
Tahoma
1071
      256
  0
STYLE
  5
99
330
3
100
AcDbSymbolTableRecord
100
AcDbTextStyleTableRecord
  2
Label Text (JIS)
 70
     0
 40
0.0
 41
1.0
 50
0.0
 71
     0
 42
0.2
  3
TAHOMA.TTF
  4

1001
ACAD
1000
Tahoma
1071
      256
  0
STYLE
  5
9A
330
3
100
AcDbSymbolTableRecord
100
AcDbTextStyleTableRecord
  2
Note Text (ANSI)
 70
     0
 40
0.0
 41
1.0
 50
0.0
 71
     0
 42
0.2
  3
TAHOMA.TTF
  4

1001
ACAD
1000
Tahoma
1071
      256
  0
STYLE
  5
9B
330
3
100
AcDbSymbolTableRecord
100
AcDbTextStyleTableRecord
  2
Note Text (DIN)
 70
     0
 40
0.0
 41
1.0
 50
0.0
 71
     0
 42
0.2
  3
isocpeur.ttf
  4

1001
ACAD
1000
ISOCPEUR
1071
      256
  0
STYLE
  5
9C
330
3
100
AcDbSymbolTableRecord
100
AcDbTextStyleTableRecord
  2
Note Text (ISO)
 70
     0
 40
0.0
 41
1.0
 50
0.0
 71
     0
 42
0.2
  3
TAHOMA.TTF
  4

1001
ACAD
1000
Tahoma
1071
      256
  0
STYLE
  5
9D
330
3
100
AcDbSymbolTableRecord
100
AcDbTextStyleTableRecord
  2
Note Text (JIS)
 70
     0
 40
0.0
 41
1.0
 50
0.0
 71
     0
 42
0.2
  3
TAHOMA.TTF
  4

1001
ACAD
1000
Tahoma
1071
      256
  0
STYLE
  5
F3
330
3
100
AcDbSymbolTableRecord
100
AcDbTextStyleTableRecord
  2
Text Style29
 70
     0
 40
0.0
 41
1.0
 50
0.0
 71
     0
 42
0.2
  3
TAHOMA.TTF
  4

1001
ACAD
1000
Tahoma
1071
      256
  0
ENDTAB
  0
TABLE
  2
VIEW
  5
6
330
0
100
AcDbSymbolTable
 70
     0
  0
ENDTAB
  0
TABLE
  2
UCS
  5
7
330
0
100
AcDbSymbolTable
 70
     0
  0
ENDTAB
  0
TABLE
  2
APPID
  5
9
330
0
100
AcDbSymbolTable
 70
     1
  0
APPID
  5
27
330
9
100
AcDbSymbolTableRecord
100
AcDbRegAppTableRecord
  2
ACAD
 70
     0
  0
ENDTAB
  0
TABLE
  2
DIMSTYLE
  5
A
330
0
100
AcDbSymbolTable
 70
    17
100
AcDbDimStyleTable
 71
     2
340
A8
340
3F
  0
DIMSTYLE
105
3F
330
A
100
AcDbSymbolTableRecord
100
AcDbDimStyleTableRecord
  2
Standard
 70
     0
340
26
  0
DIMSTYLE
105
9E
330
A
100
AcDbSymbolTableRecord
100
AcDbDimStyleTableRecord
  2
Architectural (ANSI)
 70
     0
 40
0.25
 41
0.0984251946210861
 42
0.0625
 43
0.2362204724409449
 44
0.125
 45
0.00000001
 46
0.3937007874015748
 78
     4
 79
     3
140
0.1200000047683716
144
0.0833333333333333
147
0.031496062992126
171
     1
176
   256
177
   256
178
   256
272
     2
274
     1
276
     2
277
     4
284
    12
286
    12
340
9A
371
    -1
372
    -1
  0
DIMSTYLE
105
9F
330
A
100
AcDbSymbolTableRecord
100
AcDbDimStyleTableRecord
  2
Architectural (ANSI)$7
 70
     0
 40
0.25
 41
0.0984251946210861
 42
0.0625
 43
0.2362204724409449
 44
0.125
 45
0.00000001
 46
0.3937007874015748
 78
     4
 79
     3
140
0.1200000047683716
144
0.0833333333333333
147
0.031496062992126
171
     1
176
   256
177
   256
178
   256
272
     2
274
     1
276
     2
277
     4
284
    12
286
    12
340
9A
371
    -1
372
    -1
  0
DIMSTYLE
105
A0
330
A
100
AcDbSymbolTableRecord
100
AcDbDimStyleTableRecord
  2
blind-dep-tap
 70
     0
  3
 in
 40
0.25
 41
0.0984251946210861
 42
0.0625
 43
0.2362204724409449
 44
0.125
 45
0.00000001
 46
0.3937007874015748
140
0.1200000047683716
147
0.031496062992126
171
     1
176
   256
177
   256
178
   256
274
     1
340
9A
371
    -1
372
    -1
  0
DIMSTYLE
105
A1
330
A
100
AcDbSymbolTableRecord
100
AcDbDimStyleTableRecord
  2
blind-dep-tap$7
 70
     0
  3
 in
 40
0.25
 41
0.0984251946210861
 42
0.0625
 43
0.2362204724409449
 44
0.125
 45
0.00000001
 46
0.3937007874015748
140
0.1200000047683716
147
0.031496062992126
171
     1
176
   256
177
   256
178
   256
274
     1
340
9A
371
    -1
372
    -1
  0
DIMSTYLE
105
A2
330
A
100
AcDbSymbolTableRecord
100
AcDbDimStyleTableRecord
  2
Default - Fraction (ANSI)
 70
     0
 40
0.25
 41
0.0984251946210861
 42
0.0625
 43
0.2362204724409449
 44
0.125
 45
0.00000001
 46
0.3937007874015748
 78
    12
 79
     3
140
0.1200000047683716
147
0.031496062992126
171
     1
176
   256
177
   256
178
   256
272
     2
274
     1
276
     2
277
     5
284
    12
286
    12
340
9A
371
    -1
372
    -1
  0
DIMSTYLE
105
A3
330
A
100
AcDbSymbolTableRecord
100
AcDbDimStyleTableRecord
  2
Default - Fraction (ANSI)$7
 70
     0
 40
0.25
 41
0.0984251946210861
 42
0.0625
 43
0.2362204724409449
 44
0.125
 45
0.00000001
 46
0.3937007874015748
 78
    12
 79
     3
140
0.1200000047683716
147
0.031496062992126
171
     1
176
   256
177
   256
178
   256
272
     2
274
     1
276
     2
277
     5
284
    12
286
    12
340
9A
371
    -1
372
    -1
  0
DIMSTYLE
105
A4
330
A
100
AcDbSymbolTableRecord
100
AcDbDimStyleTableRecord
  2
Default - mm (ANSI)
 70
     0
 40
0.25
 41
0.0984251946210861
 42
0.063
 43
0.2362204724409449
 44
0.125
 45
0.00000001
 46
0.3937007874015748
 73
     0
140
0.1200000047683716
143
1.0
144
25.4
147
0.031496062992126
171
     1
176
   256
177
   256
178
   256
179
     1
271
     2
272
     2
274
     1
340
9A
371
    -1
372
    -1
  0
DIMSTYLE
105
A5
330
A
100
AcDbSymbolTableRecord
100
AcDbDimStyleTableRecord
  2
Default - mm (ANSI)$7
 70
     0
 40
0.25
 41
0.0984251946210861
 42
0.063
 43
0.2362204724409449
 44
0.125
 45
0.00000001
 46
0.3937007874015748
 73
     0
140
0.1200000047683716
143
1.0
144
25.4
147
0.031496062992126
171
     1
176
   256
177
   256
178
   256
179
     1
271
     2
272
     2
274
     1
340
9A
371
    -1
372
    -1
  0
DIMSTYLE
105
A6
330
A
100
AcDbSymbolTableRecord
100
AcDbDimStyleTableRecord
  2
Default - mm [in] (ANSI)
 70
     0
  4
 in
 40
0.25
 41
0.0984251946210861
 42
0.063
 43
0.25
 44
0.125
 45
0.00000001
 46
0.3937007874015748
 73
     0
 78
     4
 79
     1
140
0.1200000047683716
143
0.03937
144
25.4
147
0.031496062992126
170
     1
171
     3
176
   256
177
   256
178
   256
179
     1
271
     2
272
     2
274
     3
284
     4
286
     4
340
9A
371
    -1
372
    -1
  0
DIMSTYLE
105
A7
330
A
100
AcDbSymbolTableRecord
100
AcDbDimStyleTableRecord
  2
Default - mm [in] (ANSI)$7
 70
     0
  4
 in
 40
0.25
 41
0.0984251946210861
 42
0.063
 43
0.25
 44
0.125
 45
0.00000001
 46
0.3937007874015748
 73
     0
 78
     4
 79
     1
140
0.1200000047683716
143
0.03937
144
25.4
147
0.031496062992126
170
     1
171
     3
176
   256
177
   256
178
   256
179
     1
271
     2
272
     2
274
     3
284
     4
286
     4
340
9A
371
    -1
372
    -1
  0
DIMSTYLE
105
A8
102
{ACAD_REACTORS
330
216
330
2F7
330
3D7
330
4A3
102
}
330
A
100
AcDbSymbolTableRecord
100
AcDbDimStyleTableRecord
  2
Default (ANSI)
 70
     0
  3
 in
 40
0.25
 41
0.0984251946210861
 42
0.0625
 43
0.2362204724409449
 44
0.125
 45
0.00000001
 46
0.3937007874015748
140
0.1200000047683716
147
0.031496062992126
171
     1
176
   256
177
   256
178
   256
271
     3
274
     1
340
9A
371
    -1
372
    -1
  0
DIMSTYLE
105
A9
330
A
100
AcDbSymbolTableRecord
100
AcDbDimStyleTableRecord
  2
Default (ANSI)$7
 70
     0
  3
 in
 40
0.25
 41
0.0984251946210861
 42
0.0625
 43
0.2362204724409449
 44
0.125
 45
0.00000001
 46
0.3937007874015748
140
0.1200000047683716
147
0.031496062992126
171
     1
176
   256
177
   256
178
   256
271
     3
274
     1
340
9A
371
    -1
372
    -1
  0
DIMSTYLE
105
B8
330
A
100
AcDbSymbolTableRecord
100
AcDbDimStyleTableRecord
  2
Miscellaneous Object (ANSI)
 70
     0
 40
0.25
 41
0.1968503892421722
 42
0.0625
 43
0.2362204724409449
 44
0.125
 45
0.00000001
 46
0.3937007874015748
140
0.1799999922513962
146
0.666666721856155
147
0.031496062992126
171
     1
176
   256
177
   256
178
   256
271
     2
272
     2
274
     1
340
96
341
AA
371
    -1
372
    -1
  0
DIMSTYLE
105
B9
330
A
100
AcDbSymbolTableRecord
100
AcDbDimStyleTableRecord
  2
Miscellaneous Object (ANSI)$7
 70
     0
 40
0.25
 41
0.1959999948740005
 42
0.0625
 43
0.2362204724409449
 44
0.125
 45
0.00000001
 46
0.3937007874015748
140
0.1799999922513962
146
0.666666721856155
147
0.031496062992126
171
     1
176
   256
177
   256
178
   256
271
     2
272
     2
274
     1
340
96
341
AA
371
    -1
372
    -1
  0
DIMSTYLE
105
BA
330
A
100
AcDbSymbolTableRecord
100
AcDbDimStyleTableRecord
  2
Alternate (ANSI)
 70
     0
 40
0.25
 41
0.0979999974370003
340
26
342
BB
  0
DIMSTYLE
105
CC
330
A
100
AcDbSymbolTableRecord
100
AcDbDimStyleTableRecord
  2
Datum (ANSI)
 70
     0
 40
0.25
 41
0.0979999974370003
340
26
342
BB
  0
ENDTAB
  0
TABLE
  2
BLOCK_RECORD
  5
1
330
0
100
AcDbSymbolTable
 70
    10
  0
BLOCK_RECORD
  5
37
330
1
100
AcDbSymbolTableRecord
100
AcDbBlockTableRecord
  2
*Model_Space
340
3A
  0
BLOCK_RECORD
  5
33
330
1
100
AcDbSymbolTableRecord
100
AcDbBlockTableRecord
  2
*Paper_Space
340
36
  0
BLOCK_RECORD
  5
3B
330
1
100
AcDbSymbolTableRecord
100
AcDbBlockTableRecord
  2
*Paper_Space0
340
3E
  0
BLOCK_RECORD
  5
AA
330
1
100
AcDbSymbolTableRecord
100
AcDbBlockTableRecord
  2
Filled-1
340
0
  0
BLOCK_RECORD
  5
BB
330
1
100
AcDbSymbolTableRecord
100
AcDbBlockTableRecord
  2
_Closed
340
0
  0
BLOCK_RECORD
  5
C2
330
1
100
AcDbSymbolTableRecord
100
AcDbBlockTableRecord
  2
DatumFilled45
340
0
  0
BLOCK_RECORD
  5
CD
330
1
100
AcDbSymbolTableRecord
100
AcDbBlockTableRecord
  2
Borders Default Border
340
0
102
{BLKREFS
331
FE
102
}
  0
BLOCK_RECORD
  5
FF
330
1
100
AcDbSymbolTableRecord
100
AcDbBlockTableRecord
  2
Title Blocks ANSI A
340
0
102
{BLKREFS
331
130
102
}
  0
BLOCK_RECORD
  5
218
330
1
100
AcDbSymbolTableRecord
100
AcDbBlockTableRecord
  2
*D6
340
0
  0
BLOCK_RECORD
  5
2F8
330
1
100
AcDbSymbolTableRecord
100
AcDbBlockTableRecord
  2
*D7
340
0
  0
BLOCK_RECORD
  5
3D8
330
1
100
AcDbSymbolTableRecord
100
AcDbBlockTableRecord
  2
*D8
340
0
  0
BLOCK_RECORD
  5
4A4
330
1
100
AcDbSymbolTableRecord
100
AcDbBlockTableRecord
  2
*D9
340
0
  0
ENDTAB
  0
ENDSEC
  0
SECTION
  2
BLOCKS
  0
BLOCK
  5
38
330
37
100
AcDbEntity
  8
0
100
AcDbBlockBegin
  2
*Model_Space
 70
     0
 10
0.0
 20
0.0
 30
0.0
  3
*Model_Space
  1

  0
ENDBLK
  5
39
330
37
100
AcDbEntity
  8
0
100
AcDbBlockEnd
  0
BLOCK
  5
34
330
33
100
AcDbEntity
 67
     1
  8
0
100
AcDbBlockBegin
  2
*Paper_Space
 70
     0
 10
0.0
 20
0.0
 30
0.0
  3
*Paper_Space
  1

  0
ENDBLK
  5
35
330
33
100
AcDbEntity
 67
     1
  8
0
100
AcDbBlockEnd
  0
BLOCK
  5
3C
330
3B
100
AcDbEntity
 67
     1
  8
0
100
AcDbBlockBegin
  2
*Paper_Space0
 70
     0
 10
0.0
 20
0.0
 30
0.0
  3
*Paper_Space0
  1

  0
ENDBLK
  5
3D
330
3B
100
AcDbEntity
 67
     1
  8
0
100
AcDbBlockEnd
  0
BLOCK
  5
AB
330
AA
100
AcDbEntity
  8
0
100
AcDbBlockBegin
  2
Filled-1
 70
     0
 10
0.0
 20
0.0
 30
0.0
  3
Filled-1
  1

  0
LINE
  5
AD
330
AA
100
AcDbEntity
  8
0
 62
     0
100
AcDbLine
 10
-0.9999999999999998
 20
0.0
 30
0.0
 11
0.0
 21
0.0
 31
0.0
  0
POLYLINE
  5
AE
330
AA
100
AcDbEntity
  8
0
 62
     0
100
AcDb2dPolyline
 66
     1
 10
0.0
 20
0.0
 30
0.0
 70
   128
  0
VERTEX
  5
AF
330
AE
100
AcDbEntity
  8
0
 62
     0
100
AcDbVertex
100
AcDb2dVertex
 10
-0.9999999999999998
 20
-0.0994897959183674
 30
0.0
  0
VERTEX
  5
B0
330
AE
100
AcDbEntity
  8
0
 62
     0
100
AcDbVertex
100
AcDb2dVertex
 10
0.0
 20
0.0
 30
0.0
  0
VERTEX
  5
B2
330
AE
100
AcDbEntity
  8
0
 62
     0
100
AcDbVertex
100
AcDb2dVertex
 10
-0.9999999999999998
 20
0.0994897959183674
 30
0.0
  0
VERTEX
  5
B3
330
AE
100
AcDbEntity
  8
0
 62
     0
100
AcDbVertex
100
AcDb2dVertex
 10
-0.9999999999999998
 20
-0.0994897959183674
 30
0.0
  0
SEQEND
  5
B1
330
AE
100
AcDbEntity
  8
0
 62
     0
  0
SOLID
  5
B4
330
AA
100
AcDbEntity
  8
0
 62
     0
100
AcDbTrace
 10
-0.9999999999999998
 20
-0.0994897959183674
 30
0.0
 11
0.0
 21
0.0
 31
0.0
 12
-0.9999999999999998
 22
0.0994897959183674
 32
0.0
 13
-0.9999999999999998
 23
-0.0994897959183674
 33
0.0
  0
LINE
  5
B5
330
AA
100
AcDbEntity
  8
0
 62
     0
100
AcDbLine
 10
-0.9999999999999998
 20
-0.0994897959183674
 30
0.0
 11
0.0
 21
0.0
 31
0.0
  0
LINE
  5
B6
330
AA
100
AcDbEntity
  8
0
 62
     0
100
AcDbLine
 10
0.0
 20
0.0
 30
0.0
 11
-0.9999999999999998
 21
0.0994897959183674
 31
0.0
  0
LINE
  5
B7
330
AA
100
AcDbEntity
  8
0
 62
     0
100
AcDbLine
 10
-0.9999999999999998
 20
0.0994897959183674
 30
0.0
 11
-0.9999999999999998
 21
-0.0994897959183674
 31
0.0
  0
ENDBLK
  5
AC
330
AA
100
AcDbEntity
  8
0
100
AcDbBlockEnd
  0
BLOCK
  5
C0
330
BB
100
AcDbEntity
  8
0
100
AcDbBlockBegin
  2
_Closed
 70
     0
 10
0.0
 20
0.0
 30
0.0
  3
_Closed
  1

  0
LINE
  5
BC
330
BB
100
AcDbEntity
  8
0
  6
ByBlock
 62
     0
370
    -2
100
AcDbLine
 10
-1.0
 20
0.1666666666666666
 30
0.0
 11
0.0
 21
0.0
 31
0.0
  0
LINE
  5
BD
330
BB
100
AcDbEntity
  8
0
  6
ByBlock
 62
     0
370
    -2
100
AcDbLine
 10
0.0
 20
0.0
 30
0.0
 11
-1.0
 21
-0.1666666666666666
 31
0.0
  0
LINE
  5
BE
330
BB
100
AcDbEntity
  8
0
  6
ByBlock
 62
     0
370
    -2
100
AcDbLine
 10
-1.0
 20
0.1666666666666666
 30
0.0
 11
-1.0
 21
-0.1666666666666666
 31
0.0
  0
LINE
  5
BF
330
BB
100
AcDbEntity
  8
0
  6
ByBlock
 62
     0
370
    -2
100
AcDbLine
 10
0.0
 20
0.0
 30
0.0
 11
-1.0
 21
0.0
 31
0.0
  0
ENDBLK
  5
C1
330
BB
100
AcDbEntity
  8
0
100
AcDbBlockEnd
  0
BLOCK
  5
C3
330
C2
100
AcDbEntity
  8
0
100
AcDbBlockBegin
  2
DatumFilled45
 70
     0
 10
0.0
 20
0.0
 30
0.0
  3
DatumFilled45
  1

  0
POLYLINE
  5
C5
330
C2
100
AcDbEntity
  8
0
 62
     0
100
AcDb2dPolyline
 66
     1
 10
0.0
 20
0.0
 30
0.0
 70
   128
  0
VERTEX
  5
C6
330
C5
100
AcDbEntity
  8
0
 62
     0
100
AcDbVertex
100
AcDb2dVertex
 10
0.0
 20
0.9999999999999998
 30
0.0
  0
VERTEX
  5
C7
330
C5
100
AcDbEntity
  8
0
 62
     0
100
AcDbVertex
100
AcDb2dVertex
 10
0.0
 20
-0.9999999999999998
 30
0.0
  0
VERTEX
  5
C9
330
C5
100
AcDbEntity
  8
0
 62
     0
100
AcDbVertex
100
AcDb2dVertex
 10
-0.9999999999999998
 20
0.0
 30
0.0
  0
VERTEX
  5
CA
330
C5
100
AcDbEntity
  8
0
 62
     0
100
AcDbVertex
100
AcDb2dVertex
 10
0.0
 20
0.9999999999999998
 30
0.0
  0
SEQEND
  5
C8
330
C5
100
AcDbEntity
  8
0
 62
     0
  0
SOLID
  5
CB
330
C2
100
AcDbEntity
  8
0
 62
     0
100
AcDbTrace
 10
0.0
 20
0.9999999999999998
 30
0.0
 11
0.0
 21
-0.9999999999999998
 31
0.0
 12
-0.9999999999999998
 22
0.0
 32
0.0
 13
0.0
 23
0.9999999999999998
 33
0.0
  0
ENDBLK
  5
C4
330
C2
100
AcDbEntity
  8
0
100
AcDbBlockEnd
  0
BLOCK
  5
CE
330
CD
100
AcDbEntity
  8
0
100
AcDbBlockBegin
  2
Borders Default Border
 70
     0
 10
0.0
 20
0.0
 30
0.0
  3
Borders Default Border
  1

  0
POLYLINE
  5
D0
330
CD
100
AcDbEntity
  8
Border (ANSI)
100
AcDb2dPolyline
 66
     1
 10
0.0
 20
0.0
 30
0.0
 70
   128
  0
VERTEX
  5
D1
330
D0
100
AcDbEntity
  8
Border (ANSI)
100
AcDbVertex
100
AcDb2dVertex
 10
0.380000002740875
 20
0.380000002740875
 30
0.0
  0
VERTEX
  5
D2
330
D0
100
AcDbEntity
  8
Border (ANSI)
100
AcDbVertex
100
AcDb2dVertex
 10
0.380000002740875
 20
8.119999893068328
 30
0.0
  0
VERTEX
  5
D4
330
D0
100
AcDbEntity
  8
Border (ANSI)
100
AcDbVertex
100
AcDb2dVertex
 10
10.62000004325326
 20
8.119999893068328
 30
0.0
  0
VERTEX
  5
D5
330
D0
100
AcDbEntity
  8
Border (ANSI)
100
AcDbVertex
100
AcDb2dVertex
 10
10.62000004325326
 20
0.380000002740875
 30
0.0
  0
VERTEX
  5
D6
330
D0
100
AcDbEntity
  8
Border (ANSI)
100
AcDbVertex
100
AcDb2dVertex
 10
0.380000002740875
 20
0.380000002740875
 30
0.0
  0
SEQEND
  5
D3
330
D0
100
AcDbEntity
  8
Border (ANSI)
  0
POLYLINE
  5
D7
330
CD
100
AcDbEntity
  8
Border (ANSI)
100
AcDb2dPolyline
 66
     1
 10
0.0
 20
0.0
 30
0.0
 70
   128
  0
VERTEX
  5
D8
330
D7
100
AcDbEntity
  8
Border (ANSI)
100
AcDbVertex
100
AcDb2dVertex
 10
5.500000105129451
 20
0.1299999947623005
 30
0.0
  0
VERTEX
  5
D9
330
D7
100
AcDbEntity
  8
Border (ANSI)
100
AcDbVertex
100
AcDb2dVertex
 10
5.500000105129451
 20
0.380000002740875
 30
0.0
  0
VERTEX
  5
DB
330
D7
100
AcDbEntity
  8
Border (ANSI)
100
AcDbVertex
100
AcDb2dVertex
 10
5.413397466103861
 20
0.2300000096869281
 30
0.0
  0
VERTEX
  5
DC
330
D7
100
AcDbEntity
  8
Border (ANSI)
100
AcDbVertex
100
AcDb2dVertex
 10
5.586602368692712
 20
0.2300000096869281
 30
0.0
  0
VERTEX
  5
DD
330
D7
100
AcDbEntity
  8
Border (ANSI)
100
AcDbVertex
100
AcDb2dVertex
 10
5.500000105129451
 20
0.380000002740875
 30
0.0
  0
SEQEND
  5
DA
330
D7
100
AcDbEntity
  8
Border (ANSI)
  0
POLYLINE
  5
DE
330
CD
100
AcDbEntity
  8
Border (ANSI)
100
AcDb2dPolyline
 66
     1
 10
0.0
 20
0.0
 30
0.0
 70
   128
  0
VERTEX
  5
DF
330
DE
100
AcDbEntity
  8
Border (ANSI)
100
AcDbVertex
100
AcDb2dVertex
 10
5.500000105129451
 20
8.369999983179287
 30
0.0
  0
VERTEX
  5
E0
330
DE
100
AcDbEntity
  8
Border (ANSI)
100
AcDbVertex
100
AcDb2dVertex
 10
5.500000105129451
 20
8.119999893068328
 30
0.0
  0
VERTEX
  5
E2
330
DE
100
AcDbEntity
  8
Border (ANSI)
100
AcDbVertex
100
AcDb2dVertex
 10
5.413397466103861
 20
8.270000097319835
 30
0.0
  0
VERTEX
  5
E3
330
DE
100
AcDbEntity
  8
Border (ANSI)
100
AcDbVertex
100
AcDb2dVertex
 10
5.586602368692712
 20
8.270000097319835
 30
0.0
  0
VERTEX
  5
E4
330
DE
100
AcDbEntity
  8
Border (ANSI)
100
AcDbVertex
100
AcDb2dVertex
 10
5.500000105129451
 20
8.119999893068328
 30
0.0
  0
SEQEND
  5
E1
330
DE
100
AcDbEntity
  8
Border (ANSI)
  0
POLYLINE
  5
E5
330
CD
100
AcDbEntity
  8
Border (ANSI)
100
AcDb2dPolyline
 66
     1
 10
0.0
 20
0.0
 30
0.0
 70
   128
  0
VERTEX
  5
E6
330
E5
100
AcDbEntity
  8
Border (ANSI)
100
AcDbVertex
100
AcDb2dVertex
 10
0.1299999947623005
 20
4.250000030036986
 30
0.0
  0
VERTEX
  5
E7
330
E5
100
AcDbEntity
  8
Border (ANSI)
100
AcDbVertex
100
AcDb2dVertex
 10
0.380000002740875
 20
4.250000030036986
 30
0.0
  0
VERTEX
  5
E9
330
E5
100
AcDbEntity
  8
Border (ANSI)
100
AcDbVertex
100
AcDb2dVertex
 10
0.2300000096869281
 20
4.336602669062576
 30
0.0
  0
VERTEX
  5
EA
330
E5
100
AcDbEntity
  8
Border (ANSI)
100
AcDbVertex
100
AcDb2dVertex
 10
0.2300000096869281
 20
4.163397391011395
 30
0.0
  0
VERTEX
  5
EB
330
E5
100
AcDbEntity
  8
Border (ANSI)
100
AcDbVertex
100
AcDb2dVertex
 10
0.380000002740875
 20
4.250000030036986
 30
0.0
  0
SEQEND
  5
E8
330
E5
100
AcDbEntity
  8
Border (ANSI)
  0
POLYLINE
  5
EC
330
CD
100
AcDbEntity
  8
Border (ANSI)
100
AcDb2dPolyline
 66
     1
 10
0.0
 20
0.0
 30
0.0
 70
   128
  0
VERTEX
  5
ED
330
EC
100
AcDbEntity
  8
Border (ANSI)
100
AcDbVertex
100
AcDb2dVertex
 10
10.87000013336422
 20
4.250000030036986
 30
0.0
  0
VERTEX
  5
EE
330
EC
100
AcDbEntity
  8
Border (ANSI)
100
AcDbVertex
100
AcDb2dVertex
 10
10.62000004325326
 20
4.250000030036986
 30
0.0
  0
VERTEX
  5
F0
330
EC
100
AcDbEntity
  8
Border (ANSI)
100
AcDbVertex
100
AcDb2dVertex
 10
10.77000024750476
 20
4.336602669062576
 30
0.0
  0
VERTEX
  5
F1
330
EC
100
AcDbEntity
  8
Border (ANSI)
100
AcDbVertex
100
AcDb2dVertex
 10
10.77000024750476
 20
4.163397391011395
 30
0.0
  0
VERTEX
  5
F2
330
EC
100
AcDbEntity
  8
Border (ANSI)
100
AcDbVertex
100
AcDb2dVertex
 10
10.62000004325326
 20
4.250000030036986
 30
0.0
  0
SEQEND
  5
EF
330
EC
100
AcDbEntity
  8
Border (ANSI)
  0
MTEXT
  5
F4
330
CD
100
AcDbEntity
  8
Border (ANSI)
100
AcDbMText
 10
8.24092395498058
 20
8.16
 30
0.0
 40
0.1200000014830762
 41
0.0
 71
     7
 72
     1
  1
1
  7
Text Style29
 73
     1
 44
2.921481132507324
1001
ACAD
1000
MTEXTBEGIN
1070
    73
1070
     1
1070
    44
1040
2.921481132507324
1070
    74
1070
     0
1000
MTEXTEND
  0
MTEXT
  5
F7
330
CD
100
AcDbEntity
  8
Border (ANSI)
100
AcDbMText
 10
8.24092395498058
 20
0.2199999985169238
 30
0.0
 40
0.1200000014830762
 41
0.0
 71
     7
 72
     1
  1
1
  7
Text Style29
 73
     1
 44
1.0
1001
ACAD
1000
MTEXTBEGIN
1070
    73
1070
     1
1070
    44
1040
1.0
1070
    74
1070
     0
1000
MTEXTEND
  0
MTEXT
  5
F8
330
CD
100
AcDbEntity
  8
Border (ANSI)
100
AcDbMText
 10
2.722276993858532
 20
8.16
 30
0.0
 40
0.1200000014830762
 41
0.0
 71
     7
 72
     1
  1
2
  7
Text Style29
 73
     1
 44
1.0
1001
ACAD
1000
MTEXTBEGIN
1070
    73
1070
     1
1070
    44
1040
1.0
1070
    74
1070
     0
1000
MTEXTEND
  0
MTEXT
  5
F9
330
CD
100
AcDbEntity
  8
Border (ANSI)
100
AcDbMText
 10
2.722276993858532
 20
0.2199999985169238
 30
0.0
 40
0.1200000014830762
 41
0.0
 71
     7
 72
     1
  1
2
  7
Text Style29
 73
     1
 44
1.0
1001
ACAD
1000
MTEXTBEGIN
1070
    73
1070
     1
1070
    44
1040
1.0
1070
    74
1070
     0
1000
MTEXTEND
  0
MTEXT
  5
FA
330
CD
100
AcDbEntity
  8
Border (ANSI)
100
AcDbMText
 10
0.2281865791448458
 20
2.064999999258461
 30
0.0
 40
0.1200000014830762
 41
0.0
 71
     7
 72
     1
  1
A
  7
Text Style29
 73
     1
 44
1.0
1001
ACAD
1000
MTEXTBEGIN
1070
    73
1070
     1
1070
    44
1040
1.0
1070
    74
1070
     0
1000
MTEXTEND
  0
MTEXT
  5
FB
330
CD
100
AcDbEntity
  8
Border (ANSI)
100
AcDbMText
 10
10.66818658062792
 20
2.064999999258461
 30
0.0
 40
0.1200000014830762
 41
0.0
 71
     7
 72
     1
  1
A
  7
Text Style29
 73
     1
 44
1.0
1001
ACAD
1000
MTEXTBEGIN
1070
    73
1070
     1
1070
    44
1040
1.0
1070
    74
1070
     0
1000
MTEXTEND
  0
MTEXT
  5
FC
330
CD
100
AcDbEntity
  8
Border (ANSI)
100
AcDbMText
 10
0.2554072225563169
 20
6.314999999258461
 30
0.0
 40
0.1200000014830762
 41
0.0
 71
     7
 72
     1
  1
B
  7
Text Style29
 73
     1
 44
1.0
1001
ACAD
1000
MTEXTBEGIN
1070
    73
1070
     1
1070
    44
1040
1.0
1070
    74
1070
     0
1000
MTEXTEND
  0
MTEXT
  5
FD
330
CD
100
AcDbEntity
  8
Border (ANSI)
100
AcDbMText
 10
10.69540722403939
 20
6.314999999258461
 30
0.0
 40
0.1200000014830762
 41
0.0
 71
     7
 72
     1
  1
B
  7
Text Style29
 73
     1
 44
1.0
1001
ACAD
1000
MTEXTBEGIN
1070
    73
1070
     1
1070
    44
1040
1.0
1070
    74
1070
     0
1000
MTEXTEND
  0
ENDBLK
  5
CF
330
CD
100
AcDbEntity
  8
0
100
AcDbBlockEnd
  0
BLOCK
  5
100
330
FF
100
AcDbEntity
  8
0
100
AcDbBlockBegin
  2
Title Blocks ANSI A
 70
     2
 10
0.0
 20
0.0
 30
0.0
  3
Title Blocks ANSI A
  1

  0
LINE
  5
102
330
FF
100
AcDbEntity
  8
Title (ANSI)
100
AcDbLine
 10
5.218967390300974
 20
4.988169638443051
 30
0.0
 11
11.46897993951357
 21
4.988169638443051
 31
0.0
  0
LINE
  5
103
330
FF
100
AcDbEntity
  8
Title (ANSI)
100
AcDbLine
 10
11.46897993951357
 20
4.988169638443051
 30
0.0
 11
11.46897993951357
 21
6.988169638443054
 31
0.0
  0
LINE
  5
104
330
FF
100
AcDbEntity
  8
Title (ANSI)
100
AcDbLine
 10
11.46897993951357
 20
6.988169638443054
 30
0.0
 11
5.218967390300974
 21
6.98816963844305
 31
0.0
  0
LINE
  5
105
330
FF
100
AcDbEntity
  8
Title (ANSI)
100
AcDbLine
 10
5.218967390300974
 20
6.98816963844305
 30
0.0
 11
5.218967390300974
 21
4.988169638443051
 31
0.0
  0
LINE
  5
106
330
FF
100
AcDbEntity
  8
Title (ANSI)
100
AcDbLine
 10
7.349025963771006
 20
4.988169638443051
 30
0.0
 11
7.349025963771006
 21
6.988169638443052
 31
0.0
  0
LINE
  5
107
330
FF
100
AcDbEntity
  8
Title (ANSI)
100
AcDbLine
 10
7.349025963771006
 20
5.238169638443052
 30
0.0
 11
11.46897993951357
 21
5.238169638443053
 31
0.0
  0
LINE
  5
108
330
FF
100
AcDbEntity
  8
Title (ANSI)
100
AcDbLine
 10
8.307958111311757
 20
4.988169638443051
 30
0.0
 11
8.307958111311757
 21
5.238169638443053
 31
0.0
  0
LINE
  5
109
330
FF
100
AcDbEntity
  8
Title (ANSI)
100
AcDbLine
 10
9.718976425734044
 20
4.988169638443051
 30
0.0
 11
9.718976425734044
 21
5.238169638443053
 31
0.0
  0
LINE
  5
10A
330
FF
100
AcDbEntity
  8
Title (ANSI)
100
AcDbLine
 10
6.468969900143492
 20
4.988169638443051
 30
0.0
 11
6.468969900143492
 21
6.988169638443052
 31
0.0
  0
LINE
  5
10B
330
FF
100
AcDbEntity
  8
Title (ANSI)
100
AcDbLine
 10
7.349025963771006
 20
5.608170381356438
 30
0.0
 11
11.46897993951357
 21
5.608170381356437
 31
0.0
  0
LINE
  5
10C
330
FF
100
AcDbEntity
  8
Title (ANSI)
100
AcDbLine
 10
11.08897917652144
 20
5.238169638443053
 30
0.0
 11
11.08897917652144
 21
5.608170381356437
 31
0.0
  0
LINE
  5
10D
330
FF
100
AcDbEntity
  8
Title (ANSI)
100
AcDbLine
 10
8.718974417860028
 20
5.238169638443053
 30
0.0
 11
8.718974417860028
 21
5.608170381356438
 31
0.0
  0
LINE
  5
10E
330
FF
100
AcDbEntity
  8
Title (ANSI)
100
AcDbLine
 10
7.763251610374186
 20
5.238169638443053
 30
0.0
 11
7.763251610374186
 21
5.608170381356438
 31
0.0
  0
LINE
  5
10F
330
FF
100
AcDbEntity
  8
Title (ANSI)
100
AcDbLine
 10
7.349025963771006
 20
6.108170381356437
 30
0.0
 11
11.46897993951357
 21
6.108170381356438
 31
0.0
  0
LINE
  5
110
330
FF
100
AcDbEntity
  8
Title (ANSI)
100
AcDbLine
 10
7.349025963771006
 20
5.238169638443052
 30
0.0
 11
5.218967390300973
 21
5.238169638443051
 31
0.0
  0
LINE
  5
111
330
FF
100
AcDbEntity
  8
Title (ANSI)
100
AcDbLine
 10
7.349025963771006
 20
5.488169638443052
 30
0.0
 11
5.218967390300973
 21
5.488169638443051
 31
0.0
  0
LINE
  5
112
330
FF
100
AcDbEntity
  8
Title (ANSI)
100
AcDbLine
 10
7.349025963771006
 20
5.738169638443051
 30
0.0
 11
5.218967390300973
 21
5.738169638443051
 31
0.0
  0
LINE
  5
113
330
FF
100
AcDbEntity
  8
Title (ANSI)
100
AcDbLine
 10
7.349025963771006
 20
5.988169638443051
 30
0.0
 11
5.218967390300973
 21
5.988169638443051
 31
0.0
  0
LINE
  5
114
330
FF
100
AcDbEntity
  8
Title (ANSI)
100
AcDbLine
 10
7.349025963771006
 20
6.238169638443052
 30
0.0
 11
5.218967390300973
 21
6.238169638443051
 31
0.0
  0
LINE
  5
115
330
FF
100
AcDbEntity
  8
Title (ANSI)
100
AcDbLine
 10
7.349025963771006
 20
6.488169638443051
 30
0.0
 11
5.218967390300973
 21
6.488169638443051
 31
0.0
  0
LINE
  5
116
330
FF
100
AcDbEntity
  8
Title (ANSI)
100
AcDbLine
 10
7.349025963771006
 20
6.738169638443051
 30
0.0
 11
5.218967390300973
 21
6.738169638443051
 31
0.0
  0
TEXT
  5
117
330
FF
100
AcDbEntity
  8
Title (ANSI)
100
AcDbText
 10
5.238967390300974
 20
6.888169639409868
 30
0.0
 40
0.0799999990331845
  1
DRAWN
  7
Note Text (ANSI)
 11
5.238967390300974
 21
6.968169638443052
 31
0.0
100
AcDbText
 73
     3
  0
TEXT
  5
118
330
FF
100
AcDbEntity
  8
Title (ANSI)
100
AcDbText
 10
5.238967390300974
 20
6.638169639409867
 30
0.0
 40
0.0799999990331845
  1
CHECKED
  7
Note Text (ANSI)
 11
5.238967390300974
 21
6.718169638443051
 31
0.0
100
AcDbText
 73
     3
  0
TEXT
  5
119
330
FF
100
AcDbEntity
  8
Title (ANSI)
100
AcDbText
 10
5.238967390300974
 20
6.388169639409867
 30
0.0
 40
0.0799999990331845
  1
QA
  7
Note Text (ANSI)
 11
5.238967390300974
 21
6.468169638443051
 31
0.0
100
AcDbText
 73
     3
  0
TEXT
  5
11A
330
FF
100
AcDbEntity
  8
Title (ANSI)
100
AcDbText
 10
5.238967390300974
 20
6.138169639409866
 30
0.0
 40
0.0799999990331845
  1
MFG
  7
Note Text (ANSI)
 11
5.238967390300974
 21
6.21816963844305
 31
0.0
100
AcDbText
 73
     3
  0
TEXT
  5
11B
330
FF
100
AcDbEntity
  8
Title (ANSI)
100
AcDbText
 10
5.238967390300974
 20
5.888169639409866
 30
0.0
 40
0.0799999990331845
  1
APPROVED
  7
Note Text (ANSI)
 11
5.238967390300974
 21
5.96816963844305
 31
0.0
100
AcDbText
 73
     3
  0
TEXT
  5
11C
330
FF
100
AcDbEntity
  8
Title (ANSI)
100
AcDbText
 10
7.369025963771005
 20
6.008170382323252
 30
0.0
 40
0.0799999990331845
  1
TITLE
  7
Note Text (ANSI)
 11
7.369025963771005
 21
6.088170381356436
 31
0.0
100
AcDbText
 73
     3
  0
TEXT
  5
11D
330
FF
100
AcDbEntity
  8
Title (ANSI)
100
AcDbText
 10
7.443338251162474
 20
5.508170382323253
 30
0.0
 40
0.0799999990331845
  1
SIZE
  7
Note Text (ANSI)
 72
     1
 11
7.556138787072596
 21
5.588170381356437
 31
0.0
100
AcDbText
 73
     3
  0
TEXT
  5
11E
330
FF
100
AcDbEntity
  8
Title (ANSI)
100
AcDbText
 10
7.369025963771005
 20
5.138169639409868
 30
0.0
 40
0.0799999990331845
  1
SCALE
  7
Note Text (ANSI)
 11
7.369025963771005
 21
5.218169638443052
 31
0.0
100
AcDbText
 73
     3
  0
TEXT
  5
11F
330
FF
100
AcDbEntity
  8
Title (ANSI)
100
AcDbText
 10
8.738974417860028
 20
5.508170382323253
 30
0.0
 40
0.0799999990331845
  1
DWG NO
  7
Note Text (ANSI)
 11
8.738974417860028
 21
5.588170381356437
 31
0.0
100
AcDbText
 73
     3
  0
TEXT
  5
120
330
FF
100
AcDbEntity
  8
Title (ANSI)
100
AcDbText
 10
11.18092717505205
 20
5.508170382323254
 30
0.0
 40
0.0799999990331845
  1
REV
  7
Note Text (ANSI)
 72
     1
 11
11.27897955801751
 21
5.588170381356438
 31
0.0
100
AcDbText
 73
     3
  0
TEXT
  5
121
330
FF
100
AcDbEntity
  8
Title (ANSI)
100
AcDbText
 10
9.738976425734044
 20
5.017357012408581
 30
0.0
 40
0.0799999990331845
  1
SHEET 1  OF 4 
  7
Note Text (ANSI)
 11
9.738976425734044
 21
5.00816963844305
 31
0.0
100
AcDbText
 73
     1
  0
MTEXT
  5
122
330
FF
100
AcDbEntity
  8
Title (ANSI)
100
AcDbMText
 10
7.88689466629011
 20
6.845847353718751
 30
0.0
 40
0.1200000014830762
 41
2.980973628619509
 71
     1
 72
     1
  1
RADIO ASTRONOMY LABORATORY\fTahoma|b0|i0;\H0.1800;\P\fTahoma|b0|i0;\H0.1000;   UNIVERSITY OF CALIFORNIA BERKELEY\P   Tel: 510-642-3441 for DICK PLAMBECK\P   Tel: 510-642-2076 for DANING CHOW
  7
Note Text (ANSI)
 73
     1
 44
0.8360999822616577
1001
ACAD
1000
MTEXTBEGIN
1070
    73
1070
     1
1070
    44
1040
0.8360999822616577
1070
    74
1070
     0
1000
MTEXTEND
  0
ATTDEF
  5
123
330
FF
100
AcDbEntity
  8
Title (ANSI)
100
AcDbText
 10
5.238967390300974
 20
6.769653856405263
 30
0.0
 40
0.1000000031914298
  1
Da Chow
  7
Note Text (ANSI)
 11
5.238967390300974
 21
6.75816963844305
 31
0.0
100
AcDbAttributeDefinition
  3
AUTHOR
  2
AUTHOR
 70
     0
 74
     1
  0
ATTDEF
  5
124
330
FF
100
AcDbEntity
  8
Title (ANSI)
100
AcDbText
 10
5.238967390300974
 20
6.519653856405263
 30
0.0
 40
0.1000000031914298
  1

  7
Note Text (ANSI)
 11
5.238967390300974
 21
6.50816963844305
 31
0.0
100
AcDbAttributeDefinition
  3
CHECKED BY
  2
CHECKED_BY
 70
     0
 74
     1
  0
ATTDEF
  5
125
330
FF
100
AcDbEntity
  8
Title (ANSI)
100
AcDbText
 10
5.238967390300974
 20
6.019653856405263
 30
0.0
 40
0.1000000031914298
  1

  7
Note Text (ANSI)
 11
5.238967390300974
 21
6.00816963844305
 31
0.0
100
AcDbAttributeDefinition
  3
MFG APPROVED BY
  2
MFG_APPROVED_BY
 70
     0
 74
     1
  0
ATTDEF
  5
126
330
FF
100
AcDbEntity
  8
Title (ANSI)
100
AcDbText
 10
5.238967390300974
 20
5.769653856405263
 30
0.0
 40
0.1000000031914298
  1

  7
Note Text (ANSI)
 11
5.238967390300974
 21
5.75816963844305
 31
0.0
100
AcDbAttributeDefinition
  3
ENG APPROVED BY
  2
ENG_APPROVED_BY
 70
     0
 74
     1
  0
ATTDEF
  5
127
330
FF
100
AcDbEntity
  8
Title (ANSI)
100
AcDbText
 10
6.488969900143492
 20
6.769653856405263
 30
0.0
 40
0.1000000031914298
  1
12/19/2008
  7
Note Text (ANSI)
 11
6.488969900143492
 21
6.75816963844305
 31
0.0
100
AcDbAttributeDefinition
  3
CREATION DATE
  2
CREATION_DATE
 70
     0
 74
     1
  0
ATTDEF
  5
128
330
FF
100
AcDbEntity
  8
Title (ANSI)
100
AcDbText
 10
6.488969900143492
 20
6.519653856405263
 30
0.0
 40
0.1000000031914298
  1
1/14/2009
  7
Note Text (ANSI)
 11
6.488969900143492
 21
6.50816963844305
 31
0.0
100
AcDbAttributeDefinition
  3
CHECKED DATE
  2
CHECKED_DATE
 70
     0
 74
     1
  0
ATTDEF
  5
129
330
FF
100
AcDbEntity
  8
Title (ANSI)
100
AcDbText
 10
6.488969900143492
 20
6.019653856405264
 30
0.0
 40
0.1000000031914298
  1

  7
Note Text (ANSI)
 11
6.488969900143492
 21
6.008169638443051
 31
0.0
100
AcDbAttributeDefinition
  3
MFG APPROVED DATE
  2
MFG_APPROVED_DATE
 70
     0
 74
     1
  0
ATTDEF
  5
12A
330
FF
100
AcDbEntity
  8
Title (ANSI)
100
AcDbText
 10
6.488969900143492
 20
5.769653856405264
 30
0.0
 40
0.1000000031914298
  1

  7
Note Text (ANSI)
 11
6.488969900143492
 21
5.758169638443051
 31
0.0
100
AcDbAttributeDefinition
  3
ENG APPROVAL DATE
  2
ENG_APPROVAL_DATE
 70
     0
 74
     1
  0
ATTDEF
  5
12B
330
FF
100
AcDbEntity
  8
Title (ANSI)
100
AcDbText
 10
9.409002951642289
 20
6.488170009158206
 30
0.0
 40
0.1200000014830762
  1

  7
Note Text (ANSI)
 72
     1
 11
9.409002951642289
 21
6.548170009899744
 31
0.0
100
AcDbAttributeDefinition
  3
COMPANY
  2
COMPANY
 70
     0
 74
     2
  0
ATTDEF
  5
12C
330
FF
100
AcDbEntity
  8
Title (ANSI)
100
AcDbText
 10
7.369025963771005
 20
5.738170380614899
 30
0.0
 40
0.1200000014830762
  1

  7
Note Text (ANSI)
 11
7.369025963771005
 21
5.798170381356437
 31
0.0
100
AcDbAttributeDefinition
  3
TITLE
  2
TITLE
 70
     0
 74
     2
  0
ATTDEF
  5
12D
330
FF
100
AcDbEntity
  8
Title (ANSI)
100
AcDbText
 10
7.506655912048681
 20
5.313170009158206
 30
0.0
 40
0.1200000014830762
  1
A
  7
Note Text (ANSI)
 72
     1
 11
7.556138787072596
 21
5.373170009899744
 31
0.0
100
AcDbAttributeDefinition
  3
Sheet Size
  2
Sheet_Size
 70
     0
 74
     2
  0
ATTDEF
  5
12E
330
FF
100
AcDbEntity
  8
Title (ANSI)
100
AcDbText
 10
8.738974417860028
 20
5.271950699728215
 30
0.0
 40
0.1200000014830762
  1
Block4-V61
  7
Note Text (ANSI)
 11
8.738974417860028
 21
5.258169638443053
 31
0.0
100
AcDbAttributeDefinition
  3
PART NUMBER
  2
PART_NUMBER
 70
     0
 74
     1
  0
ATTDEF
  5
12F
330
FF
100
AcDbEntity
  8
Title (ANSI)
100
AcDbText
 10
11.27897955801751
 20
5.313170009158207
 30
0.0
 40
0.1200000014830762
  1

  7
Note Text (ANSI)
 72
     1
 11
11.27897955801751
 21
5.373170009899745
 31
0.0
100
AcDbAttributeDefinition
  3
REVISION NUMBER
  2
REVISION_NUMBER
 70
     0
 74
     2
  0
ENDBLK
  5
101
330
FF
100
AcDbEntity
  8
0
100
AcDbBlockEnd
  0
BLOCK
  5
223
330
218
100
AcDbEntity
  8
0
100
AcDbBlockBegin
  2
*D6
 70
     1
 10
0.0
 20
0.0
 30
0.0
  3
*D6
  1

  0
LINE
  5
2ED
330
218
100
AcDbEntity
  8
Dimension (ANSI)
100
AcDbLine
 10
1.369011592354929
 20
1.475983715935113
 30
0.0
 11
1.369011592354929
 21
1.356486965257772
 31
0.0
  0
LINE
  5
2EE
330
218
100
AcDbEntity
  8
Dimension (ANSI)
100
AcDbLine
 10
2.269011582354897
 20
1.453983715935157
 30
0.0
 11
2.269011582354897
 21
1.356486965257772
 31
0.0
  0
LINE
  5
2EF
330
218
100
AcDbEntity
  8
Dimension (ANSI)
100
AcDbLine
 10
1.393617891010201
 20
1.387736965257772
 30
0.0
 11
1.739300765528704
 21
1.387736965257772
 31
0.0
  0
LINE
  5
2F0
330
218
100
AcDbEntity
  8
Dimension (ANSI)
100
AcDbLine
 10
2.244405283699625
 20
1.387736965257772
 30
0.0
 11
1.898722409181123
 21
1.387736965257772
 31
0.0
  0
SOLID
  5
2F1
330
218
100
AcDbEntity
  8
Dimension (ANSI)
100
AcDbTrace
 10
1.393617891010201
 20
1.391838015033651
 30
0.0
 11
1.393617891010201
 21
1.383635915481894
 31
0.0
 12
1.369011592354929
 22
1.387736965257772
 32
0.0
 13
1.369011592354929
 23
1.387736965257772
 33
0.0
  0
SOLID
  5
2F2
330
218
100
AcDbEntity
  8
Dimension (ANSI)
100
AcDbTrace
 10
2.244405283699625
 20
1.391838015033651
 30
0.0
 11
2.244405283699625
 21
1.383635915481894
 31
0.0
 12
2.269011582354897
 22
1.387736965257772
 32
0.0
 13
2.269011582354897
 23
1.387736965257772
 33
0.0
  0
MTEXT
  5
2F3
330
218
100
AcDbEntity
  8
Dimension (ANSI)
100
AcDbMText
 10
1.747174781276735
 20
1.403351472258358
 30
0.0
 40
0.0300000011920929
 41
0.0
 71
     1
 72
     1
  1
\A1;0.900 in
  7
Note Text (ANSI)
 73
     1
 44
1.0
1001
ACAD
1000
MTEXTBEGIN
1070
    73
1070
     1
1070
    44
1040
1.0
1070
    74
1070
     0
1000
MTEXTEND
  0
POINT
  5
2F4
330
218
100
AcDbEntity
  8
Defpoints
 62
     0
100
AcDbPoint
 10
1.369011592354929
 20
1.491608715935113
 30
0.0
  0
POINT
  5
2F5
330
218
100
AcDbEntity
  8
Defpoints
 62
     0
100
AcDbPoint
 10
2.269011582354897
 20
1.469608715935157
 30
0.0
  0
POINT
  5
2F6
330
218
100
AcDbEntity
  8
Defpoints
 62
     0
100
AcDbPoint
 10
2.269011582354897
 20
1.387736965257772
 30
0.0
  0
ENDBLK
  5
224
330
218
100
AcDbEntity
  8
0
100
AcDbBlockEnd
  0
BLOCK
  5
303
330
2F8
100
AcDbEntity
  8
0
100
AcDbBlockBegin
  2
*D7
 70
     1
 10
0.0
 20
0.0
 30
0.0
  3
*D7
  1

  0
LINE
  5
3CD
330
2F8
100
AcDbEntity
  8
Dimension (ANSI)
100
AcDbLine
 10
0.4449556638830975
 20
1.453983715934978
 30
0.0
 11
0.4449556638831312
 21
1.340491704671234
 31
0.0
  0
LINE
  5
3CE
330
2F8
100
AcDbEntity
  8
Dimension (ANSI)
100
AcDbLine
 10
0.8949556638830909
 20
1.475983715935113
 30
0.0
 11
0.8949556638831312
 21
1.340491704671368
 31
0.0
  0
LINE
  5
3CF
330
2F8
100
AcDbEntity
  8
Dimension (ANSI)
100
AcDbLine
 10
0.4695619625383935
 20
1.371741704671241
 30
0.0
 11
0.5902448420569124
 21
1.371741704671277
 31
0.0
  0
LINE
  5
3D0
330
2F8
100
AcDbEntity
  8
Dimension (ANSI)
100
AcDbLine
 10
0.8703493652278504
 20
1.37174170467136
 30
0.0
 11
0.7496664857093315
 21
1.371741704671324
 31
0.0
  0
SOLID
  5
3D1
330
2F8
100
AcDbEntity
  8
Dimension (ANSI)
100
AcDbTrace
 10
0.4695619625383923
 20
1.37584275444712
 30
0.0
 11
0.4695619625383947
 21
1.367640654895363
 31
0.0
 12
0.444955663883122
 22
1.371741704671234
 32
0.0
 13
0.444955663883122
 23
1.371741704671234
 33
0.0
  0
SOLID
  5
3D2
330
2F8
100
AcDbEntity
  8
Dimension (ANSI)
100
AcDbTrace
 10
0.8703493652278492
 20
1.375842754447239
 30
0.0
 11
0.8703493652278517
 21
1.367640654895482
 31
0.0
 12
0.894955663883122
 22
1.371741704671368
 32
0.0
 13
0.894955663883122
 23
1.371741704671368
 33
0.0
  0
MTEXT
  5
3D3
330
2F8
100
AcDbEntity
  8
Dimension (ANSI)
100
AcDbMText
 10
0.5981188578049391
 20
1.387356211671865
 30
0.0
 40
0.0300000011920929
 41
0.0
 71
     1
 72
     1
  1
\A1;0.450 in
  7
Note Text (ANSI)
 73
     1
 44
1.0
1001
ACAD
1000
MTEXTBEGIN
1070
    73
1070
     1
1070
    44
1040
1.0
1070
    74
1070
     0
1000
MTEXTEND
  0
POINT
  5
3D4
330
2F8
100
AcDbEntity
  8
Defpoints
 62
     0
100
AcDbPoint
 10
0.4449556638830929
 20
1.469608715934978
 30
0.0
  0
POINT
  5
3D5
330
2F8
100
AcDbEntity
  8
Defpoints
 62
     0
100
AcDbPoint
 10
0.8949556638830863
 20
1.491608715935113
 30
0.0
  0
POINT
  5
3D6
330
2F8
100
AcDbEntity
  8
Defpoints
 62
     0
100
AcDbPoint
 10
0.894955663883122
 20
1.371741704671368
 30
0.0
  0
ENDBLK
  5
304
330
2F8
100
AcDbEntity
  8
0
100
AcDbBlockEnd
  0
BLOCK
  5
3E3
330
3D8
100
AcDbEntity
  8
0
100
AcDbBlockBegin
  2
*D8
 70
     1
 10
0.0
 20
0.0
 30
0.0
  3
*D8
  1

  0
LINE
  5
499
330
3D8
100
AcDbEntity
  8
Dimension (ANSI)
100
AcDbLine
 10
0.4293306638830929
 20
1.469608715934978
 30
0.0
 11
0.2813981380037221
 21
1.469608715934978
 31
0.0
  0
LINE
  5
49A
330
3D8
100
AcDbEntity
  8
Dimension (ANSI)
100
AcDbLine
 10
0.4293306638829593
 20
1.919608715934989
 30
0.0
 11
0.2813981380037223
 21
1.919608715934989
 31
0.0
  0
LINE
  5
49B
330
3D8
100
AcDbEntity
  8
Dimension (ANSI)
100
AcDbLine
 10
0.3126481380037221
 20
1.494215014590249
 30
0.0
 11
0.3126481380037222
 21
1.671120193186311
 31
0.0
  0
LINE
  5
49C
330
3D8
100
AcDbEntity
  8
Dimension (ANSI)
100
AcDbLine
 10
0.3126481380037223
 20
1.895002417279718
 30
0.0
 11
0.3126481380037222
 21
1.718097238683545
 31
0.0
  0
SOLID
  5
49D
330
3D8
100
AcDbEntity
  8
Dimension (ANSI)
100
AcDbTrace
 10
0.3085470882278436
 20
1.494215014590249
 30
0.0
 11
0.3167491877796007
 21
1.494215014590249
 31
0.0
 12
0.3126481380037221
 22
1.469608715934978
 32
0.0
 13
0.3126481380037221
 23
1.469608715934978
 33
0.0
  0
SOLID
  5
49E
330
3D8
100
AcDbEntity
  8
Dimension (ANSI)
100
AcDbTrace
 10
0.3085470882278436
 20
1.895002417279718
 30
0.0
 11
0.3167491877796009
 21
1.895002417279718
 31
0.0
 12
0.3126481380037223
 22
1.919608715934989
 32
0.0
 13
0.3126481380037223
 23
1.919608715934989
 33
0.0
  0
MTEXT
  5
49F
330
3D8
100
AcDbEntity
  8
Dimension (ANSI)
100
AcDbMText
 10
0.2408113319255438
 20
1.710223222935514
 30
0.0
 40
0.0300000011920929
 41
0.0
 71
     1
 72
     1
  1
\A1;0.450 in
  7
Note Text (ANSI)
 73
     1
 44
1.0
1001
ACAD
1000
MTEXTBEGIN
1070
    73
1070
     1
1070
    44
1040
1.0
1070
    74
1070
     0
1000
MTEXTEND
  0
POINT
  5
4A0
330
3D8
100
AcDbEntity
  8
Defpoints
 62
     0
100
AcDbPoint
 10
0.4449556638830929
 20
1.469608715934978
 30
0.0
  0
POINT
  5
4A1
330
3D8
100
AcDbEntity
  8
Defpoints
 62
     0
100
AcDbPoint
 10
0.4449556638829593
 20
1.919608715934989
 30
0.0
  0
POINT
  5
4A2
330
3D8
100
AcDbEntity
  8
Defpoints
 62
     0
100
AcDbPoint
 10
0.3126481380037223
 20
1.919608715934989
 30
0.0
  0
ENDBLK
  5
3E4
330
3D8
100
AcDbEntity
  8
0
100
AcDbBlockEnd
  0
BLOCK
  5
4AF
330
4A4
100
AcDbEntity
  8
0
100
AcDbBlockBegin
  2
*D9
 70
     1
 10
0.0
 20
0.0
 30
0.0
  3
*D9
  1

  0
LINE
  5
579
330
4A4
100
AcDbEntity
  8
Dimension (ANSI)
100
AcDbLine
 10
1.429011592354862
 20
1.475983715935113
 30
0.0
 11
1.429011592354862
 21
1.393809239959484
 31
0.0
  0
LINE
  5
57A
330
4A4
100
AcDbEntity
  8
Dimension (ANSI)
100
AcDbLine
 10
1.369011592354929
 20
1.475983715935113
 30
0.0
 11
1.369011592354929
 21
1.393809239959484
 31
0.0
  0
LINE
  5
57B
330
4A4
100
AcDbEntity
  8
Dimension (ANSI)
100
AcDbLine
 10
1.453617891010134
 20
1.425059239959484
 30
0.0
 11
1.478224189665406
 21
1.425059239959484
 31
0.0
  0
LINE
  5
57C
330
4A4
100
AcDbEntity
  8
Dimension (ANSI)
100
AcDbLine
 10
1.344405293699658
 20
1.425059239959484
 30
0.0
 11
1.314752295465339
 21
1.425059239959484
 31
0.0
  0
SOLID
  5
57D
330
4A4
100
AcDbEntity
  8
Dimension (ANSI)
100
AcDbTrace
 10
1.453617891010134
 20
1.429160289735363
 30
0.0
 11
1.453617891010134
 21
1.420958190183605
 31
0.0
 12
1.429011592354862
 22
1.425059239959484
 32
0.0
 13
1.429011592354862
 23
1.425059239959484
 33
0.0
  0
SOLID
  5
57E
330
4A4
100
AcDbEntity
  8
Dimension (ANSI)
100
AcDbTrace
 10
1.344405293699658
 20
1.429160289735363
 30
0.0
 11
1.344405293699658
 21
1.420958190183605
 31
0.0
 12
1.369011592354929
 22
1.425059239959484
 32
0.0
 13
1.369011592354929
 23
1.425059239959484
 33
0.0
  0
MTEXT
  5
57F
330
4A4
100
AcDbEntity
  8
Dimension (ANSI)
100
AcDbMText
 10
1.163204667560951
 20
1.44067374696007
 30
0.0
 40
0.0300000011920929
 41
0.0
 71
     1
 72
     1
  1
\A1;0.060 in
  7
Note Text (ANSI)
 73
     1
 44
1.0
1001
ACAD
1000
MTEXTBEGIN
1070
    73
1070
     1
1070
    44
1040
1.0
1070
    74
1070
     0
1000
MTEXTEND
  0
POINT
  5
580
330
4A4
100
AcDbEntity
  8
Defpoints
 62
     0
100
AcDbPoint
 10
1.429011592354862
 20
1.491608715935113
 30
0.0
  0
POINT
  5
581
330
4A4
100
AcDbEntity
  8
Defpoints
 62
     0
100
AcDbPoint
 10
1.369011592354929
 20
1.491608715935113
 30
0.0
  0
POINT
  5
582
330
4A4
100
AcDbEntity
  8
Defpoints
 62
     0
100
AcDbPoint
 10
1.369011592354929
 20
1.425059239959484
 30
0.0
  0
ENDBLK
  5
4B0
330
4A4
100
AcDbEntity
  8
0
100
AcDbBlockEnd
  0
ENDSEC
  0
SECTION
  2
ENTITIES
  0
INSERT
  5
FE
330
37
100
AcDbEntity
  8
0
100
AcDbBlockReference
  2
Borders Default Border
 10
0.0
 20
0.0
 30
0.0
 41
0.25
 42
0.25
 43
0.25
  0
INSERT
  5
130
330
37
100
AcDbEntity
  8
0
100
AcDbBlockReference
 66
     1
  2
Title Blocks ANSI A
 10
-0.212244984878393
 20
-1.152042409610762
 30
0.0
 41
0.25
 42
0.25
 43
0.25
  0
ATTRIB
  5
132
330
130
100
AcDbEntity
  8
Title (ANSI)
100
AcDbText
 10
1.09749686269685
 20
0.5403710544905531
 30
0.0
 40
0.0250000007978575
  1
Da Chow
  7
Note Text (ANSI)
 11
1.09749686269685
 21
0.5375
 31
0.0
100
AcDbAttribute
  2
AUTHOR
 70
     0
 74
     1
  0
ATTRIB
  5
133
330
130
100
AcDbEntity
  8
Title (ANSI)
100
AcDbText
 10
1.09749686269685
 20
0.477871054490553
 30
0.0
 40
0.0250000007978575
  1

  7
Note Text (ANSI)
 11
1.09749686269685
 21
0.4749999999999999
 31
0.0
100
AcDbAttribute
  2
CHECKED_BY
 70
     0
 74
     1
  0
ATTRIB
  5
134
330
130
100
AcDbEntity
  8
Title (ANSI)
100
AcDbText
 10
1.09749686269685
 20
0.352871054490553
 30
0.0
 40
0.0250000007978575
  1

  7
Note Text (ANSI)
 11
1.09749686269685
 21
0.3499999999999999
 31
0.0
100
AcDbAttribute
  2
MFG_APPROVED_BY
 70
     0
 74
     1
  0
ATTRIB
  5
135
330
130
100
AcDbEntity
  8
Title (ANSI)
100
AcDbText
 10
1.09749686269685
 20
0.2903710544905531
 30
0.0
 40
0.0250000007978575
  1

  7
Note Text (ANSI)
 11
1.09749686269685
 21
0.2874999999999999
 31
0.0
100
AcDbAttribute
  2
ENG_APPROVED_BY
 70
     0
 74
     1
  0
ATTRIB
  5
136
330
130
100
AcDbEntity
  8
Title (ANSI)
100
AcDbText
 10
1.40999749015748
 20
0.5403710544905531
 30
0.0
 40
0.0250000007978575
  1
12/19/2008
  7
Note Text (ANSI)
 11
1.40999749015748
 21
0.5375
 31
0.0
100
AcDbAttribute
  2
CREATION_DATE
 70
     0
 74
     1
  0
ATTRIB
  5
137
330
130
100
AcDbEntity
  8
Title (ANSI)
100
AcDbText
 10
1.40999749015748
 20
0.477871054490553
 30
0.0
 40
0.0250000007978575
  1
1/14/2009
  7
Note Text (ANSI)
 11
1.40999749015748
 21
0.4749999999999999
 31
0.0
100
AcDbAttribute
  2
CHECKED_DATE
 70
     0
 74
     1
  0
ATTRIB
  5
138
330
130
100
AcDbEntity
  8
Title (ANSI)
100
AcDbText
 10
1.40999749015748
 20
0.3528710544905532
 30
0.0
 40
0.0250000007978575
  1

  7
Note Text (ANSI)
 11
1.40999749015748
 21
0.3500000000000001
 31
0.0
100
AcDbAttribute
  2
MFG_APPROVED_DATE
 70
     0
 74
     1
  0
ATTRIB
  5
139
330
130
100
AcDbEntity
  8
Title (ANSI)
100
AcDbText
 10
1.40999749015748
 20
0.2903710544905532
 30
0.0
 40
0.0250000007978575
  1

  7
Note Text (ANSI)
 11
1.40999749015748
 21
0.2875000000000001
 31
0.0
100
AcDbAttribute
  2
ENG_APPROVAL_DATE
 70
     0
 74
     1
  0
ATTRIB
  5
13A
330
130
100
AcDbEntity
  8
Title (ANSI)
100
AcDbText
 10
2.140005753032179
 20
0.4700000926787889
 30
0.0
 40
0.0300000003707691
  1

  7
Note Text (ANSI)
 72
     1
 11
2.140005753032179
 21
0.4850000928641734
 31
0.0
100
AcDbAttribute
  2
COMPANY
 70
     0
 74
     2
  0
ATTRIB
  5
13B
330
130
100
AcDbEntity
  8
Title (ANSI)
100
AcDbText
 10
1.630011506064358
 20
0.2825001855429621
 30
0.0
 40
0.0300000003707691
  1

  7
Note Text (ANSI)
 11
1.630011506064358
 21
0.2975001857283466
 31
0.0
100
AcDbAttribute
  2
TITLE
 70
     0
 74
     2
  0
ATTRIB
  5
13C
330
130
100
AcDbEntity
  8
Title (ANSI)
100
AcDbText
 10
1.664418993133777
 20
0.1762500926787886
 30
0.0
 40
0.0300000003707691
  1
A
  7
Note Text (ANSI)
 72
     1
 11
1.676789711889756
 21
0.1912500928641731
 31
0.0
100
AcDbAttribute
  2
Sheet_Size
 70
     0
 74
     2
  0
ATTRIB
  5
13D
330
130
100
AcDbEntity
  8
Title (ANSI)
100
AcDbText
 10
1.972498619586613
 20
0.1659452653212909
 30
0.0
 40
0.0300000003707691
  1
Block4-V61
  7
Note Text (ANSI)
 11
1.972498619586613
 21
0.1625000000000005
 31
0.0
100
AcDbAttribute
  2
PART_NUMBER
 70
     0
 74
     1
  0
ATTRIB
  5
13E
330
130
100
AcDbEntity
  8
Title (ANSI)
100
AcDbText
 10
2.607499904625984
 20
0.1762500926787891
 30
0.0
 40
0.0300000003707691
  1

  7
Note Text (ANSI)
 72
     1
 11
2.607499904625984
 21
0.1912500928641737
 31
0.0
100
AcDbAttribute
  2
REVISION_NUMBER
 70
     0
 74
     2
  0
SEQEND
  5
131
330
130
100
AcDbEntity
  8
0
  0
LINE
  5
13F
330
37
100
AcDbEntity
  8
Visible (ANSI)
100
AcDbLine
 10
2.269011582354939
 20
1.139069613262177
 30
0.0
 11
1.577511592354921
 21
1.139069613262177
 31
0.0
  0
LINE
  5
140
330
37
100
AcDbEntity
  8
Visible (ANSI)
100
AcDbLine
 10
1.369011592354971
 20
1.139069613262177
 30
0.0
 11
1.429011592354904
 21
1.139069613262177
 31
0.0
  0
LINE
  5
141
330
37
100
AcDbEntity
  8
Visible (ANSI)
100
AcDbLine
 10
1.429011592354904
 20
1.139069613262177
 30
0.0
 11
1.439311592355043
 21
1.139069613262177
 31
0.0
  0
LINE
  5
142
330
37
100
AcDbEntity
  8
Visible (ANSI)
100
AcDbLine
 10
1.559011592354901
 20
1.139069613262177
 30
0.0
 11
1.577511592354896
 21
1.139069613262177
 31
0.0
  0
LINE
  5
143
330
37
100
AcDbEntity
  8
Visible (ANSI)
100
AcDbLine
 10
1.369011592354971
 20
0.6890696132621774
 30
0.0
 11
2.269011582354939
 21
0.6890696132621774
 31
0.0
  0
LINE
  5
144
330
37
100
AcDbEntity
  8
Visible (ANSI)
100
AcDbLine
 10
1.577511592354921
 20
1.139069613262177
 30
0.0
 11
1.577511592354921
 21
1.120569613262177
 31
0.0
  0
LINE
  5
145
330
37
100
AcDbEntity
  8
Visible (ANSI)
100
AcDbLine
 10
1.577511592354921
 20
1.120569613262177
 30
0.0
 11
1.559011592354945
 21
1.120569613262177
 31
0.0
  0
LINE
  5
146
330
37
100
AcDbEntity
  8
Visible (ANSI)
100
AcDbLine
 10
1.559011592354945
 20
1.120569613262177
 30
0.0
 11
1.559011592354945
 21
1.139069613262177
 31
0.0
  0
LINE
  5
147
330
37
100
AcDbEntity
  8
Visible (ANSI)
100
AcDbLine
 10
1.559011592354945
 20
1.139069613262177
 30
0.0
 11
1.527511592354894
 21
1.139069613262177
 31
0.0
  0
LINE
  5
148
330
37
100
AcDbEntity
  8
Visible (ANSI)
100
AcDbLine
 10
1.527511592354894
 20
1.139069613262177
 30
0.0
 11
1.527511592354894
 21
1.039069613262177
 31
0.0
  0
ARC
  5
149
330
37
100
AcDbEntity
  8
Visible (ANSI)
100
AcDbCircle
 10
1.478261592354944
 20
1.039069613262194
 30
0.0
 40
0.0492499999999951
100
AcDbArc
 50
180.0
 51
0.0
  0
LINE
  5
14A
330
37
100
AcDbEntity
  8
Visible (ANSI)
100
AcDbLine
 10
1.429011592354904
 20
1.039069613262177
 30
0.0
 11
1.429011592354904
 21
1.117069613262177
 31
0.0
  0
LINE
  5
14B
330
37
100
AcDbEntity
  8
Visible (ANSI)
100
AcDbLine
 10
1.429011592354904
 20
1.117069613262177
 30
0.0
 11
1.369011592354971
 21
1.117069613262177
 31
0.0
  0
LINE
  5
14C
330
37
100
AcDbEntity
  8
Visible (ANSI)
100
AcDbLine
 10
1.369011592354971
 20
1.117069613262177
 30
0.0
 11
1.369011592354971
 21
0.6890696132621774
 31
0.0
  0
LINE
  5
14D
330
37
100
AcDbEntity
  8
Visible (ANSI)
100
AcDbLine
 10
2.269011582354939
 20
0.6890696132621774
 30
0.0
 11
2.269011582354939
 21
1.139069613262177
 31
0.0
  0
LINE
  5
14E
330
37
100
AcDbEntity
  8
Visible (ANSI)
100
AcDbLine
 10
1.369011592354971
 20
1.117069613262177
 30
0.0
 11
1.369011592354971
 21
1.139069613262177
 31
0.0
  0
LINE
  5
14F
330
37
100
AcDbEntity
  8
Visible (ANSI)
100
AcDbLine
 10
1.429011592354904
 20
1.120569613262177
 30
0.0
 11
1.447511592354924
 21
1.120569613262177
 31
0.0
  0
LINE
  5
150
330
37
100
AcDbEntity
  8
Visible (ANSI)
100
AcDbLine
 10
1.439311592354949
 20
1.139069613262177
 30
0.0
 11
1.439311592354949
 21
1.130569613262177
 31
0.0
  0
LINE
  5
151
330
37
100
AcDbEntity
  8
Visible (ANSI)
100
AcDbLine
 10
1.439311592354949
 20
1.130569613262177
 30
0.0
 11
1.444011592354944
 21
1.130569613262177
 31
0.0
  0
ARC
  5
152
330
37
100
AcDbEntity
  8
Visible (ANSI)
100
AcDbCircle
 10
1.444011592354988
 20
1.127069613262226
 30
0.0
 40
0.0034999999999502
100
AcDbArc
 50
0.0
 51
90.00000000073269
  0
LINE
  5
153
330
37
100
AcDbEntity
  8
Visible (ANSI)
100
AcDbLine
 10
1.447511592354924
 20
1.127069613262177
 30
0.0
 11
1.447511592354924
 21
1.039069613262177
 31
0.0
  0
ARC
  5
154
330
37
100
AcDbEntity
  8
Visible (ANSI)
100
AcDbCircle
 10
1.478261592354944
 20
1.039069613262197
 30
0.0
 40
0.0307500000000199
100
AcDbArc
 50
180.0
 51
0.0
  0
LINE
  5
155
330
37
100
AcDbEntity
  8
Visible (ANSI)
100
AcDbLine
 10
1.509011592354964
 20
1.139069613262177
 30
0.0
 11
1.527511592354894
 21
1.139069613262177
 31
0.0
  0
LINE
  5
156
330
37
100
AcDbEntity
  8
Visible (ANSI)
100
AcDbLine
 10
1.429011592354904
 20
1.139069613262177
 30
0.0
 11
1.429011592354904
 21
1.117069613262022
 31
0.0
  0
LINE
  5
157
330
37
100
AcDbEntity
  8
Visible (ANSI)
100
AcDbLine
 10
1.509011592354964
 20
1.039069613262177
 30
0.0
 11
1.509011592354964
 21
1.139069613262177
 31
0.0
  0
LINE
  5
158
330
37
100
AcDbEntity
  8
Visible (ANSI)
100
AcDbLine
 10
1.509011592354964
 20
1.139069613262177
 30
0.0
 11
1.439311592354949
 21
1.139069613262177
 31
0.0
  0
CIRCLE
  5
159
330
37
100
AcDbEntity
  8
Visible (ANSI)
100
AcDbCircle
 10
1.807392433154944
 20
1.040074664062177
 30
0.0
 40
0.0445
  0
CIRCLE
  5
15A
330
37
100
AcDbEntity
  8
Visible (ANSI)
100
AcDbCircle
 10
2.005382331554893
 20
1.040074664062177
 30
0.0
 40
0.0445
  0
CIRCLE
  5
15B
330
37
100
AcDbEntity
  8
Visible (ANSI)
100
AcDbCircle
 10
1.608387382354949
 20
0.7920696132621773
 30
0.0
 40
0.0445
  0
CIRCLE
  5
15C
330
37
100
AcDbEntity
  8
Visible (ANSI)
100
AcDbCircle
 10
1.608387382354949
 20
0.7920696132621773
 30
0.0
 40
0.0474999999999899
  0
CIRCLE
  5
15D
330
37
100
AcDbEntity
  8
Visible (ANSI)
100
AcDbCircle
 10
2.154372182354925
 20
0.7920696132621773
 30
0.0
 40
0.0474999999999899
  0
CIRCLE
  5
15E
330
37
100
AcDbEntity
  8
Visible (ANSI)
100
AcDbCircle
 10
1.608387382354949
 20
1.039069613262177
 30
0.0
 40
0.0499999999999899
  0
CIRCLE
  5
15F
330
37
100
AcDbEntity
  8
Visible (ANSI)
100
AcDbCircle
 10
2.014387382354914
 20
0.8890696132621773
 30
0.0
 40
0.0499999999999899
  0
CIRCLE
  5
160
330
37
100
AcDbEntity
  8
Visible (ANSI)
100
AcDbCircle
 10
1.807392433154944
 20
1.040074664062177
 30
0.0
 40
0.0474999999999899
  0
CIRCLE
  5
161
330
37
100
AcDbEntity
  8
Visible (ANSI)
100
AcDbCircle
 10
2.005382331554893
 20
1.040074664062177
 30
0.0
 40
0.0474999999999899
  0
CIRCLE
  5
162
330
37
100
AcDbEntity
  8
Visible (ANSI)
100
AcDbCircle
 10
2.154372182354925
 20
0.7920696132621773
 30
0.0
 40
0.0445
  0
CIRCLE
  5
163
330
37
100
AcDbEntity
  8
Visible (ANSI)
100
AcDbCircle
 10
1.608387382354949
 20
1.039069613262177
 30
0.0
 40
0.047
  0
CIRCLE
  5
164
330
37
100
AcDbEntity
  8
Visible (ANSI)
100
AcDbCircle
 10
2.014387382354914
 20
0.8890696132621773
 30
0.0
 40
0.047
  0
CIRCLE
  5
165
330
37
100
AcDbEntity
  8
Visible (ANSI)
100
AcDbCircle
 10
2.014387382354914
 20
0.8890696132621773
 30
0.0
 40
0.046875
  0
CIRCLE
  5
166
330
37
100
AcDbEntity
  8
Visible (ANSI)
100
AcDbCircle
 10
1.608387382354949
 20
1.039069613262177
 30
0.0
 40
0.046875
  0
CIRCLE
  5
167
330
37
100
AcDbEntity
  8
Visible (ANSI)
100
AcDbCircle
 10
1.708392482354867
 20
1.809608715934951
 30
0.0
 40
0.0445
  0
CIRCLE
  5
168
330
37
100
AcDbEntity
  8
Visible (ANSI)
100
AcDbCircle
 10
1.708392482354867
 20
1.809608715934951
 30
0.0
 40
0.0474999999999899
  0
CIRCLE
  5
169
330
37
100
AcDbEntity
  8
Visible (ANSI)
100
AcDbCircle
 10
2.15437218235488
 20
1.568603665934933
 30
0.0
 40
0.0474999999999899
  0
CIRCLE
  5
16A
330
37
100
AcDbEntity
  8
Visible (ANSI)
100
AcDbCircle
 10
2.124372182354846
 20
1.719608715934984
 30
0.0
 40
0.0499999999999899
  0
CIRCLE
  5
16B
330
37
100
AcDbEntity
  8
Visible (ANSI)
100
AcDbCircle
 10
1.56238738235485
 20
1.837608715934976
 30
0.0
 40
0.0499999999999899
  0
CIRCLE
  5
16C
330
37
100
AcDbEntity
  8
Visible (ANSI)
100
AcDbCircle
 10
1.906382331554867
 20
1.568603665135007
 30
0.0
 40
0.0474999999999899
  0
CIRCLE
  5
16D
330
37
100
AcDbEntity
  8
Visible (ANSI)
100
AcDbCircle
 10
1.708392433154873
 20
1.568603665135007
 30
0.0
 40
0.0474999999999899
  0
CIRCLE
  5
16E
330
37
100
AcDbEntity
  8
Visible (ANSI)
100
AcDbCircle
 10
2.15437218235488
 20
1.568603665934933
 30
0.0
 40
0.0445
  0
CIRCLE
  5
16F
330
37
100
AcDbEntity
  8
Visible (ANSI)
100
AcDbCircle
 10
1.708392433154873
 20
1.568603665135007
 30
0.0
 40
0.0445
  0
CIRCLE
  5
170
330
37
100
AcDbEntity
  8
Visible (ANSI)
100
AcDbCircle
 10
2.124372182354846
 20
1.719608715934984
 30
0.0
 40
0.047
  0
CIRCLE
  5
171
330
37
100
AcDbEntity
  8
Visible (ANSI)
100
AcDbCircle
 10
1.906382331554867
 20
1.568603665135007
 30
0.0
 40
0.0445
  0
CIRCLE
  5
172
330
37
100
AcDbEntity
  8
Visible (ANSI)
100
AcDbCircle
 10
1.56238738235485
 20
1.837608715934976
 30
0.0
 40
0.047
  0
LINE
  5
173
330
37
100
AcDbEntity
  8
Visible (ANSI)
100
AcDbLine
 10
1.577511592354876
 20
1.56960871593504
 30
0.0
 11
1.577511592354876
 21
1.469608715935077
 31
0.0
  0
LINE
  5
174
330
37
100
AcDbEntity
  8
Visible (ANSI)
100
AcDbLine
 10
2.269011582354894
 20
1.469608715935077
 30
0.0
 11
1.577511592354876
 21
1.469608715935077
 31
0.0
  0
LINE
  5
175
330
37
100
AcDbEntity
  8
Visible (ANSI)
100
AcDbLine
 10
2.269011582354894
 20
1.919608715935089
 30
0.0
 11
2.269011582354894
 21
1.469608715935077
 31
0.0
  0
LINE
  5
176
330
37
100
AcDbEntity
  8
Visible (ANSI)
100
AcDbLine
 10
1.369011592354927
 20
1.919608715935089
 30
0.0
 11
2.269011582354894
 21
1.919608715935089
 31
0.0
  0
LINE
  5
177
330
37
100
AcDbEntity
  8
Visible (ANSI)
100
AcDbLine
 10
1.369011592354927
 20
1.919608715935089
 30
0.0
 11
1.369011592354927
 21
1.491608715935034
 31
0.0
  0
LINE
  5
178
330
37
100
AcDbEntity
  8
Visible (ANSI)
100
AcDbLine
 10
1.369011592354927
 20
1.491608715935034
 30
0.0
 11
1.42901159235486
 21
1.491608715935034
 31
0.0
  0
LINE
  5
179
330
37
100
AcDbEntity
  8
Visible (ANSI)
100
AcDbLine
 10
1.42901159235486
 20
1.491608715935034
 30
0.0
 11
1.42901159235486
 21
1.56960871593504
 31
0.0
  0
ARC
  5
17A
330
37
100
AcDbEntity
  8
Visible (ANSI)
100
AcDbCircle
 10
1.503261592354845
 20
1.56960871593504
 30
0.0
 40
0.0742499999999858
100
AcDbArc
 50
0.0
 51
180.0
  0
LINE
  5
17B
330
37
100
AcDbEntity
  8
Visible (ANSI)
100
AcDbLine
 10
1.577511592354876
 20
1.469608715935077
 30
0.0
 11
1.559011592354901
 21
1.469608715935077
 31
0.0
  0
LINE
  5
17C
330
37
100
AcDbEntity
  8
Visible (ANSI)
100
AcDbLine
 10
1.559011592354901
 20
1.469608715935077
 30
0.0
 11
1.52751159235485
 21
1.469608715935077
 31
0.0
  0
LINE
  5
17D
330
37
100
AcDbEntity
  8
Visible (ANSI)
100
AcDbLine
 10
1.527511592354894
 20
1.469608715935077
 30
0.0
 11
1.509011592354922
 21
1.46960871593507
 31
0.0
  0
LINE
  5
17E
330
37
100
AcDbEntity
  8
Visible (ANSI)
100
AcDbLine
 10
1.439311592354904
 20
1.469608715935071
 30
0.0
 11
1.429011592354899
 21
1.469608715935077
 31
0.0
  0
LINE
  5
17F
330
37
100
AcDbEntity
  8
Visible (ANSI)
100
AcDbLine
 10
1.42901159235486
 20
1.469608715935077
 30
0.0
 11
1.369011592354927
 21
1.469608715935077
 31
0.0
  0
LINE
  5
180
330
37
100
AcDbEntity
  8
Visible (ANSI)
100
AcDbLine
 10
1.369011592354927
 20
1.469608715935073
 30
0.0
 11
1.369011592354927
 21
1.491608715934878
 31
0.0
  0
LINE
  5
181
330
37
100
AcDbEntity
  8
Visible (ANSI)
100
AcDbLine
 10
1.42901159235486
 20
1.488108715935008
 30
0.0
 11
1.44751159235488
 21
1.488108715935008
 31
0.0
  0
LINE
  5
182
330
37
100
AcDbEntity
  8
Visible (ANSI)
100
AcDbLine
 10
1.559011592354901
 20
1.469608715935077
 30
0.0
 11
1.559011592354901
 21
1.56960871593504
 31
0.0
  0
ARC
  5
183
330
37
100
AcDbEntity
  8
Visible (ANSI)
100
AcDbCircle
 10
1.503261592354845
 20
1.56960871593504
 30
0.0
 40
0.0557500000000106
100
AcDbArc
 50
0.0
 51
180.0
  0
ARC
  5
184
330
37
100
AcDbEntity
  8
Visible (ANSI)
100
AcDbCircle
 10
1.444011592354988
 20
1.481608715934858
 30
0.0
 40
0.0034999999998913
100
AcDbArc
 50
269.9999999985346
 51
0.0
  0
LINE
  5
185
330
37
100
AcDbEntity
  8
Visible (ANSI)
100
AcDbLine
 10
1.444011592354899
 20
1.478108715935012
 30
0.0
 11
1.439311592354904
 21
1.478108715935012
 31
0.0
  0
LINE
  5
186
330
37
100
AcDbEntity
  8
Visible (ANSI)
100
AcDbLine
 10
1.439311592354904
 20
1.478108715935012
 30
0.0
 11
1.439311592354904
 21
1.469608715935077
 31
0.0
  0
LINE
  5
187
330
37
100
AcDbEntity
  8
Visible (ANSI)
100
AcDbLine
 10
1.44751159235488
 20
1.56960871593504
 30
0.0
 11
1.44751159235488
 21
1.481608715935037
 31
0.0
  0
LINE
  5
188
330
37
100
AcDbEntity
  8
Visible (ANSI)
100
AcDbLine
 10
1.509011592354919
 20
1.488108715935008
 30
0.0
 11
1.52751159235485
 21
1.488108715935008
 31
0.0
  0
LINE
  5
189
330
37
100
AcDbEntity
  8
Visible (ANSI)
100
AcDbLine
 10
1.42901159235486
 20
1.491608715935034
 30
0.0
 11
1.42901159235486
 21
1.469608715935073
 31
0.0
  0
LINE
  5
18A
330
37
100
AcDbEntity
  8
Visible (ANSI)
100
AcDbLine
 10
1.52751159235485
 20
1.488108715935008
 30
0.0
 11
1.52751159235485
 21
1.469608715935077
 31
0.0
  0
LINE
  5
18B
330
37
100
AcDbEntity
  8
Visible (ANSI)
100
AcDbLine
 10
1.509011592354919
 20
1.469608715935077
 30
0.0
 11
1.509011592354919
 21
1.488108715935008
 31
0.0
  0
LINE
  5
18C
330
37
100
AcDbEntity
  8
Visible (ANSI)
100
AcDbLine
 10
1.509011592354919
 20
1.469608715935077
 30
0.0
 11
1.439311592354904
 21
1.469608715935077
 31
0.0
  0
CIRCLE
  5
18D
330
37
100
AcDbEntity
  8
Visible (ANSI)
100
AcDbCircle
 10
1.56238738235485
 20
1.837608715934976
 30
0.0
 40
0.046875
  0
CIRCLE
  5
18E
330
37
100
AcDbEntity
  8
Visible (ANSI)
100
AcDbCircle
 10
2.124372182354846
 20
1.719608715934984
 30
0.0
 40
0.046875
  0
LINE
  5
18F
330
37
100
AcDbEntity
  8
Visible (ANSI)
100
AcDbLine
 10
0.8949556638829593
 20
1.919608715935089
 30
0.0
 11
0.8949556638830863
 21
1.491608715935034
 31
0.0
  0
LINE
  5
190
330
37
100
AcDbEntity
  8
Visible (ANSI)
100
AcDbLine
 10
0.4449556638829594
 20
1.91960871593491
 30
0.0
 11
0.4449556638830929
 21
1.469608715934898
 31
0.0
  0
LINE
  5
191
330
37
100
AcDbEntity
  8
Visible (ANSI)
100
AcDbLine
 10
0.4449556638829594
 20
1.91960871593491
 30
0.0
 11
0.8949556638829593
 21
1.919608715935089
 31
0.0
  0
LINE
  5
192
330
37
100
AcDbEntity
  8
Visible (ANSI)
100
AcDbLine
 10
0.8729556638830928
 20
1.469608715935077
 30
0.0
 11
0.4449556638830929
 21
1.469608715934898
 31
0.0
  0
ARC
  5
193
330
37
100
AcDbEntity
  8
Visible (ANSI)
100
AcDbCircle
 10
0.8949556638828937
 20
1.469608715935077
 30
0.0
 40
0.021999999999801
100
AcDbArc
 50
89.99999999949867
 51
180.0
  0
LINE
  5
194
330
37
100
AcDbEntity
  8
Visible (ANSI)
100
AcDbLine
 10
0.8949556638831083
 20
1.481608715935037
 30
0.0
 11
0.8949556638831085
 21
1.478108715934967
 31
0.0
  0
LINE
  5
195
330
37
100
AcDbEntity
  8
Visible (ANSI)
100
AcDbLine
 10
0.8829556638831084
 20
1.481608715935037
 30
0.0
 11
0.8864556638831086
 21
1.478108715935038
 31
0.0
  0
LINE
  5
196
330
37
100
AcDbEntity
  8
Visible (ANSI)
100
AcDbLine
 10
0.8864556638831073
 20
1.478108715935012
 30
0.0
 11
0.8949556638831072
 21
1.478108715935012
 31
0.0
  0
LINE
  5
197
330
37
100
AcDbEntity
  8
Visible (ANSI)
100
AcDbLine
 10
0.8949556638831072
 20
1.478108715935012
 30
0.0
 11
0.8949556638831099
 21
1.469608715935077
 31
0.0
  0
LINE
  5
198
330
37
100
AcDbEntity
  8
Visible (ANSI)
100
AcDbLine
 10
0.8864556638831073
 20
1.478108715935012
 30
0.0
 11
0.8864556638831098
 21
1.469608715935077
 31
0.0
  0
LINE
  5
199
330
37
100
AcDbEntity
  8
Visible (ANSI)
100
AcDbLine
 10
0.8949556638831099
 20
1.469608715935077
 30
0.0
 11
0.8864556638831098
 21
1.469608715935077
 31
0.0
  0
LINE
  5
19A
330
37
100
AcDbEntity
  8
Visible (ANSI)
100
AcDbLine
 10
0.8864556638831111
 20
1.469608715935079
 30
0.0
 11
0.8829556638831117
 21
1.469608715935077
 31
0.0
  0
LINE
  5
19B
330
37
100
AcDbEntity
  8
Visible (ANSI)
100
AcDbLine
 10
0.8949556638831053
 20
1.491608715935034
 30
0.0
 11
0.8949556638831083
 21
1.481608715935037
 31
0.0
  0
LINE
  5
19C
330
37
100
AcDbEntity
  8
Visible (ANSI)
100
AcDbLine
 10
0.8829556638831117
 20
1.469608715935077
 30
0.0
 11
0.872955663883112
 21
1.469608715935077
 31
0.0
  0
CIRCLE
  5
19D
330
37
100
AcDbEntity
  8
Visible (ANSI)
100
AcDbCircle
 10
0.5649556638829959
 20
1.799608715934776
 30
0.0
 40
0.043
  0
CIRCLE
  5
19E
330
37
100
AcDbEntity
  8
Visible (ANSI)
100
AcDbCircle
 10
0.5649556638829951
 20
1.799608715934776
 30
0.0
 40
0.0459999999999452
  0
CIRCLE
  5
19F
330
37
100
AcDbEntity
  8
Visible (ANSI)
100
AcDbCircle
 10
0.696081882008034
 20
1.668482497810031
 30
0.0
 40
0.0347499999999452
  0
CIRCLE
  5
1A0
330
37
100
AcDbEntity
  8
Visible (ANSI)
100
AcDbCircle
 10
0.6960818820080347
 20
1.668482497810031
 30
0.0
 40
0.03175
  0
CIRCLE
  5
1A1
330
37
100
AcDbEntity
  8
Hidden Narrow (ANSI)
 48
1.045677661895751
100
AcDbCircle
 10
0.5649556638829959
 20
1.799608715934776
 30
0.0
 40
0.043
  0
CIRCLE
  5
1A2
330
37
100
AcDbEntity
  8
Hidden Narrow (ANSI)
 48
1.066956043243408
100
AcDbCircle
 10
0.5649556638829951
 20
1.799608715934776
 30
0.0
 40
0.05265
  0
ELLIPSE
  5
1A3
330
37
100
AcDbEntity
  8
Visible (ANSI)
100
AcDbEllipse
 10
0.6778414115808215
 20
0.9863572188326033
 30
0.0
 11
-0.0166552000616369
 21
0.0289222221813461
 31
0.0
210
0.0
220
0.0
230
1.0
 40
0.5780931159156001
 41
2.387296791175315
 42
7.037481169591463
  0
ELLIPSE
  5
1A4
330
37
100
AcDbEntity
  8
Visible (ANSI)
100
AcDbEllipse
 10
0.6794324018384966
 20
0.9872734091887169
 30
0.0
 11
-0.017778022537698
 21
0.0308720349126611
 31
0.0
210
0.0
220
0.0
230
1.0
 40
0.5780931159156
 41
0.0
 42
6.283185307179381
  0
ELLIPSE
  5
1A5
330
37
100
AcDbEntity
  8
Visible (ANSI)
100
AcDbEllipse
 10
0.9159488544447084
 20
0.7032979032049935
 30
0.0
 11
-0.017778022537698
 21
0.0308720349126611
 31
0.0
210
0.0
220
0.0
230
1.0
 40
0.5780931159156
 41
0.0
 42
6.283185307179384
  0
ELLIPSE
  5
1A6
330
37
100
AcDbEntity
  8
Visible (ANSI)
100
AcDbEllipse
 10
0.9000389518679572
 20
0.8050501151134501
 30
0.0
 11
-0.0187137079344192
 21
0.032496878855433
 31
0.0
210
0.0
220
0.0
230
1.0
 40
0.5780931159156001
 41
0.0
 42
6.283185307179377
  0
ELLIPSE
  5
1A7
330
37
100
AcDbEntity
  8
Visible (ANSI)
100
AcDbEllipse
 10
0.6020015046150938
 20
1.049031386994252
 30
0.0
 11
-0.0187137079344192
 21
0.032496878855433
 31
0.0
210
0.0
220
0.0
230
1.0
 40
0.5780931159156001
 41
0.0
 42
6.283185307179381
  0
ELLIPSE
  5
1A8
330
37
100
AcDbEntity
  8
Visible (ANSI)
100
AcDbEllipse
 10
0.7844323755701065
 20
0.7790332059466963
 30
0.0
 11
-0.017778022537698
 21
0.0308720349126611
 31
0.0
210
0.0
220
0.0
230
1.0
 40
0.5780931159156
 41
0.0
 42
6.283185307179381
  0
ELLIPSE
  5
1A9
330
37
100
AcDbEntity
  8
Visible (ANSI)
100
AcDbEllipse
 10
0.6794323757462931
 20
0.8394986844486419
 30
0.0
 11
-0.017778022537698
 21
0.0308720349126611
 31
0.0
210
0.0
220
0.0
230
1.0
 40
0.5780931159156
 41
0.0
 42
6.283185307179381
  0
ELLIPSE
  5
1AA
330
37
100
AcDbEntity
  8
Visible (ANSI)
100
AcDbEllipse
 10
0.9143578641870334
 20
0.7023817128488799
 30
0.0
 11
-0.0166552000616369
 21
0.0289222221813461
 31
0.0
210
0.0
220
0.0
230
1.0
 40
0.5780931159156001
 41
2.387296791175319
 42
7.037481169591459
  0
ELLIPSE
  5
1AB
330
37
100
AcDbEntity
  8
Visible (ANSI)
100
AcDbEllipse
 10
0.677841385488618
 20
0.8385824940925283
 30
0.0
 11
-0.0166552000616369
 21
0.0289222221813461
 31
0.0
210
0.0
220
0.0
230
1.0
 40
0.5780931159156001
 41
2.387296791175315
 42
7.037481169591463
  0
ELLIPSE
  5
1AC
330
37
100
AcDbEntity
  8
Visible (ANSI)
100
AcDbEllipse
 10
0.8984479616103046
 20
0.8041339247573363
 30
0.0
 11
-0.0175908854583627
 21
0.0305470661241264
 31
0.0
210
0.0
220
0.0
230
0.9999999999999998
 40
0.5780931159156001
 41
2.38556573942257
 42
7.039212221345546
  0
ELLIPSE
  5
1AD
330
37
100
AcDbEntity
  8
Visible (ANSI)
100
AcDbEllipse
 10
0.782841385312409
 20
0.7781170155905827
 30
0.0
 11
-0.0166552000616202
 21
0.0289222221813171
 31
0.0
210
0.0
220
0.0
230
0.9999999999999998
 40
0.5780931159156001
 41
2.387296791176314
 42
7.037481169591429
  0
ELLIPSE
  5
1AE
330
37
100
AcDbEntity
  8
Visible (ANSI)
100
AcDbEllipse
 10
0.6004105143574411
 20
1.048115196638138
 30
0.0
 11
-0.0175908854583627
 21
0.0305470661241264
 31
0.0
210
0.0
220
0.0
230
0.9999999999999998
 40
0.5780931159156001
 41
2.385565739422573
 42
7.039212221345546
  0
ELLIPSE
  5
1AF
330
37
100
AcDbEntity
  8
Visible (ANSI)
100
AcDbEllipse
 10
0.6788913060517875
 20
0.5667855401560608
 30
0.0
 11
-0.0299419326951732
 21
0.0519950061688709
 31
0.0
210
0.0
220
0.0
230
0.9999999999999998
 40
0.5780931159156001
 41
3.693728282972351
 42
4.191594682322824
  0
ELLIPSE
  5
1B0
330
37
100
AcDbEntity
  8
Visible (ANSI)
100
AcDbEllipse
 10
0.6773003157935081
 20
0.5658693498001261
 30
0.0
 11
0.0310647551716503
 21
-0.0539448189009197
 31
0.0
210
0.0
220
0.0
230
1.0
 40
0.5780931159156001
 41
0.8055010977693157
 42
1.072482327205741
  0
ELLIPSE
  5
1B1
330
37
100
AcDbEntity
  8
Visible (ANSI)
100
AcDbEllipse
 10
0.6794350543375199
 20
0.7201713674102014
 30
0.0
 11
0.0333750000000055
 21
0.0000000000000095
 31
0.0
210
0.0
220
0.0
230
1.0
 40
0.5758617009854518
 41
2.393467717747634
 42
7.031310243021659
  0
ELLIPSE
  5
1B2
330
37
100
AcDbEntity
  8
Visible (ANSI)
100
AcDbEllipse
 10
0.7844350541613109
 20
0.6597058889082556
 30
0.0
 11
0.0333750000000055
 21
0.0000000000000095
 31
0.0
210
0.0
220
0.0
230
1.0
 40
0.5758617009854518
 41
2.393467717747632
 42
7.031310243021655
  0
ELLIPSE
  5
1B3
330
37
100
AcDbEntity
  8
Visible (ANSI)
100
AcDbEllipse
 10
0.4423721487623468
 20
0.7052069249283253
 30
0.0
 11
0.0333750000000055
 21
0.0000000000000095
 31
0.0
210
0.0
220
0.0
230
1.0
 40
0.5758617009854518
 41
2.393467717747634
 42
7.031310243021659
  0
ELLIPSE
  5
1B4
330
37
100
AcDbEntity
  8
Visible (ANSI)
100
AcDbEllipse
 10
0.4423721487623468
 20
0.7033674438973078
 30
0.0
 11
0.0356249999999924
 21
0.0000000000000101
 31
0.0
210
0.0
220
0.0
230
1.0
 40
0.5758617009854518
 41
0.0000000000000004
 42
6.283185307179586
  0
ELLIPSE
  5
1B5
330
37
100
AcDbEntity
  8
Visible (ANSI)
100
AcDbEllipse
 10
0.7319243146409282
 20
0.5366254411305495
 30
0.0
 11
0.0356249999999924
 21
0.0000000000000101
 31
0.0
210
0.0
220
0.0
230
1.0
 40
0.5758617009854518
 41
0.0000000000000004
 42
6.283185307179586
  0
ELLIPSE
  5
1B6
330
37
100
AcDbEntity
  8
Visible (ANSI)
100
AcDbEllipse
 10
0.5733636799771431
 20
0.7788004498774902
 30
0.0
 11
0.0374999999999924
 21
0.0000000000000107
 31
0.0
210
0.0
220
0.0
230
1.0
 40
0.5758617009854519
 41
0.0000000000000003
 42
6.283185307179586
  0
ELLIPSE
  5
1B7
330
37
100
AcDbEntity
  8
Visible (ANSI)
100
AcDbEllipse
 10
0.7091281819649647
 20
0.6089998372260204
 30
0.0
 11
0.0374999999999924
 21
0.0000000000000107
 31
0.0
210
0.0
220
0.0
230
1.0
 40
0.5758617009854519
 41
0.0000000000000003
 42
6.283185307179586
  0
ELLIPSE
  5
1B8
330
37
100
AcDbEntity
  8
Visible (ANSI)
100
AcDbEllipse
 10
0.6794350543375199
 20
0.7183318863793629
 30
0.0
 11
0.0356249999999924
 21
0.0000000000000101
 31
0.0
210
0.0
220
0.0
230
1.0
 40
0.5758617009854518
 41
0.0000000000000004
 42
6.283185307179586
  0
ELLIPSE
  5
1B9
330
37
100
AcDbEntity
  8
Visible (ANSI)
100
AcDbEllipse
 10
0.7844350541613109
 20
0.6578664078772381
 30
0.0
 11
0.0356249999999924
 21
0.0000000000000101
 31
0.0
210
0.0
220
0.0
230
1.0
 40
0.5758617009854518
 41
0.0000000000000004
 42
6.283185307179586
  0
ELLIPSE
  5
1BA
330
37
100
AcDbEntity
  8
Visible (ANSI)
100
AcDbEllipse
 10
0.7319243146409282
 20
0.5384649221615671
 30
0.0
 11
0.0333749999999899
 21
0.0000000000000095
 31
0.0
210
0.0
220
0.0
230
1.0
 40
0.5758617009854516
 41
2.393467717748095
 42
7.031310243021637
  0
ELLIPSE
  5
1BB
330
37
100
AcDbEntity
  8
Visible (ANSI)
100
AcDbEllipse
 10
0.5733636799771431
 20
0.7806399309085076
 30
0.0
 11
0.0352500000000013
 21
0.00000000000001
 31
0.0
210
0.0
220
0.0
230
1.0
 40
0.5758617009854517
 41
2.391716496292431
 42
7.033061464476713
  0
ELLIPSE
  5
1BC
330
37
100
AcDbEntity
  8
Visible (ANSI)
100
AcDbEllipse
 10
0.7091281819650094
 20
0.610839318257038
 30
0.0
 11
0.0352499999999845
 21
0.00000000000001
 31
0.0
210
0.0
220
0.0
230
1.0
 40
0.5758617009854517
 41
2.391716496292842
 42
7.03306146447765
  0
ELLIPSE
  5
1BD
330
37
100
AcDbEntity
  8
Visible (ANSI)
100
AcDbEllipse
 10
0.3260305672094633
 20
0.9830905090460529
 30
0.0
 11
-0.0160937888236602
 21
-0.0279473158158061
 31
0.0
210
0.0
220
0.0
230
0.9999999999999998
 40
0.5780931159157104
 41
2.388430511586197
 42
7.036347449180324
  0
ELLIPSE
  5
1BE
330
37
100
AcDbEntity
  8
Visible (ANSI)
100
AcDbEllipse
 10
0.3244395769517658
 20
0.9840066994018085
 30
0.0
 11
0.0172166112996347
 21
0.0298971285469768
 31
0.0
210
0.0
220
0.0
230
0.9999999999999998
 40
0.5780931159157101
 41
0.0000000000000016
 42
6.283185307179586
  0
ELLIPSE
  5
1BF
330
37
100
AcDbEntity
  8
Visible (ANSI)
100
AcDbEllipse
 10
0.3939797554724197
 20
0.9436508279271388
 30
0.0
 11
0.0130060270143929
 21
0.0225853308045009
 31
0.0
210
0.0
220
0.0
230
1.0
 40
0.5780931159157103
 41
0.0000000000000017
 42
6.283185307179586
  0
ELLIPSE
  5
1C0
330
37
100
AcDbEntity
  8
Visible (ANSI)
100
AcDbEllipse
 10
0.3955707457300277
 20
0.9427346375708461
 30
0.0
 11
-0.0118832045383105
 21
-0.0206355180731429
 31
0.0
210
0.0
220
0.0
230
1.0
 40
0.5780931159157104
 41
2.400276132156896
 42
7.024501828618327
  0
LINE
  5
1C1
330
37
100
AcDbEntity
  8
Visible (ANSI)
100
AcDbLine
 10
0.6100223282034872
 20
0.8800855297860877
 30
0.0
 11
0.6100223282034872
 21
0.8187694954229542
 31
0.0
  0
LINE
  5
1C2
330
37
100
AcDbEntity
  8
Visible (ANSI)
100
AcDbLine
 10
0.9767455772931034
 20
0.6075876214114448
 30
0.0
 11
0.6100223282034872
 21
0.8187694954229542
 31
0.0
  0
LINE
  5
1C3
330
37
100
AcDbEntity
  8
Visible (ANSI)
100
AcDbLine
 10
0.9767455772930365
 20
0.8835097760458134
 30
0.0
 11
0.9767455772931034
 21
0.6075876214114448
 31
0.0
  0
LINE
  5
1C4
330
37
100
AcDbEntity
  8
Visible (ANSI)
100
AcDbLine
 10
0.4994485052954022
 20
1.158366879801579
 30
0.0
 11
0.9767455772930365
 21
0.8835097760458134
 31
0.0
  0
LINE
  5
1C5
330
37
100
AcDbEntity
  8
Visible (ANSI)
100
AcDbLine
 10
0.4994485052954022
 20
1.158366879801579
 30
0.0
 11
0.4994485052954693
 21
0.8959342527271108
 31
0.0
  0
LINE
  5
1C6
330
37
100
AcDbEntity
  8
Visible (ANSI)
100
AcDbLine
 10
0.4994485052954693
 20
0.8959342527271108
 30
0.0
 11
0.531268310448815
 21
0.8776104456064498
 31
0.0
  0
LINE
  5
1C7
330
37
100
AcDbEntity
  8
Visible (ANSI)
100
AcDbLine
 10
0.531268310448815
 20
0.8776104456064498
 30
0.0
 11
0.531268310448815
 21
0.9254369524096832
 31
0.0
  0
ELLIPSE
  5
1C8
330
37
100
AcDbEntity
  8
Visible (ANSI)
100
AcDbEllipse
 10
0.5706453193261398
 20
0.9027612410979749
 30
0.0
 11
-0.0277898562826098
 21
0.0482578651003202
 31
0.0
210
0.0
220
0.0
230
0.9999999999999998
 40
0.5780931159156001
 41
3.928924525410067
 42
7.07051717899986
  0
LINE
  5
1C9
330
37
100
AcDbEntity
  8
Visible (ANSI)
100
AcDbLine
 10
0.2607999666450297
 20
0.7450161717621644
 30
0.0
 11
0.738097038642664
 21
0.4701590680063985
 31
0.0
  0
LINE
  5
1CA
330
37
100
AcDbEntity
  8
Visible (ANSI)
100
AcDbLine
 10
0.2607999666449626
 20
1.020938326396533
 30
0.0
 11
0.2607999666450297
 21
0.7450161717621644
 31
0.0
  0
LINE
  5
1CB
330
37
100
AcDbEntity
  8
Visible (ANSI)
100
AcDbLine
 10
0.2607999666449626
 20
1.020938326396533
 30
0.0
 11
0.4994485052954022
 21
1.158366879801579
 31
0.0
  0
LINE
  5
1CC
330
37
100
AcDbEntity
  8
Visible (ANSI)
100
AcDbLine
 10
0.6100223282034872
 20
0.8187694954229542
 30
0.0
 11
0.6002112216145278
 21
0.813119654894154
 31
0.0
  0
LINE
  5
1CD
330
37
100
AcDbEntity
  8
Visible (ANSI)
100
AcDbLine
 10
0.6002112216145278
 20
0.813119654894154
 30
0.0
 11
0.590400115025591
 21
0.8187694954229542
 31
0.0
  0
LINE
  5
1CE
330
37
100
AcDbEntity
  8
Visible (ANSI)
100
AcDbLine
 10
0.590400115025591
 20
0.8187694954229542
 30
0.0
 11
0.6002112216145502
 21
0.8244193359517545
 31
0.0
  0
LINE
  5
1CF
330
37
100
AcDbEntity
  8
Visible (ANSI)
100
AcDbLine
 10
0.6002112216145502
 20
0.8244193359517545
 30
0.0
 11
0.5835058239089839
 21
0.8340393346901418
 31
0.0
  0
LINE
  5
1D0
330
37
100
AcDbEntity
  8
Visible (ANSI)
100
AcDbLine
 10
0.5835058239089839
 20
0.8340393346901418
 30
0.0
 11
0.5304728153199998
 21
0.8034996561557667
 31
0.0
  0
ELLIPSE
  5
1D1
330
37
100
AcDbEntity
  8
Visible (ANSI)
100
AcDbEllipse
 10
0.5043540585899601
 20
0.8185404478339707
 30
0.0
 11
-0.0369374999999963
 21
-0.0000000000000083
 31
0.0
210
0.0
220
0.0
230
1.0
 40
0.5758617009854518
 41
5.497787143781927
 42
8.639379797371725
  0
LINE
  5
1D2
330
37
100
AcDbEntity
  8
Visible (ANSI)
100
AcDbLine
 10
0.478235301859831
 20
0.8335812395121745
 30
0.0
 11
0.5196010485592497
 21
0.85740218876898
 31
0.0
  0
LINE
  5
1D3
330
37
100
AcDbEntity
  8
Visible (ANSI)
100
AcDbLine
 10
0.5196010485592497
 20
0.85740218876898
 30
0.0
 11
0.487781243405904
 21
0.875725995889641
 31
0.0
  0
LINE
  5
1D4
330
37
100
AcDbEntity
  8
Visible (ANSI)
100
AcDbLine
 10
0.487781243405904
 20
0.875725995889641
 30
0.0
 11
0.2607999666450297
 21
0.7450161717621644
 31
0.0
  0
LINE
  5
1D5
330
37
100
AcDbEntity
  8
Visible (ANSI)
100
AcDbLine
 10
0.738097038642664
 20
0.4701590680063985
 30
0.0
 11
0.9767455772931034
 21
0.6075876214114448
 31
0.0
  0
ELLIPSE
  5
1D6
330
37
100
AcDbEntity
  8
Visible (ANSI)
100
AcDbEllipse
 10
0.4994485052953798
 20
0.8824447251672108
 30
0.0
 11
0.0082340314910658
 21
0.0142986266962674
 31
0.0
210
0.0
220
0.0
230
0.9999999999999998
 40
0.5780931159157106
 41
0.7834644549659151
 42
2.354260781769854
  0
LINE
  5
1D7
330
37
100
AcDbEntity
  8
Visible (ANSI)
100
AcDbLine
 10
0.6002112216145278
 20
0.8244193359517545
 30
0.0
 11
0.6002112216145278
 21
0.813119654894154
 31
0.0
  0
ELLIPSE
  5
1D8
330
37
100
AcDbEntity
  8
Visible (ANSI)
100
AcDbEllipse
 10
0.5608342127371582
 20
0.8971114005691745
 30
0.0
 11
-0.0277898562825705
 21
0.0482578651002518
 31
0.0
210
0.0
220
0.0
230
1.0
 40
0.5780931159155999
 41
5.36243876986165
 42
6.106424490416564
  0
LINE
  5
1D9
330
37
100
AcDbEntity
  8
Visible (ANSI)
100
AcDbLine
 10
0.5230213297309101
 20
0.8689138236901973
 30
0.0
 11
0.5312683104488374
 21
0.8641647033459955
 31
0.0
  0
LINE
  5
1DA
330
37
100
AcDbEntity
  8
Visible (ANSI)
100
AcDbLine
 10
0.5312683104488374
 20
0.8776104456066288
 30
0.0
 11
0.5312683104488374
 21
0.8641647033459955
 31
0.0
  0
ELLIPSE
  5
1DB
330
37
100
AcDbEntity
  8
Visible (ANSI)
100
AcDbEllipse
 10
0.5608342127371135
 20
0.8971114005691745
 30
0.0
 11
-0.0208657843468499
 21
0.0362340199237651
 31
0.0
210
0.0
220
0.0
230
0.9999999999999998
 40
0.5780931159156
 41
0.0
 42
0.7873318718202729
  0
LINE
  5
1DC
330
37
100
AcDbEntity
  8
Visible (ANSI)
100
AcDbLine
 10
0.6002112216145502
 20
0.8244193359517545
 30
0.0
 11
0.6002112216145502
 21
0.8857353703150671
 31
0.0
  0
ELLIPSE
  5
1DD
330
37
100
AcDbEntity
  8
Visible (ANSI)
100
AcDbEllipse
 10
0.5706453193261398
 20
0.9027612410979749
 30
0.0
 11
-0.0208657843468855
 21
0.036234019923822
 31
0.0
210
0.0
220
0.0
230
1.0
 40
0.5780931159156
 41
3.928924525409829
 42
7.070517178999622
  0
LINE
  5
1DE
330
37
100
AcDbEntity
  8
Visible Narrow (ANSI)
100
AcDbLine
 10
0.5410794170377966
 20
0.9197871118808828
 30
0.0
 11
0.531268310448815
 21
0.9141372713520825
 31
0.0
  0
ELLIPSE
  5
1DF
330
37
100
AcDbEntity
  8
Visible (ANSI)
100
AcDbEllipse
 10
0.5392232617372354
 20
0.8668978903896938
 30
0.0
 11
0.0013099595553688
 21
-0.0022747815198102
 31
0.0
210
0.0
220
0.0
230
1.0
 40
0.5780931159156
 41
5.499720852179437
 42
7.070517179051049
  0
LINE
  5
1E0
330
37
100
AcDbEntity
  8
Visible Narrow (ANSI)
100
AcDbLine
 10
0.5410794170377966
 20
0.8658290016412825
 30
0.0
 11
0.5392160692938379
 21
0.8647559710398555
 31
0.0
  0
LINE
  5
1E1
330
37
100
AcDbEntity
  8
Visible (ANSI)
100
AcDbLine
 10
0.5392232617371907
 20
0.864751829187198
 30
0.0
 11
0.5367307103335055
 21
0.8661871940782338
 31
0.0
  0
LINE
  5
1E2
330
37
100
AcDbEntity
  8
Visible (ANSI)
100
AcDbLine
 10
0.5322229046034558
 20
0.8635913214027278
 30
0.0
 11
0.5367307103335055
 21
0.8661871940782338
 31
0.0
  0
LINE
  5
1E3
330
37
100
AcDbEntity
  8
Visible (ANSI)
100
AcDbLine
 10
0.5367307103335055
 20
0.8661871940782338
 30
0.0
 11
0.5367307103335055
 21
0.8609753311573754
 31
0.0
  0
LINE
  5
1E4
330
37
100
AcDbEntity
  8
Visible (ANSI)
100
AcDbLine
 10
0.5322229046034558
 20
0.8635913214027278
 30
0.0
 11
0.5322229046034558
 21
0.8583794584818695
 31
0.0
  0
LINE
  5
1E5
330
37
100
AcDbEntity
  8
Visible (ANSI)
100
AcDbLine
 10
0.5367307103335055
 20
0.8609753311573754
 30
0.0
 11
0.5322229046034558
 21
0.8583794584818695
 31
0.0
  0
LINE
  5
1E6
330
37
100
AcDbEntity
  8
Visible (ANSI)
100
AcDbLine
 10
0.5322229046034558
 20
0.8583794584818695
 30
0.0
 11
0.5347154560071409
 21
0.8569440935908337
 31
0.0
  0
ELLIPSE
  5
1E7
330
37
100
AcDbEntity
  8
Visible (ANSI)
100
AcDbEllipse
 10
0.5328593007065572
 20
0.8558752048422434
 30
0.0
 11
0.0026249999999627
 21
0.0000000000000007
 31
0.0
210
0.0
220
0.0
230
1.0
 40
0.5758617009854517
 41
5.497787143767801
 42
7.068583470589678
  0
LINE
  5
1E8
330
37
100
AcDbEntity
  8
Visible Narrow (ANSI)
100
AcDbLine
 10
0.5347154560071185
 20
0.8569440935910128
 30
0.0
 11
0.5347154560071185
 21
0.854806316093653
 31
0.0
  0
LINE
  5
1E9
330
37
100
AcDbEntity
  8
Visible (ANSI)
100
AcDbLine
 10
0.5410794170377966
 20
0.9197871118808828
 30
0.0
 11
0.5410794170377966
 21
0.8658290016412825
 31
0.0
  0
LINE
  5
1EA
330
37
100
AcDbEntity
  8
Visible (ANSI)
100
AcDbLine
 10
0.5312683104488374
 20
0.8641647033459955
 30
0.0
 11
0.5196011100207935
 21
0.8574460094617343
 31
0.0
  0
LINE
  5
1EB
330
37
100
AcDbEntity
  8
Visible Narrow (ANSI)
100
AcDbLine
 10
0.4880464084488125
 20
0.8392310800411539
 30
0.0
 11
0.4880464084488125
 21
0.8279313989833742
 31
0.0
  0
LINE
  5
1EC
330
37
100
AcDbEntity
  8
Visible (ANSI)
100
AcDbLine
 10
0.5347154560071185
 20
0.854806316093653
 30
0.0
 11
0.4880464084488125
 21
0.8279313989833742
 31
0.0
  0
ELLIPSE
  5
1ED
330
37
100
AcDbEntity
  8
Visible (ANSI)
100
AcDbEllipse
 10
0.5043540585899601
 20
0.8185404478339707
 30
0.0
 11
-0.0230625000000149
 21
-0.0000000000000066
 31
0.0
210
0.0
220
0.0
230
1.0
 40
0.5758617009854519
 41
5.497787143782692
 42
8.639379797372484
  0
ELLIPSE
  5
1EE
330
37
100
AcDbEntity
  8
Visible (ANSI)
100
AcDbEllipse
 10
0.5043540585900944
 20
0.8298839141910169
 30
0.0
 11
-0.0230625000001526
 21
-0.0000000000000066
 31
0.0
210
0.0
220
0.0
230
1.0
 40
0.5758617009854516
 41
5.566082909389445
 42
6.283185307177328
  0
LINE
  5
1EF
330
37
100
AcDbEntity
  8
Visible Narrow (ANSI)
100
AcDbLine
 10
0.6100223282034872
 20
0.8800855297860877
 30
0.0
 11
0.6002112216145055
 21
0.8744356892572874
 31
0.0
  0
LINE
  5
1F0
330
37
100
AcDbEntity
  8
Visible (ANSI)
100
AcDbLine
 10
0.573694717320047
 20
0.8510326415761674
 30
0.0
 11
0.5835058239089839
 21
0.8453828010471882
 31
0.0
  0
ELLIPSE
  5
1F1
330
37
100
AcDbEntity
  8
Visible (ANSI)
100
AcDbEllipse
 10
0.5043540585900049
 20
0.8298839141910169
 30
0.0
 11
-0.0369375000000797
 21
-0.0000000000000105
 31
0.0
210
0.0
220
0.0
230
1.0
 40
0.5758617009854517
 41
0.2699081832248532
 42
0.9949396348946699
  0
LINE
  5
1F2
330
37
100
AcDbEntity
  8
Visible (ANSI)
100
AcDbLine
 10
0.5835058239089839
 20
0.8453828010471882
 30
0.0
 11
0.573694717320047
 21
0.8397329605183879
 31
0.0
  0
ELLIPSE
  5
1F3
330
37
100
AcDbEntity
  8
Visible (ANSI)
100
AcDbEllipse
 10
0.5312683104487255
 20
0.8641209180465498
 30
0.0
 11
-0.0082340314911221
 21
-0.0142986266963692
 31
0.0
210
0.0
220
0.0
230
1.0
 40
0.5780931159157103
 41
3.925057108555229
 42
5.495853435359165
  0
LINE
  5
1F4
330
37
100
AcDbEntity
  8
Visible (ANSI)
100
AcDbLine
 10
0.5835058239089839
 20
0.8453828010471882
 30
0.0
 11
0.5835058239089839
 21
0.8340393346901418
 31
0.0
  0
LINE
  5
1F5
330
37
100
AcDbEntity
  8
Visible Narrow (ANSI)
100
AcDbLine
 10
0.5304728153199998
 20
0.8147993372135465
 30
0.0
 11
0.5304728153199998
 21
0.8034996561557667
 31
0.0
  0
LINE
  5
1F6
330
37
100
AcDbEntity
  8
Visible (ANSI)
100
AcDbLine
 10
0.573694717320047
 20
0.8396891752189421
 30
0.0
 11
0.573694717320047
 21
0.8510326415761674
 31
0.0
  0
LINE
  5
1F7
330
37
100
AcDbEntity
  8
Visible (ANSI)
100
AcDbLine
 10
0.5206617087310629
 20
0.8091494966845671
 30
0.0
 11
0.573694717320047
 21
0.8396891752189421
 31
0.0
  0
LINE
  5
1F8
330
37
100
AcDbEntity
  8
Visible (ANSI)
100
AcDbLine
 10
0.573694717320047
 20
0.8396891752189421
 30
0.0
 11
0.5367307103335055
 21
0.8609753311573754
 31
0.0
  0
LINE
  5
1F9
330
37
100
AcDbEntity
  8
Visible (ANSI)
100
AcDbLine
 10
0.5497795349792411
 20
0.9389952610216658
 30
0.0
 11
0.5399684283902819
 21
0.9333454204928655
 31
0.0
  0
LINE
  5
1FA
330
37
100
AcDbEntity
  8
Visible (ANSI)
100
AcDbLine
 10
0.4812915585899228
 20
0.8298839141910169
 30
0.0
 11
0.4812915585899228
 21
0.8185404478339707
 31
0.0
  0
POLYLINE
  5
1FB
330
37
100
AcDbEntity
  8
Visible (ANSI)
100
AcDb2dPolyline
 66
     1
 10
0.0
 20
0.0
 30
0.0
 70
   128
  0
VERTEX
  5
1FC
330
1FB
100
AcDbEntity
  8
Visible (ANSI)
100
AcDbVertex
100
AcDb2dVertex
 10
0.7000743574394171
 20
0.5442212873212278
 30
0.0
  0
VERTEX
  5
1FD
330
1FB
100
AcDbEntity
  8
Visible (ANSI)
100
AcDbVertex
100
AcDb2dVertex
 10
0.7012221911831225
 20
0.5418271652592384
 30
0.0
  0
VERTEX
  5
1FF
330
1FB
100
AcDbEntity
  8
Visible (ANSI)
100
AcDbVertex
100
AcDb2dVertex
 10
0.7027075191349405
 20
0.5395542350839162
 30
0.0
  0
VERTEX
  5
200
330
1FB
100
AcDbEntity
  8
Visible (ANSI)
100
AcDbVertex
100
AcDb2dVertex
 10
0.7044726216836076
 20
0.5376194517672177
 30
0.0
  0
VERTEX
  5
201
330
1FB
100
AcDbEntity
  8
Visible (ANSI)
100
AcDbVertex
100
AcDb2dVertex
 10
0.7064944010286945
 20
0.535862060514487
 30
0.0
  0
VERTEX
  5
202
330
1FB
100
AcDbEntity
  8
Visible (ANSI)
100
AcDbVertex
100
AcDb2dVertex
 10
0.7087242721416853
 20
0.5344306634713317
 30
0.0
  0
VERTEX
  5
203
330
1FB
100
AcDbEntity
  8
Visible (ANSI)
100
AcDbVertex
100
AcDb2dVertex
 10
0.711201585908913
 20
0.5333038899505295
 30
0.0
  0
VERTEX
  5
204
330
1FB
100
AcDbEntity
  8
Visible (ANSI)
100
AcDbVertex
100
AcDb2dVertex
 10
0.713924400920369
 20
0.5324216860040318
 30
0.0
  0
VERTEX
  5
205
330
1FB
100
AcDbEntity
  8
Visible (ANSI)
100
AcDbVertex
100
AcDb2dVertex
 10
0.7168393408473833
 20
0.5318709586870281
 30
0.0
  0
VERTEX
  5
206
330
1FB
100
AcDbEntity
  8
Visible (ANSI)
100
AcDbVertex
100
AcDb2dVertex
 10
0.7199057356404599
 20
0.531613383066535
 30
0.0
  0
VERTEX
  5
207
330
1FB
100
AcDbEntity
  8
Visible (ANSI)
100
AcDbVertex
100
AcDb2dVertex
 10
0.7230734446541129
 20
0.5316641164210351
 30
0.0
  0
VERTEX
  5
208
330
1FB
100
AcDbEntity
  8
Visible (ANSI)
100
AcDbVertex
100
AcDb2dVertex
 10
0.7262861918896638
 20
0.5319611698303017
 30
0.0
  0
VERTEX
  5
209
330
1FB
100
AcDbEntity
  8
Visible (ANSI)
100
AcDbVertex
100
AcDb2dVertex
 10
0.729485461259963
 20
0.5324412643939089
 30
0.0
  0
VERTEX
  5
20A
330
1FB
100
AcDbEntity
  8
Visible (ANSI)
100
AcDbVertex
100
AcDb2dVertex
 10
0.7326155492333598
 20
0.5331606127827141
 30
0.0
  0
VERTEX
  5
20B
330
1FB
100
AcDbEntity
  8
Visible (ANSI)
100
AcDbVertex
100
AcDb2dVertex
 10
0.7357846396348532
 20
0.5341081283255893
 30
0.0
  0
VERTEX
  5
20C
330
1FB
100
AcDbEntity
  8
Visible (ANSI)
100
AcDbVertex
100
AcDb2dVertex
 10
0.7389756704578158
 20
0.5351854679748777
 30
0.0
  0
VERTEX
  5
20D
330
1FB
100
AcDbEntity
  8
Visible (ANSI)
100
AcDbVertex
100
AcDb2dVertex
 10
0.7421642745183178
 20
0.5364375355667129
 30
0.0
  0
VERTEX
  5
20E
330
1FB
100
AcDbEntity
  8
Visible (ANSI)
100
AcDbVertex
100
AcDb2dVertex
 10
0.7452751599560957
 20
0.5377618099475699
 30
0.0
  0
VERTEX
  5
20F
330
1FB
100
AcDbEntity
  8
Visible (ANSI)
100
AcDbVertex
100
AcDb2dVertex
 10
0.7482684034178107
 20
0.5391499779061919
 30
0.0
  0
VERTEX
  5
210
330
1FB
100
AcDbEntity
  8
Visible (ANSI)
100
AcDbVertex
100
AcDb2dVertex
 10
0.7510799881548045
 20
0.5405355929208845
 30
0.0
  0
VERTEX
  5
211
330
1FB
100
AcDbEntity
  8
Visible (ANSI)
100
AcDbVertex
100
AcDb2dVertex
 10
0.7536946940108437
 20
0.5419394720144816
 30
0.0
  0
VERTEX
  5
212
330
1FB
100
AcDbEntity
  8
Visible (ANSI)
100
AcDbVertex
100
AcDb2dVertex
 10
0.7560620567721709
 20
0.5432882959328664
 30
0.0
  0
VERTEX
  5
213
330
1FB
100
AcDbEntity
  8
Visible (ANSI)
100
AcDbVertex
100
AcDb2dVertex
 10
0.7582121309581911
 20
0.544599371922833
 30
0.0
  0
VERTEX
  5
214
330
1FB
100
AcDbEntity
  8
Visible (ANSI)
100
AcDbVertex
100
AcDb2dVertex
 10
0.7601215823147128
 20
0.5458739397995021
 30
0.0
  0
VERTEX
  5
215
330
1FB
100
AcDbEntity
  8
Visible (ANSI)
100
AcDbVertex
100
AcDb2dVertex
 10
0.7617751782405763
 20
0.5470738734540259
 30
0.0
  0
SEQEND
  5
1FE
330
1FB
100
AcDbEntity
  8
Visible (ANSI)
  0
DIMENSION
  5
216
330
37
100
AcDbEntity
  8
Dimension (ANSI)
100
AcDbDimension
  2
*D6
 10
2.269011582354897
 20
1.387736965257772
 30
0.0
 11
1.819011587354913
 21
1.387736965257772
 31
0.0
 70
   160
  1
<>
 42
0.8999999899999675
  3
Default (ANSI)
100
AcDbAlignedDimension
 13
1.369011592354929
 23
1.491608715935113
 33
0.0
 14
2.269011582354897
 24
1.469608715935157
 34
0.0
 50
180.0
100
AcDbRotatedDimension
1001
ACAD
1000
DSTYLE
1002
{
1070
    73
1070
     0
1070
    74
1070
     0
1070
   271
1070
     3
1070
   272
1070
     4
1070
    48
1040
0.0
1070
    47
1040
0.0
1002
}
  0
DIMENSION
  5
2F7
330
37
100
AcDbEntity
  8
Dimension (ANSI)
100
AcDbDimension
  2
*D7
 10
0.894955663883122
 20
1.371741704671368
 30
0.0
 11
0.6699556638831219
 21
1.371741704671301
 31
0.0
 70
   160
  1
<>
 42
0.45
  3
Default (ANSI)
100
AcDbAlignedDimension
 13
0.4449556638830929
 23
1.469608715934978
 33
0.0
 14
0.8949556638830863
 24
1.491608715935113
 34
0.0
 50
180.000000000017
100
AcDbRotatedDimension
1001
ACAD
1000
DSTYLE
1002
{
1070
    73
1070
     0
1070
    74
1070
     0
1070
   271
1070
     3
1070
   272
1070
     4
1070
    48
1040
0.0
1070
    47
1040
0.0
1002
}
  0
DIMENSION
  5
3D7
330
37
100
AcDbEntity
  8
Dimension (ANSI)
100
AcDbDimension
  2
*D8
 10
0.3126481380037223
 20
1.919608715934989
 30
0.0
 11
0.3126481380037219
 21
1.694608715934928
 31
0.0
 70
   160
  1
<>
 42
0.4500000000000116
  3
Default (ANSI)
100
AcDbAlignedDimension
 13
0.4449556638830929
 23
1.469608715934978
 33
0.0
 14
0.4449556638829593
 24
1.919608715934989
 34
0.0
 50
90.00000000002394
100
AcDbRotatedDimension
1001
ACAD
1000
DSTYLE
1002
{
1070
   271
1070
     3
1070
   272
1070
     4
1070
    48
1040
0.0
1070
    47
1040
0.0
1002
}
  0
DIMENSION
  5
4A3
330
37
100
AcDbEntity
  8
Dimension (ANSI)
100
AcDbDimension
  2
*D9
 10
1.369011592354929
 20
1.425059239959484
 30
0.0
 11
1.235041473639129
 21
1.425059239959484
 31
0.0
 70
   160
  1
<>
 42
0.059999999999933
  3
Default (ANSI)
100
AcDbAlignedDimension
 13
1.429011592354862
 23
1.491608715935113
 33
0.0
 14
1.369011592354929
 24
1.491608715935113
 34
0.0
100
AcDbRotatedDimension
1001
ACAD
1000
DSTYLE
1002
{
1070
    73
1070
     0
1070
    74
1070
     0
1070
   271
1070
     3
1070
   272
1070
     4
1070
    48
1040
0.0
1070
    47
1040
0.0
1002
}
  0
MTEXT
  5
583
330
37
100
AcDbEntity
  8
Symbol (ANSI)
100
AcDbMText
 10
2.293838883370726
 20
1.982642184595435
 30
0.0
 40
0.0300000003707691
 41
0.311572110559058
 71
     1
 72
     1
  1
{1 OF 4 (BLOCK4)}
  7
Note Text (ANSI)
 73
     1
 44
1.0
1001
ACAD
1000
MTEXTBEGIN
1070
    73
1070
     1
1070
    44
1040
1.0
1070
    74
1070
     0
1000
MTEXTEND
  0
MTEXT
  5
584
330
37
100
AcDbEntity
  8
Symbol (ANSI)
100
AcDbMText
 10
2.598548518786075
 20
0.1978406207592244
 30
0.0
 40
0.0300000003707691
 41
0.0
 71
     1
 72
     1
  1
{3}
  7
Note Text (ANSI)
 73
     1
 44
1.0
1001
ACAD
1000
MTEXTBEGIN
1070
    73
1070
     1
1070
    44
1040
1.0
1070
    74
1070
     0
1000
MTEXTEND
  0
ENDSEC
  0
SECTION
  2
OBJECTS
  0
DICTIONARY
  5
C
330
0
100
AcDbDictionary
281
     1
  3
ACAD_COLOR
350
30
  3
ACAD_GROUP
350
D
  3
ACAD_LAYOUT
350
2F
  3
ACAD_MATERIAL
350
10
  3
ACAD_MLINESTYLE
350
2C
  3
ACAD_PLOTSETTINGS
350
2E
  3
ACAD_PLOTSTYLENAME
350
E
  3
ACAD_TABLESTYLE
350
31
  3
ACAD_VISUALSTYLE
350
14
  3
AcDbVariableDictionary
350
585
  3
DWGPROPS
350
58B
  0
DICTIONARY
  5
30
102
{ACAD_REACTORS
330
C
102
}
330
C
100
AcDbDictionary
281
     1
  0
DICTIONARY
  5
D
102
{ACAD_REACTORS
330
C
102
}
330
C
100
AcDbDictionary
281
     1
  0
DICTIONARY
  5
2F
102
{ACAD_REACTORS
330
C
102
}
330
C
100
AcDbDictionary
281
     1
  3
Layout1
350
36
  3
Layout2
350
3E
  3
Model
350
3A
  0
DICTIONARY
  5
10
102
{ACAD_REACTORS
330
C
102
}
330
C
100
AcDbDictionary
281
     1
  3
ByBlock
350
12
  3
ByLayer
350
11
  3
Global
350
13
  0
DICTIONARY
  5
2C
102
{ACAD_REACTORS
330
C
102
}
330
C
100
AcDbDictionary
281
     1
  3
Standard
350
2D
  0
DICTIONARY
  5
2E
102
{ACAD_REACTORS
330
C
102
}
330
C
100
AcDbDictionary
281
     1
  0
ACDBDICTIONARYWDFLT
  5
E
102
{ACAD_REACTORS
330
C
102
}
330
C
100
AcDbDictionary
281
     1
  3
Normal
350
F
100
AcDbDictionaryWithDefault
340
F
  0
DICTIONARY
  5
31
102
{ACAD_REACTORS
330
C
102
}
330
C
100
AcDbDictionary
281
     1
  3
Standard
350
32
  0
DICTIONARY
  5
14
102
{ACAD_REACTORS
330
C
102
}
330
C
100
AcDbDictionary
281
     1
  3
2dWireframe
350
1A
  3
3D Hidden
350
1C
  3
3dWireframe
350
1B
  3
Basic
350
19
  3
Brighten
350
20
  3
ColorChange
350
24
  3
Conceptual
350
1D
  3
Dim
350
1F
  3
Facepattern
350
23
  3
Flat
350
15
  3
FlatWithEdges
350
16
  3
Gouraud
350
17
  3
GouraudWithEdges
350
18
  3
Linepattern
350
22
  3
Realistic
350
1E
  3
Thicken
350
21
  0
DICTIONARY
  5
585
102
{ACAD_REACTORS
330
C
102
}
330
C
100
AcDbDictionary
281
     1
  3
CTABLESTYLE
350
586
  3
DIMASSOC
350
58A
  3
HIDETEXT
350
589
  3
INDEXCTL
350
588
  3
SORTENTS
350
587
  0
XRECORD
  5
58B
102
{ACAD_REACTORS
330
C
102
}
330
C
100
AcDbXrecord
280
     1
  1
DWGPROPS COOKIE
  2

  3

  4
Da Chow
  6

  7

  8

  9

300
Manager=
301
Company=
302
Category=
303
Part Number=Block4-V61
304
Description=
305
Project=
306
Designer=Da Chow
307
Engineer=
308
Authority=
309
Cost Center=
 40
0.0000193518518519
 41
2454846.639294155
 42
2454846.639294155
  1

 90
       18
300
Vendor=
300
User Status=
300
Design Status=WorkInProgress
300
Checked by=
300
Date Checked=01/14/2009
300
Engr Approved by=
300
Mfg Approved by=
300
Telephone number=510 2076
  0
LAYOUT
  5
36
102
{ACAD_XDICTIONARY
360
594
102
}
102
{ACAD_REACTORS
330
2F
102
}
330
2F
100
AcDbPlotSettings
  1

  2

  4

  6

 40
0.0
 41
0.0
 42
0.0
 43
0.0
 44
0.0
 45
0.0
 46
0.0
 47
0.0
 48
0.0
 49
0.0
140
0.0
141
0.0
142
1.0
143
1.0
 70
   688
 72
     0
 73
     0
 74
     5
  7

 75
    16
147
1.0
148
0.0
149
0.0
100
AcDbLayout
  1
Layout1
 70
     1
 71
     1
 10
0.0
 20
0.0
 11
12.0
 21
9.0
 12
0.0
 22
0.0
 32
0.0
 14
0.0
 24
0.0
 34
0.0
 15
0.0
 25
0.0
 35
0.0
146
0.0
 13
0.0
 23
0.0
 33
0.0
 16
1.0
 26
0.0
 36
0.0
 17
0.0
 27
1.0
 37
0.0
 76
     0
330
33
  0
LAYOUT
  5
3E
102
{ACAD_XDICTIONARY
360
598
102
}
102
{ACAD_REACTORS
330
2F
102
}
330
2F
100
AcDbPlotSettings
  1

  2

  4

  6

 40
0.0
 41
0.0
 42
0.0
 43
0.0
 44
0.0
 45
0.0
 46
0.0
 47
0.0
 48
0.0
 49
0.0
140
0.0
141
0.0
142
1.0
143
1.0
 70
   688
 72
     0
 73
     0
 74
     5
  7

 75
    16
147
1.0
148
0.0
149
0.0
100
AcDbLayout
  1
Layout2
 70
     1
 71
     2
 10
0.0
 20
0.0
 11
12.0
 21
9.0
 12
0.0
 22
0.0
 32
0.0
 14
0.0
 24
0.0
 34
0.0
 15
0.0
 25
0.0
 35
0.0
146
0.0
 13
0.0
 23
0.0
 33
0.0
 16
1.0
 26
0.0
 36
0.0
 17
0.0
 27
1.0
 37
0.0
 76
     0
330
3B
  0
LAYOUT
  5
3A
102
{ACAD_XDICTIONARY
360
596
102
}
102
{ACAD_REACTORS
330
2F
102
}
330
2F
100
AcDbPlotSettings
  1

  2

  4

  6

 40
0.0
 41
0.0
 42
0.0
 43
0.0
 44
0.0
 45
0.0
 46
0.0
 47
0.0
 48
0.0
 49
0.0
140
0.0
141
0.0
142
1.0
143
1.0
 70
  1712
 72
     0
 73
     0
 74
     0
  7

 75
     0
147
1.0
148
0.0
149
0.0
100
AcDbLayout
  1
Model
 70
     1
 71
     0
 10
0.0
 20
0.0
 11
12.0
 21
9.0
 12
0.0
 22
0.0
 32
0.0
 14
0.0
 24
0.0
 34
0.0
 15
0.0
 25
0.0
 35
0.0
146
0.0
 13
0.0
 23
0.0
 33
0.0
 16
1.0
 26
0.0
 36
0.0
 17
0.0
 27
1.0
 37
0.0
 76
     0
330
37
  0
MATERIAL
  5
12
102
{ACAD_XDICTIONARY
360
58E
102
}
102
{ACAD_REACTORS
330
10
102
}
330
10
100
AcDbMaterial
  1
ByBlock
  0
MATERIAL
  5
11
102
{ACAD_XDICTIONARY
360
58C
102
}
102
{ACAD_REACTORS
330
10
102
}
330
10
100
AcDbMaterial
  1
ByLayer
  0
MATERIAL
  5
13
102
{ACAD_XDICTIONARY
360
590
102
}
102
{ACAD_REACTORS
330
10
102
}
330
10
100
AcDbMaterial
  1
Global
  0
MLINESTYLE
  5
2D
102
{ACAD_REACTORS
330
2C
102
}
330
2C
100
AcDbMlineStyle
  2
STANDARD
 70
     0
  3

 62
   256
 51
90.0
 52
90.0
 71
     2
 49
0.5
 62
   256
  6
BYLAYER
 49
-0.5
 62
   256
  6
BYLAYER
  0
ACDBPLACEHOLDER
  5
F
102
{ACAD_REACTORS
330
E
102
}
330
E
  0
TABLESTYLE
  5
32
102
{ACAD_XDICTIONARY
360
592
102
}
102
{ACAD_REACTORS
330
31
102
}
330
31
100
AcDbTableStyle
  3
Standard
 70
     0
 71
     0
 40
0.06
 41
0.06
280
     0
281
     0
  7
Standard
140
0.18
170
     2
 62
     0
 63
     7
283
     0
274
    -2
284
     1
 64
     0
275
    -2
285
     1
 65
     0
276
    -2
286
     1
 66
     0
277
    -2
287
     1
 67
     0
278
    -2
288
     1
 68
     0
279
    -2
289
     1
 69
     0
  7
Standard
140
0.25
170
     5
 62
     0
 63
     7
283
     0
274
    -2
284
     1
 64
     0
275
    -2
285
     1
 65
     0
276
    -2
286
     1
 66
     0
277
    -2
287
     1
 67
     0
278
    -2
288
     1
 68
     0
279
    -2
289
     1
 69
     0
  7
Standard
140
0.18
170
     5
 62
     0
 63
     7
283
     0
274
    -2
284
     1
 64
     0
275
    -2
285
     1
 65
     0
276
    -2
286
     1
 66
     0
277
    -2
287
     1
 67
     0
278
    -2
288
     1
 68
     0
279
    -2
289
     1
 69
     0
  0
VISUALSTYLE
  5
1A
102
{ACAD_REACTORS
330
14
102
}
330
14
100
AcDbVisualStyle
  2
2dWireframe
 70
     4
 71
     0
 72
     2
 73
     0
 90
        0
 40
-0.6
 41
-30.0
 62
     5
 63
     7
 74
     1
 91
        4
 64
     7
 65
   257
 75
     1
175
     1
 42
1.0
 92
        0
 66
   257
 43
1.0
 76
     1
 77
     6
 78
     2
 67
     7
 79
     5
170
     0
171
     0
290
     0
174
     0
 93
        1
 44
0.0
173
     0
291
     0
 45
0.0
1001
ACAD
1000
AcDbSavedByObjectVersion
1070
     0
  0
VISUALSTYLE
  5
1C
102
{ACAD_REACTORS
330
14
102
}
330
14
100
AcDbVisualStyle
  2
3D Hidden
 70
     6
 71
     1
 72
     2
 73
     2
 90
        0
 40
-0.6
 41
-30.0
 62
     5
 63
     7
 74
     2
 91
        2
 64
     7
 65
   257
 75
     2
175
     1
 42
40.0
 92
        0
 66
   257
 43
1.0
 76
     1
 77
     6
 78
     2
 67
     7
 79
     3
170
     0
171
     0
290
     0
174
     0
 93
        1
 44
0.0
173
     0
291
     0
 45
0.0
1001
ACAD
1000
AcDbSavedByObjectVersion
1070
     0
  0
VISUALSTYLE
  5
1B
102
{ACAD_REACTORS
330
14
102
}
330
14
100
AcDbVisualStyle
  2
3dWireframe
 70
     5
 71
     0
 72
     2
 73
     0
 90
        0
 40
-0.6
 41
-30.0
 62
     5
 63
     7
 74
     1
 91
        4
 64
     7
 65
   257
 75
     1
175
     1
 42
1.0
 92
        0
 66
   257
 43
1.0
 76
     1
 77
     6
 78
     2
 67
     7
 79
     5
170
     0
171
     0
290
     0
174
     0
 93
        1
 44
0.0
173
     0
291
     0
 45
0.0
1001
ACAD
1000
AcDbSavedByObjectVersion
1070
     0
  0
VISUALSTYLE
  5
19
102
{ACAD_REACTORS
330
14
102
}
330
14
100
AcDbVisualStyle
  2
Basic
 70
     7
 71
     1
 72
     0
 73
     1
 90
        0
 40
-0.6
 41
-30.0
 62
     5
 63
     7
 74
     0
 91
        4
 64
     7
 65
   257
 75
     1
175
     1
 42
1.0
 92
        8
 66
     7
 43
1.0
 76
     1
 77
     6
 78
     2
 67
     7
 79
     5
170
     0
171
     0
290
     0
174
     0
 93
        1
 44
0.0
173
     0
291
     1
 45
0.0
1001
ACAD
1000
AcDbSavedByObjectVersion
1070
     0
  0
VISUALSTYLE
  5
20
102
{ACAD_REACTORS
330
14
102
}
330
14
100
AcDbVisualStyle
  2
Brighten
 70
    12
 71
     2
 72
     2
 73
     0
 90
        0
 40
-0.6
 41
-30.0
 62
     5
 63
     7
 74
     1
 91
        4
 64
     7
 65
   257
 75
     1
175
     1
 42
1.0
 92
        8
 66
     7
 43
1.0
 76
     1
 77
     6
 78
     2
 67
     7
 79
     5
170
     0
171
     0
290
     0
174
     0
 93
        1
 44
50.0
173
     0
291
     1
 45
0.0
1001
ACAD
1000
AcDbSavedByObjectVersion
1070
     0
  0
VISUALSTYLE
  5
24
102
{ACAD_REACTORS
330
14
102
}
330
14
100
AcDbVisualStyle
  2
ColorChange
 70
    16
 71
     2
 72
     2
 73
     3
 90
        0
 40
-0.6
 41
-30.0
 62
     5
 63
     8
 74
     1
 91
        4
 64
     7
 65
   257
 75
     1
175
     1
 42
1.0
 92
        8
 66
     8
 43
1.0
 76
     1
 77
     6
 78
     2
 67
     7
 79
     5
170
     0
171
     0
290
     0
174
     0
 93
        1
 44
0.0
173
     0
291
     1
 45
0.0
1001
ACAD
1000
AcDbSavedByObjectVersion
1070
     0
  0
VISUALSTYLE
  5
1D
102
{ACAD_REACTORS
330
14
102
}
330
14
100
AcDbVisualStyle
  2
Conceptual
 70
     9
 71
     3
 72
     2
 73
     0
 90
        0
 40
-0.6
 41
-30.0
 62
     5
 63
     7
 74
     2
 91
        2
 64
     7
 65
   257
 75
     1
175
     1
 42
40.0
 92
        8
 66
     7
 43
1.0
 76
     1
 77
     6
 78
     2
 67
     7
 79
     3
170
     0
171
     0
290
     0
174
     0
 93
        1
 44
0.0
173
     0
291
     0
 45
0.0
1001
ACAD
1000
AcDbSavedByObjectVersion
1070
     0
  0
VISUALSTYLE
  5
1F
102
{ACAD_REACTORS
330
14
102
}
330
14
100
AcDbVisualStyle
  2
Dim
 70
    11
 71
     2
 72
     2
 73
     0
 90
        0
 40
-0.6
 41
-30.0
 62
     5
 63
     7
 74
     1
 91
        4
 64
     7
 65
   257
 75
     1
175
     1
 42
1.0
 92
        8
 66
     7
 43
1.0
 76
     1
 77
     6
 78
     2
 67
     7
 79
     5
170
     0
171
     0
290
     0
174
     0
 93
        1
 44
-50.0
173
     0
291
     1
 45
0.0
1001
ACAD
1000
AcDbSavedByObjectVersion
1070
     0
  0
VISUALSTYLE
  5
23
102
{ACAD_REACTORS
330
14
102
}
330
14
100
AcDbVisualStyle
  2
Facepattern
 70
    15
 71
     2
 72
     2
 73
     0
 90
        0
 40
-0.6
 41
-30.0
 62
     5
 63
     7
 74
     1
 91
        4
 64
     7
 65
   257
 75
     1
175
     1
 42
1.0
 92
        8
 66
     7
 43
1.0
 76
     1
 77
     6
 78
     2
 67
     7
 79
     5
170
     0
171
     0
290
     0
174
     0
 93
        1
 44
0.0
173
     0
291
     1
 45
0.0
1001
ACAD
1000
AcDbSavedByObjectVersion
1070
     0
  0
VISUALSTYLE
  5
15
102
{ACAD_REACTORS
330
14
102
}
330
14
100
AcDbVisualStyle
  2
Flat
 70
     0
 71
     2
 72
     1
 73
     1
 90
        2
 40
-0.6
 41
30.0
 62
     5
 63
     7
 74
     0
 91
        4
 64
     7
 65
   257
 75
     1
175
     1
 42
1.0
 92
        8
 66
     7
 43
1.0
 76
     1
 77
     6
 78
     2
 67
     7
 79
     5
170
     0
171
     0
290
     0
174
     0
 93
       13
 44
0.0
173
     0
291
     1
 45
0.0
1001
ACAD
1000
AcDbSavedByObjectVersion
1070
     0
  0
VISUALSTYLE
  5
16
102
{ACAD_REACTORS
330
14
102
}
330
14
100
AcDbVisualStyle
  2
FlatWithEdges
 70
     1
 71
     2
 72
     1
 73
     1
 90
        2
 40
-0.6
 41
30.0
 62
     5
 63
     7
 74
     1
 91
        4
 64
     7
 65
   257
 75
     1
175
     1
 42
1.0
 92
        0
 66
   257
 43
1.0
 76
     1
 77
     6
 78
     2
 67
     7
 79
     5
170
     0
171
     0
290
     0
174
     0
 93
       13
 44
0.0
173
     0
291
     1
 45
0.0
1001
ACAD
1000
AcDbSavedByObjectVersion
1070
     0
  0
VISUALSTYLE
  5
17
102
{ACAD_REACTORS
330
14
102
}
330
14
100
AcDbVisualStyle
  2
Gouraud
 70
     2
 71
     2
 72
     2
 73
     1
 90
        2
 40
-0.6
 41
30.0
 62
     5
 63
     7
 74
     0
 91
        4
 64
     7
 65
   257
 75
     1
175
     1
 42
1.0
 92
        0
 66
     7
 43
1.0
 76
     1
 77
     6
 78
     2
 67
     7
 79
     5
170
     0
171
     0
290
     0
174
     0
 93
       13
 44
0.0
173
     0
291
     1
 45
0.0
1001
ACAD
1000
AcDbSavedByObjectVersion
1070
     0
  0
VISUALSTYLE
  5
18
102
{ACAD_REACTORS
330
14
102
}
330
14
100
AcDbVisualStyle
  2
GouraudWithEdges
 70
     3
 71
     2
 72
     2
 73
     1
 90
        2
 40
-0.6
 41
30.0
 62
     5
 63
     7
 74
     1
 91
        4
 64
     7
 65
   257
 75
     1
175
     1
 42
1.0
 92
        0
 66
   257
 43
1.0
 76
     1
 77
     6
 78
     2
 67
     7
 79
     5
170
     0
171
     0
290
     0
174
     0
 93
       13
 44
0.0
173
     0
291
     1
 45
0.0
1001
ACAD
1000
AcDbSavedByObjectVersion
1070
     0
  0
VISUALSTYLE
  5
22
102
{ACAD_REACTORS
330
14
102
}
330
14
100
AcDbVisualStyle
  2
Linepattern
 70
    14
 71
     2
 72
     2
 73
     0
 90
        0
 40
-0.6
 41
-30.0
 62
     5
 63
     7
 74
     1
 91
        4
 64
     7
 65
   257
 75
     7
175
     7
 42
1.0
 92
        8
 66
     7
 43
1.0
 76
     1
 77
     6
 78
     2
 67
     7
 79
     5
170
     0
171
     0
290
     0
174
     0
 93
        1
 44
0.0
173
     0
291
     1
 45
0.0
1001
ACAD
1000
AcDbSavedByObjectVersion
1070
     0
  0
VISUALSTYLE
  5
1E
102
{ACAD_REACTORS
330
14
102
}
330
14
100
AcDbVisualStyle
  2
Realistic
 70
     8
 71
     2
 72
     2
 73
     0
 90
        0
 40
-0.6
 41
-30.0
 62
     5
 63
     7
 74
     1
 91
        0
 64
     7
 65
   257
 75
     1
175
     1
 42
1.0
 92
        8
 66
     8
 43
1.0
 76
     1
 77
     6
 78
     2
 67
     7
 79
     5
170
     0
171
     0
290
     0
174
     0
 93
       13
 44
0.0
173
     0
291
     0
 45
0.0
1001
ACAD
1000
AcDbSavedByObjectVersion
1070
     0
  0
VISUALSTYLE
  5
21
102
{ACAD_REACTORS
330
14
102
}
330
14
100
AcDbVisualStyle
  2
Thicken
 70
    13
 71
     2
 72
     2
 73
     0
 90
        0
 40
-0.6
 41
-30.0
 62
     5
 63
     7
 74
     1
 91
        4
 64
     7
 65
   257
 75
     1
175
     1
 42
1.0
 92
       12
 66
     7
 43
1.0
 76
     1
 77
     6
 78
     2
 67
     7
 79
     5
170
     0
171
     0
290
     0
174
     0
 93
        1
 44
0.0
173
     0
291
     1
 45
0.0
1001
ACAD
1000
AcDbSavedByObjectVersion
1070
     0
  0
DICTIONARYVAR
  5
586
102
{ACAD_REACTORS
330
585
102
}
330
585
100
DictionaryVariables
280
     0
  1
STANDARD
  0
DICTIONARYVAR
  5
58A
102
{ACAD_REACTORS
330
585
102
}
330
585
100
DictionaryVariables
280
     0
  1
1
  0
DICTIONARYVAR
  5
589
102
{ACAD_REACTORS
330
585
102
}
330
585
100
DictionaryVariables
280
     0
  1
1
  0
DICTIONARYVAR
  5
588
102
{ACAD_REACTORS
330
585
102
}
330
585
100
DictionaryVariables
280
     0
  1
0
  0
DICTIONARYVAR
  5
587
102
{ACAD_REACTORS
330
585
102
}
330
585
100
DictionaryVariables
280
     0
  1
127
  0
DICTIONARY
  5
594
330
36
100
AcDbDictionary
280
     1
281
     1
  3
ACAD_XREC_ROUNDTRIP
360
595
  0
DICTIONARY
  5
598
330
3E
100
AcDbDictionary
280
     1
281
     1
  3
ACAD_XREC_ROUNDTRIP
360
599
  0
DICTIONARY
  5
596
330
3A
100
AcDbDictionary
280
     1
281
     1
  3
ACAD_XREC_ROUNDTRIP
360
597
  0
DICTIONARY
  5
58E
330
12
100
AcDbDictionary
280
     1
281
     1
  3
ACAD_XREC_ROUNDTRIP
360
58F
  0
DICTIONARY
  5
58C
330
11
100
AcDbDictionary
280
     1
281
     1
  3
ACAD_XREC_ROUNDTRIP
360
58D
  0
DICTIONARY
  5
590
330
13
100
AcDbDictionary
280
     1
281
     1
  3
ACAD_XREC_ROUNDTRIP
360
591
  0
DICTIONARY
  5
592
330
32
100
AcDbDictionary
280
     1
281
     1
  3
ACAD_XREC_ROUNDTRIP
360
593
  0
XRECORD
  5
595
102
{ACAD_REACTORS
330
594
102
}
330
594
100
AcDbXrecord
280
     1
102
SHADEPLOT
 70
     0
102
SHADEPLOTRESLEVEL
 70
     2
102
SHADEPLOTCUSTOMDPI
 70
   300
  0
XRECORD
  5
599
102
{ACAD_REACTORS
330
598
102
}
330
598
100
AcDbXrecord
280
     1
102
SHADEPLOT
 70
     0
102
SHADEPLOTRESLEVEL
 70
     2
102
SHADEPLOTCUSTOMDPI
 70
   300
  0
XRECORD
  5
597
102
{ACAD_REACTORS
330
596
102
}
330
596
100
AcDbXrecord
280
     1
102
SHADEPLOT
 70
     0
102
SHADEPLOTRESLEVEL
 70
     2
102
SHADEPLOTCUSTOMDPI
 70
   300
  0
XRECORD
  5
58F
102
{ACAD_REACTORS
330
58E
102
}
330
58E
100
AcDbXrecord
280
     1
102
MATERIAL
148
0.0
149
0.0
149
0.0
 93
        0
 94
       63
282
     0
 72
     1
 77
     1
171
     1
175
     1
179
     1
273
     0
  0
XRECORD
  5
58D
102
{ACAD_REACTORS
330
58C
102
}
330
58C
100
AcDbXrecord
280
     1
102
MATERIAL
148
0.0
149
0.0
149
0.0
 93
        0
 94
       63
282
     0
 72
     1
 77
     1
171
     1
175
     1
179
     1
273
     0
  0
XRECORD
  5
591
102
{ACAD_REACTORS
330
590
102
}
330
590
100
AcDbXrecord
280
     1
102
MATERIAL
148
0.0
149
0.0
149
0.0
 93
        0
 94
       63
282
     0
 72
     1
 77
     1
171
     1
175
     1
179
     1
273
     0
  0
XRECORD
  5
593
102
{ACAD_REACTORS
330
592
102
}
330
592
100
AcDbXrecord
280
     1
102
ACAD_ROUNDTRIP_PRE2007_TABLESTYLE
 90
      512
 91
        0
  1

 92
      512
 93
        0
  2

 94
      512
 95
        0
  3

  0
ENDSEC
  0
EOF
