  0
SECTION
  2
HEADER
  9
$ACADVER
  1
AC1015
  9
$ACADMAINTVER
 70
    18
  9
$DWGCODEPAGE
  3
ANSI_1252
  9
$INSBASE
 10
0.0
 20
0.0
 30
0.0
  9
$EXTMIN
 10
0.0
 20
0.0
 30
0.0
  9
$EXTMAX
 10
2.75
 20
2.125
 30
0.0
  9
$LIMMIN
 10
0.0
 20
0.0
  9
$LIMMAX
 10
2.75
 20
2.125
  9
$ORTHOMODE
 70
     0
  9
$REGENMODE
 70
     1
  9
$FILLMODE
 70
     1
  9
$QTEXTMODE
 70
     0
  9
$MIRRTEXT
 70
     0
  9
$LTSCALE
 40
0.25
  9
$ATTMODE
 70
     1
  9
$TEXTSIZE
 40
0.2
  9
$TRACEWID
 40
0.05
  9
$TEXTSTYLE
  7
Standard
  9
$CLAYER
  8
0
  9
$CELTYPE
  6
ByLayer
  9
$CECOLOR
 62
   256
  9
$CELTSCALE
 40
1.0
  9
$DISPSILH
 70
     0
  9
$DIMSCALE
 40
1.0
  9
$DIMASZ
 40
0.0708661417322835
  9
$DIMEXO
 40
0.0625
  9
$DIMDLI
 40
0.38
  9
$DIMRND
 40
0.0
  9
$DIMDLE
 40
0.0
  9
$DIMEXE
 40
0.18
  9
$DIMTP
 40
0.0
  9
$DIMTM
 40
0.0
  9
$DIMTXT
 40
0.3048000037670135
  9
$DIMCEN
 40
0.09
  9
$DIMTSZ
 40
0.0
  9
$DIMTOL
 70
     0
  9
$DIMLIM
 70
     0
  9
$DIMTIH
 70
     1
  9
$DIMTOH
 70
     1
  9
$DIMSE1
 70
     0
  9
$DIMSE2
 70
     0
  9
$DIMTAD
 70
     0
  9
$DIMZIN
 70
     0
  9
$DIMBLK
  1

  9
$DIMASO
 70
     1
  9
$DIMSHO
 70
     1
  9
$DIMPOST
  1

  9
$DIMAPOST
  1

  9
$DIMALT
 70
     0
  9
$DIMALTD
 70
     2
  9
$DIMALTF
 40
25.4
  9
$DIMLFAC
 40
1.0
  9
$DIMTOFL
 70
     0
  9
$DIMTVP
 40
0.0
  9
$DIMTIX
 70
     0
  9
$DIMSOXD
 70
     0
  9
$DIMSAH
 70
     0
  9
$DIMBLK1
  1

  9
$DIMBLK2
  1

  9
$DIMSTYLE
  2
Standard
  9
$DIMCLRD
 70
     0
  9
$DIMCLRE
 70
     0
  9
$DIMCLRT
 70
     0
  9
$DIMTFAC
 40
1.0
  9
$DIMGAP
 40
0.09
  9
$DIMJUST
 70
     0
  9
$DIMSD1
 70
     0
  9
$DIMSD2
 70
     0
  9
$DIMTOLJ
 70
     1
  9
$DIMTZIN
 70
     0
  9
$DIMALTZ
 70
     0
  9
$DIMALTTZ
 70
     0
  9
$DIMUPT
 70
     0
  9
$DIMDEC
 70
     4
  9
$DIMTDEC
 70
     4
  9
$DIMALTU
 70
     2
  9
$DIMALTTD
 70
     2
  9
$DIMTXSTY
  7
Standard
  9
$DIMAUNIT
 70
     0
  9
$DIMADEC
 70
     0
  9
$DIMALTRND
 40
0.0
  9
$DIMAZIN
 70
     0
  9
$DIMDSEP
 70
    46
  9
$DIMATFIT
 70
     3
  9
$DIMFRAC
 70
     0
  9
$DIMLDRBLK
  1

  9
$DIMLUNIT
 70
     2
  9
$DIMLWD
 70
    -2
  9
$DIMLWE
 70
    -2
  9
$DIMTMOVE
 70
     0
  9
$LUNITS
 70
     2
  9
$LUPREC
 70
     4
  9
$SKETCHINC
 40
0.1
  9
$FILLETRAD
 40
0.0
  9
$AUNITS
 70
     0
  9
$AUPREC
 70
     0
  9
$MENU
  1
.
  9
$ELEVATION
 40
0.0
  9
$PELEVATION
 40
0.0
  9
$THICKNESS
 40
0.0
  9
$LIMCHECK
 70
     0
  9
$CHAMFERA
 40
0.0
  9
$CHAMFERB
 40
0.0
  9
$CHAMFERC
 40
0.0
  9
$CHAMFERD
 40
0.0
  9
$SKPOLY
 70
     0
  9
$TDCREATE
 40
2454846.696840995
  9
$TDUCREATE
 40
2454847.030174328
  9
$TDUPDATE
 40
2454846.696840995
  9
$TDUUPDATE
 40
2454847.030174328
  9
$TDINDWG
 40
0.0000303819
  9
$TDUSRTIMER
 40
0.0000303819
  9
$USRTIMER
 70
     1
  9
$ANGBASE
 50
0.0
  9
$ANGDIR
 70
     0
  9
$PDMODE
 70
     0
  9
$PDSIZE
 40
0.0
  9
$PLINEWID
 40
0.0
  9
$SPLFRAME
 70
     0
  9
$SPLINETYPE
 70
     6
  9
$SPLINESEGS
 70
     8
  9
$HANDSEED
  5
946
  9
$SURFTAB1
 70
     6
  9
$SURFTAB2
 70
     6
  9
$SURFTYPE
 70
     6
  9
$SURFU
 70
     6
  9
$SURFV
 70
     6
  9
$UCSBASE
  2

  9
$UCSNAME
  2

  9
$UCSORG
 10
0.0
 20
0.0
 30
0.0
  9
$UCSXDIR
 10
1.0
 20
0.0
 30
0.0
  9
$UCSYDIR
 10
0.0
 20
1.0
 30
0.0
  9
$UCSORTHOREF
  2

  9
$UCSORTHOVIEW
 70
     0
  9
$UCSORGTOP
 10
0.0
 20
0.0
 30
0.0
  9
$UCSORGBOTTOM
 10
0.0
 20
0.0
 30
0.0
  9
$UCSORGLEFT
 10
0.0
 20
0.0
 30
0.0
  9
$UCSORGRIGHT
 10
0.0
 20
0.0
 30
0.0
  9
$UCSORGFRONT
 10
0.0
 20
0.0
 30
0.0
  9
$UCSORGBACK
 10
0.0
 20
0.0
 30
0.0
  9
$PUCSBASE
  2

  9
$PUCSNAME
  2

  9
$PUCSORG
 10
0.0
 20
0.0
 30
0.0
  9
$PUCSXDIR
 10
1.0
 20
0.0
 30
0.0
  9
$PUCSYDIR
 10
0.0
 20
1.0
 30
0.0
  9
$PUCSORTHOREF
  2

  9
$PUCSORTHOVIEW
 70
     0
  9
$PUCSORGTOP
 10
0.0
 20
0.0
 30
0.0
  9
$PUCSORGBOTTOM
 10
0.0
 20
0.0
 30
0.0
  9
$PUCSORGLEFT
 10
0.0
 20
0.0
 30
0.0
  9
$PUCSORGRIGHT
 10
0.0
 20
0.0
 30
0.0
  9
$PUCSORGFRONT
 10
0.0
 20
0.0
 30
0.0
  9
$PUCSORGBACK
 10
0.0
 20
0.0
 30
0.0
  9
$USERI1
 70
     0
  9
$USERI2
 70
     0
  9
$USERI3
 70
     0
  9
$USERI4
 70
     0
  9
$USERI5
 70
     0
  9
$USERR1
 40
0.0
  9
$USERR2
 40
0.0
  9
$USERR3
 40
0.0
  9
$USERR4
 40
0.0
  9
$USERR5
 40
0.0
  9
$WORLDVIEW
 70
     1
  9
$SHADEDGE
 70
     3
  9
$SHADEDIF
 70
    70
  9
$TILEMODE
 70
     1
  9
$MAXACTVP
 70
    64
  9
$PINSBASE
 10
0.0
 20
0.0
 30
0.0
  9
$PLIMCHECK
 70
     0
  9
$PEXTMIN
 10
0.0
 20
0.0
 30
0.0
  9
$PEXTMAX
 10
2.75
 20
2.125
 30
0.0
  9
$PLIMMIN
 10
0.0
 20
0.0
  9
$PLIMMAX
 10
2.75
 20
2.125
  9
$UNITMODE
 70
     0
  9
$VISRETAIN
 70
     1
  9
$PLINEGEN
 70
     0
  9
$PSLTSCALE
 70
     1
  9
$TREEDEPTH
 70
  3020
  9
$CMLSTYLE
  2
Standard
  9
$CMLJUST
 70
     0
  9
$CMLSCALE
 40
1.0
  9
$PROXYGRAPHICS
 70
     1
  9
$MEASUREMENT
 70
     0
  9
$CELWEIGHT
370
    -1
  9
$ENDCAPS
280
     0
  9
$JOINSTYLE
280
     0
  9
$LWDISPLAY
290
     0
  9
$INSUNITS
 70
     0
  9
$HYPERLINKBASE
  1

  9
$STYLESHEET
  1

  9
$XEDIT
290
     1
  9
$CEPSNTYPE
380
     0
  9
$PSTYLEMODE
290
     1
  9
$FINGERPRINTGUID
  2
{556ECB87-C384-48D0-8BCF-256D9A6F364B}
  9
$VERSIONGUID
  2
{126C2508-7447-4A8E-B027-CD82478227AE}
  9
$EXTNAMES
290
     1
  9
$PSVPSCALE
 40
0.0
  9
$OLESTARTUP
290
     0
  0
ENDSEC
  0
SECTION
  2
CLASSES
  0
CLASS
  1
ACDBDICTIONARYWDFLT
  2
AcDbDictionaryWithDefault
  3
ObjectDBX Classes
 90
        0
280
     0
281
     0
  0
CLASS
  1
MATERIAL
  2
AcDbMaterial
  3
ObjectDBX Classes
 90
     1024
280
     0
281
     0
  0
CLASS
  1
VISUALSTYLE
  2
AcDbVisualStyle
  3
ObjectDBX Classes
 90
     4095
280
     0
281
     0
  0
CLASS
  1
TABLESTYLE
  2
AcDbTableStyle
  3
ObjectDBX Classes
 90
     4095
280
     0
281
     0
  0
CLASS
  1
DICTIONARYVAR
  2
AcDbDictionaryVar
  3
ObjectDBX Classes
 90
        0
280
     0
281
     0
  0
CLASS
  1
ACDBPLACEHOLDER
  2
AcDbPlaceHolder
  3
ObjectDBX Classes
 90
        0
280
     0
281
     0
  0
CLASS
  1
LAYOUT
  2
AcDbLayout
  3
ObjectDBX Classes
 90
        0
280
     0
281
     0
  0
ENDSEC
  0
SECTION
  2
TABLES
  0
TABLE
  2
VPORT
  5
8
330
0
100
AcDbSymbolTable
 70
     1
  0
VPORT
  5
28
330
8
100
AcDbSymbolTableRecord
100
AcDbViewportTableRecord
  2
*Active
 70
     0
 10
0.0
 20
0.0
 11
1.0
 21
1.0
 12
1.375
 22
1.0625
 13
0.0
 23
0.0
 14
1.0
 24
1.0
 15
0.0
 25
0.0
 16
0.0
 26
0.0
 36
1.0
 17
0.0
 27
0.0
 37
0.0
 40
2.125
 41
1.294117647058823
 42
50.0
 43
0.0
 44
0.0
 50
0.0
 51
0.0
 71
     0
 72
   100
 73
     1
 74
     1
 75
     0
 76
     0
 77
     0
 78
     0
281
     0
 65
     1
110
0.0
120
0.0
130
0.0
111
1.0
121
0.0
131
0.0
112
0.0
122
1.0
132
0.0
 79
     0
146
0.0
  0
ENDTAB
  0
TABLE
  2
LTYPE
  5
5
330
0
100
AcDbSymbolTable
 70
    59
  0
LTYPE
  5
29
330
5
100
AcDbSymbolTableRecord
100
AcDbLinetypeTableRecord
  2
ByBlock
 70
     0
  3

 72
    65
 73
     0
 40
0.0
  0
LTYPE
  5
2A
330
5
100
AcDbSymbolTableRecord
100
AcDbLinetypeTableRecord
  2
ByLayer
 70
     0
  3

 72
    65
 73
     0
 40
0.0
  0
LTYPE
  5
2B
330
5
100
AcDbSymbolTableRecord
100
AcDbLinetypeTableRecord
  2
Continuous
 70
     0
  3
Solid line
 72
    65
 73
     0
 40
0.0
  0
LTYPE
  5
40
330
5
100
AcDbSymbolTableRecord
100
AcDbLinetypeTableRecord
  2
BY_STANDARD
 70
     0
  3
By Standard ____________    ____    ____   _
 72
    65
 73
     6
 40
1.240299999999999
 49
0.6614
 74
     0
 49
-0.0827
 74
     0
 49
0.1654
 74
     0
 49
-0.0827
 74
     0
 49
0.1654
 74
     0
 49
-0.0827
 74
     0
  0
LTYPE
  5
41
330
5
100
AcDbSymbolTableRecord
100
AcDbLinetypeTableRecord
  2
CHAIN
 70
     0
  3
Chain ____ _ ____ _ ____ _ ____ _ ____ _ ____
 72
    65
 73
     4
 40
0.7087
 49
0.4724000000000001
 74
     0
 49
-0.0591
 74
     0
 49
0.1181
 74
     0
 49
-0.0591
 74
     0
  0
LTYPE
  5
42
330
5
100
AcDbSymbolTableRecord
100
AcDbLinetypeTableRecord
  2
DASH_DOT
 70
     0
  3
Dash dot __ . __ . __ . __ . __ . __ . __ . __
 72
    65
 73
     4
 40
0.37
 49
0.24
 74
     0
 49
-0.06
 74
     0
 49
0.01
 74
     0
 49
-0.06
 74
     0
  0
LTYPE
  5
43
330
5
100
AcDbSymbolTableRecord
100
AcDbLinetypeTableRecord
  2
DOUBLE_DASH_DOT
 70
     0
  3
Double-Dash Dot __ __ . __ __ . __ __ . __ _
 72
    65
 73
     6
 40
0.4398
 49
0.24
 74
     0
 49
-0.06
 74
     0
 49
0.0098
 74
     0
 49
-0.06
 74
     0
 49
0.01
 74
     0
 49
-0.06
 74
     0
  0
LTYPE
  5
44
330
5
100
AcDbSymbolTableRecord
100
AcDbLinetypeTableRecord
  2
DASH_TRIPLE_DOT
 70
     0
  3
Dash Triple-Dot _ . . . _ . . . _ . . . _
 72
    65
 73
     8
 40
0.51
 49
0.24
 74
     0
 49
-0.06
 74
     0
 49
0.01
 74
     0
 49
-0.06
 74
     0
 49
0.01
 74
     0
 49
-0.06
 74
     0
 49
0.01
 74
     0
 49
-0.06
 74
     0
  0
LTYPE
  5
45
330
5
100
AcDbSymbolTableRecord
100
AcDbLinetypeTableRecord
  2
DASHED
 70
     0
  3
Dashed __ __ __ __ __ __ __ __ __ __ __ __ __ _
 72
    65
 73
     2
 40
0.2067
 49
0.1654
 74
     0
 49
-0.0413
 74
     0
  0
LTYPE
  5
46
330
5
100
AcDbSymbolTableRecord
100
AcDbLinetypeTableRecord
  2
DASH_DOUBLE_DOT
 70
     0
  3
Dash Double-Dot __ . . __ . . __ . . __ . .
 72
    65
 73
     6
 40
0.4398
 49
0.24
 74
     0
 49
-0.06
 74
     0
 49
0.0098
 74
     0
 49
-0.06
 74
     0
 49
0.01
 74
     0
 49
-0.06
 74
     0
  0
LTYPE
  5
47
330
5
100
AcDbSymbolTableRecord
100
AcDbLinetypeTableRecord
  2
DASHED_SPACE
 70
     0
  3
Dashed Space __ __ __ __ __ __ __ __ __ __ __ _
 72
    65
 73
     2
 40
0.2067
 49
0.1654
 74
     0
 49
-0.0413
 74
     0
  0
LTYPE
  5
48
330
5
100
AcDbSymbolTableRecord
100
AcDbLinetypeTableRecord
  2
DOTTED
 70
     0
  3
Dotted . . . . . . . . . . . . . . . . . . . . 
 72
    65
 73
     2
 40
0.0482
 49
0.0069
 74
     0
 49
-0.0413
 74
     0
  0
LTYPE
  5
49
330
5
100
AcDbSymbolTableRecord
100
AcDbLinetypeTableRecord
  2
DOUBLE_DASH_CHAIN
 70
     0
  3
Double-Dash Chain ______  __  __  ______  __  _
 72
    65
 73
     6
 40
1.240299999999999
 49
0.6614
 74
     0
 49
-0.0827
 74
     0
 49
0.1654
 74
     0
 49
-0.0827
 74
     0
 49
0.1654
 74
     0
 49
-0.0827
 74
     0
  0
LTYPE
  5
4B
330
5
100
AcDbSymbolTableRecord
100
AcDbLinetypeTableRecord
  2
DOUBLE_DASH_DOUBLE_DOT
 70
     0
  3
Double-Dash Double-dot _ _ . . _ _ . . _
 72
    65
 73
     8
 40
0.7400000000000001
 49
0.24
 74
     0
 49
-0.06
 74
     0
 49
0.24
 74
     0
 49
-0.06
 74
     0
 49
0.01
 74
     0
 49
-0.06
 74
     0
 49
0.01
 74
     0
 49
-0.06
 74
     0
  0
LTYPE
  5
4C
330
5
100
AcDbSymbolTableRecord
100
AcDbLinetypeTableRecord
  2
DOUBLE_DASH_TRIPLE_DOT
 70
     0
  3
Double Dash Triple Dot __ __ . . . __ __ . .
 72
    65
 73
    10
 40
0.8100000000000001
 49
0.24
 74
     0
 49
-0.06
 74
     0
 49
0.24
 74
     0
 49
-0.06
 74
     0
 49
0.01
 74
     0
 49
-0.06
 74
     0
 49
0.01
 74
     0
 49
-0.06
 74
     0
 49
0.01
 74
     0
 49
-0.06
 74
     0
  0
LTYPE
  5
4D
330
5
100
AcDbSymbolTableRecord
100
AcDbLinetypeTableRecord
  2
LONG_DASH_DOTTED
 70
     0
  3
Long Dash Dotted ____ . ____ . ____ . ____ . _
 72
    65
 73
     4
 40
0.3543
 49
0.2362
 74
     0
 49
-0.0295
 74
     0
 49
0.0591
 74
     0
 49
-0.0295
 74
     0
  0
LTYPE
  5
4E
330
5
100
AcDbSymbolTableRecord
100
AcDbLinetypeTableRecord
  2
LONG_DASH_DOUBLE_DOT
 70
     0
  3
Long Dash Double Dot ________  .  .  ________  
 72
    65
 73
     6
 40
0.6799999999999999
 49
0.48
 74
     0
 49
-0.06
 74
     0
 49
0.01
 74
     0
 49
-0.06
 74
     0
 49
0.01
 74
     0
 49
-0.06
 74
     0
  0
LTYPE
  5
4F
330
5
100
AcDbSymbolTableRecord
100
AcDbLinetypeTableRecord
  2
LONG_DASH_TRIPLE_DOT
 70
     0
  3
Long Dash Triple Dot ____ ... ____ ... ____
 72
    65
 73
     8
 40
0.3689
 49
0.2362
 74
     0
 49
-0.0295
 74
     0
 49
0.0049
 74
     0
 49
-0.0295
 74
     0
 49
0.0049
 74
     0
 49
-0.0295
 74
     0
 49
0.0049
 74
     0
 49
-0.0295
 74
     0
  0
LTYPE
  5
50
330
5
100
AcDbSymbolTableRecord
100
AcDbLinetypeTableRecord
  2
BORDER
 70
     0
  3
Border __ __ . __ __ . __ __ . __ __ . __ __ .
 72
    65
 73
     6
 40
1.75
 49
0.5
 74
     0
 49
-0.25
 74
     0
 49
0.5
 74
     0
 49
-0.25
 74
     0
 49
0.0
 74
     0
 49
-0.25
 74
     0
  0
LTYPE
  5
51
330
5
100
AcDbSymbolTableRecord
100
AcDbLinetypeTableRecord
  2
BORDER2
 70
     0
  3
Border (.5x) __.__.__.__.__.__.__.__.__.__.__.
 72
    65
 73
     6
 40
0.875
 49
0.25
 74
     0
 49
-0.125
 74
     0
 49
0.25
 74
     0
 49
-0.125
 74
     0
 49
0.0
 74
     0
 49
-0.125
 74
     0
  0
LTYPE
  5
52
330
5
100
AcDbSymbolTableRecord
100
AcDbLinetypeTableRecord
  2
BORDERX2
 70
     0
  3
Border (2x) ____  ____  .  ____  ____  .  ___
 72
    65
 73
     6
 40
3.5
 49
1.0
 74
     0
 49
-0.5
 74
     0
 49
1.0
 74
     0
 49
-0.5
 74
     0
 49
0.0
 74
     0
 49
-0.5
 74
     0
  0
LTYPE
  5
53
330
5
100
AcDbSymbolTableRecord
100
AcDbLinetypeTableRecord
  2
CENTER
 70
     0
  3
Center ____ _ ____ _ ____ _ ____ _ ____ _ ____
 72
    65
 73
     4
 40
2.0
 49
1.25
 74
     0
 49
-0.25
 74
     0
 49
0.25
 74
     0
 49
-0.25
 74
     0
  0
LTYPE
  5
54
330
5
100
AcDbSymbolTableRecord
100
AcDbLinetypeTableRecord
  2
CENTER2
 70
     0
  3
Center (.5x) ___ _ ___ _ ___ _ ___ _ ___ _ ___
 72
    65
 73
     4
 40
1.125
 49
0.75
 74
     0
 49
-0.125
 74
     0
 49
0.125
 74
     0
 49
-0.125
 74
     0
  0
LTYPE
  5
55
330
5
100
AcDbSymbolTableRecord
100
AcDbLinetypeTableRecord
  2
CENTERX2
 70
     0
  3
Center (2x) ________  __  ________  __  _____
 72
    65
 73
     4
 40
4.0
 49
2.5
 74
     0
 49
-0.5
 74
     0
 49
0.5
 74
     0
 49
-0.5
 74
     0
  0
LTYPE
  5
56
330
5
100
AcDbSymbolTableRecord
100
AcDbLinetypeTableRecord
  2
DASHDOT2
 70
     0
  3
Dash dot (.5x) _._._._._._._._._._._._._._._.
 72
    65
 73
     4
 40
0.5
 49
0.25
 74
     0
 49
-0.125
 74
     0
 49
0.0
 74
     0
 49
-0.125
 74
     0
  0
LTYPE
  5
57
330
5
100
AcDbSymbolTableRecord
100
AcDbLinetypeTableRecord
  2
DASHDOTX2
 70
     0
  3
Dash dot (2x) ____  .  ____  .  ____  .  ___
 72
    65
 73
     4
 40
2.0
 49
1.0
 74
     0
 49
-0.5
 74
     0
 49
0.0
 74
     0
 49
-0.5
 74
     0
  0
LTYPE
  5
59
330
5
100
AcDbSymbolTableRecord
100
AcDbLinetypeTableRecord
  2
DASHED2
 70
     0
  3
Dashed (.5x) _ _ _ _ _ _ _ _ _ _ _ _ _ _ _ _ _
 72
    65
 73
     2
 40
0.375
 49
0.25
 74
     0
 49
-0.125
 74
     0
  0
LTYPE
  5
5A
330
5
100
AcDbSymbolTableRecord
100
AcDbLinetypeTableRecord
  2
DASHEDX2
 70
     0
  3
Dashed (2x) ____  ____  ____  ____  ____  ___
 72
    65
 73
     2
 40
1.5
 49
1.0
 74
     0
 49
-0.5
 74
     0
  0
LTYPE
  5
5B
330
5
100
AcDbSymbolTableRecord
100
AcDbLinetypeTableRecord
  2
DIVIDE
 70
     0
  3
Divide ____ . . ____ . . ____ . . ____ . . ____
 72
    65
 73
     6
 40
1.25
 49
0.5
 74
     0
 49
-0.25
 74
     0
 49
0.0
 74
     0
 49
-0.25
 74
     0
 49
0.0
 74
     0
 49
-0.25
 74
     0
  0
LTYPE
  5
5C
330
5
100
AcDbSymbolTableRecord
100
AcDbLinetypeTableRecord
  2
DIVIDE2
 70
     0
  3
Divide (.5x) __..__..__..__..__..__..__..__.._
 72
    65
 73
     6
 40
0.625
 49
0.25
 74
     0
 49
-0.125
 74
     0
 49
0.0
 74
     0
 49
-0.125
 74
     0
 49
0.0
 74
     0
 49
-0.125
 74
     0
  0
LTYPE
  5
5D
330
5
100
AcDbSymbolTableRecord
100
AcDbLinetypeTableRecord
  2
DIVIDEX2
 70
     0
  3
Divide (2x) ________  .  .  ________  .  .  _
 72
    65
 73
     6
 40
2.5
 49
1.0
 74
     0
 49
-0.5
 74
     0
 49
0.0
 74
     0
 49
-0.5
 74
     0
 49
0.0
 74
     0
 49
-0.5
 74
     0
  0
LTYPE
  5
5E
330
5
100
AcDbSymbolTableRecord
100
AcDbLinetypeTableRecord
  2
DOT
 70
     0
  3
Dot . . . . . . . . . . . . . . . . . . . . . .
 72
    65
 73
     2
 40
0.25
 49
0.0
 74
     0
 49
-0.25
 74
     0
  0
LTYPE
  5
5F
330
5
100
AcDbSymbolTableRecord
100
AcDbLinetypeTableRecord
  2
DOT2
 70
     0
  3
Dot (.5x) .....................................
 72
    65
 73
     2
 40
0.125
 49
0.0
 74
     0
 49
-0.125
 74
     0
  0
LTYPE
  5
60
330
5
100
AcDbSymbolTableRecord
100
AcDbLinetypeTableRecord
  2
DOTX2
 70
     0
  3
Dot (2x) .  .  .  .  .  .  .  .  .  .  .  .  . 
 72
    65
 73
     2
 40
0.5
 49
0.0
 74
     0
 49
-0.5
 74
     0
  0
LTYPE
  5
61
330
5
100
AcDbSymbolTableRecord
100
AcDbLinetypeTableRecord
  2
HIDDEN
 70
     0
  3
Hidden __ __ __ __ __ __ __ __ __ __ __ __ __ _
 72
    65
 73
     2
 40
0.375
 49
0.25
 74
     0
 49
-0.125
 74
     0
  0
LTYPE
  5
62
330
5
100
AcDbSymbolTableRecord
100
AcDbLinetypeTableRecord
  2
HIDDEN2
 70
     0
  3
Hidden (.5x) _ _ _ _ _ _ _ _ _ _ _ _ _ _ _ _ _
 72
    65
 73
     2
 40
0.1875
 49
0.125
 74
     0
 49
-0.0625
 74
     0
  0
LTYPE
  5
63
330
5
100
AcDbSymbolTableRecord
100
AcDbLinetypeTableRecord
  2
HIDDENX2
 70
     0
  3
Hidden (2x) ____ ____ ____ ____ ____ ____ ____
 72
    65
 73
     2
 40
0.75
 49
0.5
 74
     0
 49
-0.25
 74
     0
  0
LTYPE
  5
64
330
5
100
AcDbSymbolTableRecord
100
AcDbLinetypeTableRecord
  2
PHANTOM
 70
     0
  3
Phantom ______  __  __  ______  __  __  ______
 72
    65
 73
     6
 40
2.5
 49
1.25
 74
     0
 49
-0.25
 74
     0
 49
0.25
 74
     0
 49
-0.25
 74
     0
 49
0.25
 74
     0
 49
-0.25
 74
     0
  0
LTYPE
  5
65
330
5
100
AcDbSymbolTableRecord
100
AcDbLinetypeTableRecord
  2
PHANTOM2
 70
     0
  3
Phantom (.5x) ___ _ _ ___ _ _ ___ _ _ ___ _ _
 72
    65
 73
     6
 40
1.25
 49
0.625
 74
     0
 49
-0.125
 74
     0
 49
0.125
 74
     0
 49
-0.125
 74
     0
 49
0.125
 74
     0
 49
-0.125
 74
     0
  0
LTYPE
  5
66
330
5
100
AcDbSymbolTableRecord
100
AcDbLinetypeTableRecord
  2
PHANTOMX2
 70
     0
  3
Phantom (2x) ____________    ____    ____   _
 72
    65
 73
     6
 40
5.0
 49
2.5
 74
     0
 49
-0.5
 74
     0
 49
0.5
 74
     0
 49
-0.5
 74
     0
 49
0.5
 74
     0
 49
-0.5
 74
     0
  0
LTYPE
  5
67
330
5
100
AcDbSymbolTableRecord
100
AcDbLinetypeTableRecord
  2
ACAD_ISO02W100
 70
     0
  3
ISO dash __ __ __ __ __ __ __ __ __ __ __ __ __
 72
    65
 73
     2
 40
0.59
 49
0.47
 74
     0
 49
-0.12
 74
     0
  0
LTYPE
  5
68
330
5
100
AcDbSymbolTableRecord
100
AcDbLinetypeTableRecord
  2
ACAD_ISO03W100
 70
     0
  3
ISO dash space __    __    __    __    __    __
 72
    65
 73
     2
 40
1.179999999999999
 49
0.47
 74
     0
 49
-0.71
 74
     0
  0
LTYPE
  5
69
330
5
100
AcDbSymbolTableRecord
100
AcDbLinetypeTableRecord
  2
ACAD_ISO04W100
 70
     0
  3
ISO long-dash dot ____ . ____ . ____ . ____ . _
 72
    65
 73
     4
 40
1.179999999999999
 49
0.9399999999999998
 74
     0
 49
-0.12
 74
     0
 49
0.0
 74
     0
 49
-0.12
 74
     0
  0
LTYPE
  5
6A
330
5
100
AcDbSymbolTableRecord
100
AcDbLinetypeTableRecord
  2
ACAD_ISO05W100
 70
     0
  3
ISO long-dash double-dot ____ .. ____ .. ____ .
 72
    65
 73
     6
 40
1.299999999999999
 49
0.9399999999999998
 74
     0
 49
-0.12
 74
     0
 49
0.0
 74
     0
 49
-0.12
 74
     0
 49
0.0
 74
     0
 49
-0.12
 74
     0
  0
LTYPE
  5
6B
330
5
100
AcDbSymbolTableRecord
100
AcDbLinetypeTableRecord
  2
ACAD_ISO06W100
 70
     0
  3
ISO long-dash triple-dot ____ ... ____ ... ____
 72
    65
 73
     8
 40
1.419999999999999
 49
0.9399999999999998
 74
     0
 49
-0.12
 74
     0
 49
0.0
 74
     0
 49
-0.12
 74
     0
 49
0.0
 74
     0
 49
-0.12
 74
     0
 49
0.0
 74
     0
 49
-0.12
 74
     0
  0
LTYPE
  5
6C
330
5
100
AcDbSymbolTableRecord
100
AcDbLinetypeTableRecord
  2
ACAD_ISO07W100
 70
     0
  3
ISO dot . . . . . . . . . . . . . . . . . . . .
 72
    65
 73
     2
 40
0.12
 49
0.0
 74
     0
 49
-0.12
 74
     0
  0
LTYPE
  5
6D
330
5
100
AcDbSymbolTableRecord
100
AcDbLinetypeTableRecord
  2
ACAD_ISO08W100
 70
     0
  3
ISO long-dash short-dash ____ __ ____ __ ____ _
 72
    65
 73
     4
 40
0.95
 49
0.47
 74
     0
 49
-0.12
 74
     0
 49
0.24
 74
     0
 49
-0.12
 74
     0
  0
LTYPE
  5
6E
330
5
100
AcDbSymbolTableRecord
100
AcDbLinetypeTableRecord
  2
ACAD_ISO09W100
 70
     0
  3
ISO long-dash double-short-dash ____ __ __ ____
 72
    65
 73
     6
 40
1.31
 49
0.47
 74
     0
 49
-0.12
 74
     0
 49
0.24
 74
     0
 49
-0.12
 74
     0
 49
0.24
 74
     0
 49
-0.12
 74
     0
  0
LTYPE
  5
6F
330
5
100
AcDbSymbolTableRecord
100
AcDbLinetypeTableRecord
  2
ACAD_ISO10W100
 70
     0
  3
ISO dash dot __ . __ . __ . __ . __ . __ . __ .
 72
    65
 73
     4
 40
0.71
 49
0.47
 74
     0
 49
-0.12
 74
     0
 49
0.0
 74
     0
 49
-0.12
 74
     0
  0
LTYPE
  5
70
330
5
100
AcDbSymbolTableRecord
100
AcDbLinetypeTableRecord
  2
ACAD_ISO11W100
 70
     0
  3
ISO double-dash dot __ __ . __ __ . __ __ . __ 
 72
    65
 73
     6
 40
1.299999999999999
 49
0.47
 74
     0
 49
-0.12
 74
     0
 49
0.47
 74
     0
 49
-0.12
 74
     0
 49
0.0
 74
     0
 49
-0.12
 74
     0
  0
LTYPE
  5
71
330
5
100
AcDbSymbolTableRecord
100
AcDbLinetypeTableRecord
  2
ACAD_ISO12W100
 70
     0
  3
ISO dash double-dot __ . . __ . . __ . . __ . .
 72
    65
 73
     6
 40
0.8299999999999998
 49
0.47
 74
     0
 49
-0.12
 74
     0
 49
0.0
 74
     0
 49
-0.12
 74
     0
 49
0.0
 74
     0
 49
-0.12
 74
     0
  0
LTYPE
  5
72
330
5
100
AcDbSymbolTableRecord
100
AcDbLinetypeTableRecord
  2
ACAD_ISO13W100
 70
     0
  3
ISO double-dash double-dot __ __ . . __ __ . . 
 72
    65
 73
     8
 40
1.419999999999999
 49
0.47
 74
     0
 49
-0.12
 74
     0
 49
0.47
 74
     0
 49
-0.12
 74
     0
 49
0.0
 74
     0
 49
-0.12
 74
     0
 49
0.0
 74
     0
 49
-0.12
 74
     0
  0
LTYPE
  5
73
330
5
100
AcDbSymbolTableRecord
100
AcDbLinetypeTableRecord
  2
ACAD_ISO14W100
 70
     0
  3
ISO dash triple-dot __ . . . __ . . . __ . . . 
 72
    65
 73
     8
 40
0.95
 49
0.47
 74
     0
 49
-0.12
 74
     0
 49
0.0
 74
     0
 49
-0.12
 74
     0
 49
0.0
 74
     0
 49
-0.12
 74
     0
 49
0.0
 74
     0
 49
-0.12
 74
     0
  0
LTYPE
  5
74
330
5
100
AcDbSymbolTableRecord
100
AcDbLinetypeTableRecord
  2
ACAD_ISO15W100
 70
     0
  3
ISO double-dash triple-dot __ __ . . . __ __ . 
 72
    65
 73
    10
 40
1.539999999999999
 49
0.47
 74
     0
 49
-0.12
 74
     0
 49
0.47
 74
     0
 49
-0.12
 74
     0
 49
0.0
 74
     0
 49
-0.12
 74
     0
 49
0.0
 74
     0
 49
-0.12
 74
     0
 49
0.0
 74
     0
 49
-0.12
 74
     0
  0
LTYPE
  5
77
330
5
100
AcDbSymbolTableRecord
100
AcDbLinetypeTableRecord
  2
FENCELINE1
 70
     0
  3
Fenceline circle ----0-----0----0-----0----0---
 72
    65
 73
     4
 40
1.45
 49
0.25
 74
     0
 49
-0.1
 74
     4
 75
   133
340
76
 46
0.1
 50
0.0
 44
-0.1
 45
0.0
 49
-0.1
 74
     0
 49
1.0
 74
     0
  0
LTYPE
  5
78
330
5
100
AcDbSymbolTableRecord
100
AcDbLinetypeTableRecord
  2
FENCELINE2
 70
     0
  3
Fenceline square ----[]-----[]----[]-----[]----
 72
    65
 73
     4
 40
1.45
 49
0.25
 74
     0
 49
-0.1
 74
     4
 75
   132
340
76
 46
0.1
 50
0.0
 44
-0.1
 45
0.0
 49
-0.1
 74
     0
 49
1.0
 74
     0
  0
LTYPE
  5
79
330
5
100
AcDbSymbolTableRecord
100
AcDbLinetypeTableRecord
  2
TRACKS
 70
     0
  3
Tracks -|-|-|-|-|-|-|-|-|-|-|-|-|-|-|-|-|-|-|-|
 72
    65
 73
     2
 40
0.3
 49
0.15
 74
     4
 75
   130
340
76
 46
0.25
 50
0.0
 44
0.0
 45
0.0
 49
0.15
 74
     0
  0
LTYPE
  5
7A
330
5
100
AcDbSymbolTableRecord
100
AcDbLinetypeTableRecord
  2
BATTING
 70
     0
  3
Batting SSSSSSSSSSSSSSSSSSSSSSSSSSSSSSSSSSSSSSS
 72
    65
 73
     4
 40
0.4001000000000001
 49
0.0001
 74
     0
 49
-0.1
 74
     4
 75
   134
340
76
 46
0.1
 50
0.0
 44
-0.1
 45
0.0
 49
-0.2
 74
     4
 75
   134
340
76
 46
0.1
 50
180.0
 44
0.1
 45
0.0
 49
-0.1
 74
     0
  0
LTYPE
  5
7B
330
5
100
AcDbSymbolTableRecord
100
AcDbLinetypeTableRecord
  2
HOT_WATER_SUPPLY
 70
     0
  3
Hot water supply ---- HW ---- HW ---- HW ----
 72
    65
 73
     3
 40
0.9
 49
0.5
 74
     0
 49
-0.2
 74
     2
 75
     0
340
26
 46
0.1
 50
0.0
 44
-0.1
 45
-0.05
  9
HW
 49
-0.2
 74
     0
  0
LTYPE
  5
7C
330
5
100
AcDbSymbolTableRecord
100
AcDbLinetypeTableRecord
  2
GAS_LINE
 70
     0
  3
Gas line ----GAS----GAS----GAS----GAS----GAS---
 72
    65
 73
     3
 40
0.95
 49
0.5
 74
     0
 49
-0.2
 74
     2
 75
     0
340
26
 46
0.1
 50
0.0
 44
-0.1
 45
-0.05
  9
GAS
 49
-0.25
 74
     0
  0
LTYPE
  5
7D
330
5
100
AcDbSymbolTableRecord
100
AcDbLinetypeTableRecord
  2
ZIGZAG
 70
     0
  3
Zig zag /\/\/\/\/\/\/\/\/\/\/\/\/\/\/\/\/\/\/\/
 72
    65
 73
     4
 40
0.8001000000000001
 49
0.0001
 74
     0
 49
-0.2
 74
     4
 75
   131
340
76
 46
0.2
 50
0.0
 44
-0.2
 45
0.0
 49
-0.4
 74
     4
 75
   131
340
76
 46
0.2
 50
180.0
 44
0.2
 45
0.0
 49
-0.2
 74
     0
  0
ENDTAB
  0
TABLE
  2
LAYER
  5
2
330
0
100
AcDbSymbolTable
 70
    26
  0
LAYER
  5
25
330
2
100
AcDbSymbolTableRecord
100
AcDbLayerTableRecord
  2
0
 70
     0
 62
     7
  6
Continuous
370
    -3
390
F
  0
LAYER
  5
81
330
2
100
AcDbSymbolTableRecord
100
AcDbLayerTableRecord
  2
Border (ANSI)
 70
     0
 62
     7
  6
Continuous
370
    70
390
F
  0
LAYER
  5
82
330
2
100
AcDbSymbolTableRecord
100
AcDbLayerTableRecord
  2
Break Line (ANSI)
 70
     0
 62
     7
  6
Continuous
370
    50
390
F
  0
LAYER
  5
84
330
2
100
AcDbSymbolTableRecord
100
AcDbLayerTableRecord
  2
Centerline (ANSI)
 70
     0
 62
     7
  6
Continuous
370
    25
390
F
  0
LAYER
  5
85
330
2
100
AcDbSymbolTableRecord
100
AcDbLayerTableRecord
  2
Detail Boundary (ANSI)
 70
     0
 62
     7
  6
DOUBLE_DASH_CHAIN
370
    50
390
F
  0
LAYER
  5
86
330
2
100
AcDbSymbolTableRecord
100
AcDbLayerTableRecord
  2
Dimension (ANSI)
 70
     0
 62
     7
  6
Continuous
370
    25
390
F
  0
LAYER
  5
89
330
2
100
AcDbSymbolTableRecord
100
AcDbLayerTableRecord
  2
Hidden Narrow (ANSI)
 70
     0
 62
     7
  6
DASHED
370
    25
390
F
  0
LAYER
  5
8E
330
2
100
AcDbSymbolTableRecord
100
AcDbLayerTableRecord
  2
Symbol (ANSI)
 70
     0
 62
     7
  6
Continuous
370
    25
390
F
  0
LAYER
  5
91
330
2
100
AcDbSymbolTableRecord
100
AcDbLayerTableRecord
  2
Visible (ANSI)
 70
     0
 62
     7
  6
Continuous
370
    50
390
F
  0
LAYER
  5
180
330
2
100
AcDbSymbolTableRecord
100
AcDbLayerTableRecord
  2
Defpoints
 70
     0
 62
     7
  6
Continuous
290
     0
370
    -3
390
F
  0
ENDTAB
  0
TABLE
  2
STYLE
  5
3
330
0
100
AcDbSymbolTable
 70
    12
  0
STYLE
  5
26
330
3
100
AcDbSymbolTableRecord
100
AcDbTextStyleTableRecord
  2
Standard
 70
     0
 40
0.0
 41
1.0
 50
0.0
 71
     0
 42
0.2
  3
TAHOMA.TTF
  4

1001
ACAD
1000
Tahoma
1071
      256
  0
STYLE
  5
76
330
3
100
AcDbSymbolTableRecord
100
AcDbTextStyleTableRecord
  2

 70
     1
 40
0.0
 41
1.0
 50
0.0
 71
     0
 42
0.2
  3
ltypeshp.shx
  4

  0
STYLE
  5
96
330
3
100
AcDbSymbolTableRecord
100
AcDbTextStyleTableRecord
  2
Label Text (ANSI)
 70
     0
 40
0.0
 41
1.0
 50
0.0
 71
     0
 42
0.2
  3
TAHOMA.TTF
  4

1001
ACAD
1000
Tahoma
1071
      256
  0
STYLE
  5
97
330
3
100
AcDbSymbolTableRecord
100
AcDbTextStyleTableRecord
  2
Label Text (DIN)
 70
     0
 40
0.0
 41
1.0
 50
0.0
 71
     0
 42
0.2
  3
isocpeur.ttf
  4

1001
ACAD
1000
ISOCPEUR
1071
      256
  0
STYLE
  5
98
330
3
100
AcDbSymbolTableRecord
100
AcDbTextStyleTableRecord
  2
Label Text (ISO)
 70
     0
 40
0.0
 41
1.0
 50
0.0
 71
     0
 42
0.2
  3
TAHOMA.TTF
  4

1001
ACAD
1000
Tahoma
1071
      256
  0
STYLE
  5
99
330
3
100
AcDbSymbolTableRecord
100
AcDbTextStyleTableRecord
  2
Label Text (JIS)
 70
     0
 40
0.0
 41
1.0
 50
0.0
 71
     0
 42
0.2
  3
TAHOMA.TTF
  4

1001
ACAD
1000
Tahoma
1071
      256
  0
STYLE
  5
9A
330
3
100
AcDbSymbolTableRecord
100
AcDbTextStyleTableRecord
  2
Note Text (ANSI)
 70
     0
 40
0.0
 41
1.0
 50
0.0
 71
     0
 42
0.2
  3
TAHOMA.TTF
  4

1001
ACAD
1000
Tahoma
1071
      256
  0
STYLE
  5
9B
330
3
100
AcDbSymbolTableRecord
100
AcDbTextStyleTableRecord
  2
Note Text (DIN)
 70
     0
 40
0.0
 41
1.0
 50
0.0
 71
     0
 42
0.2
  3
isocpeur.ttf
  4

1001
ACAD
1000
ISOCPEUR
1071
      256
  0
STYLE
  5
9C
330
3
100
AcDbSymbolTableRecord
100
AcDbTextStyleTableRecord
  2
Note Text (ISO)
 70
     0
 40
0.0
 41
1.0
 50
0.0
 71
     0
 42
0.2
  3
TAHOMA.TTF
  4

1001
ACAD
1000
Tahoma
1071
      256
  0
STYLE
  5
9D
330
3
100
AcDbSymbolTableRecord
100
AcDbTextStyleTableRecord
  2
Note Text (JIS)
 70
     0
 40
0.0
 41
1.0
 50
0.0
 71
     0
 42
0.2
  3
TAHOMA.TTF
  4

1001
ACAD
1000
Tahoma
1071
      256
  0
STYLE
  5
F3
330
3
100
AcDbSymbolTableRecord
100
AcDbTextStyleTableRecord
  2
Text Style29
 70
     0
 40
0.0
 41
1.0
 50
0.0
 71
     0
 42
0.2
  3
TAHOMA.TTF
  4

1001
ACAD
1000
Tahoma
1071
      256
  0
STYLE
  5
14D
330
3
100
AcDbSymbolTableRecord
100
AcDbTextStyleTableRecord
  2
Text Style30
 70
     0
 40
0.0
 41
1.0
 50
0.0
 71
     0
 42
0.2
  3
TAHOMA.TTF
  4

1001
ACAD
1000
Tahoma
1071
      256
  0
ENDTAB
  0
TABLE
  2
VIEW
  5
6
330
0
100
AcDbSymbolTable
 70
     0
  0
ENDTAB
  0
TABLE
  2
UCS
  5
7
330
0
100
AcDbSymbolTable
 70
     0
  0
ENDTAB
  0
TABLE
  2
APPID
  5
9
330
0
100
AcDbSymbolTable
 70
     1
  0
APPID
  5
27
330
9
100
AcDbSymbolTableRecord
100
AcDbRegAppTableRecord
  2
ACAD
 70
     0
  0
ENDTAB
  0
TABLE
  2
DIMSTYLE
  5
A
330
0
100
AcDbSymbolTable
 70
    17
100
AcDbDimStyleTable
 71
     2
340
A6
340
3F
  0
DIMSTYLE
105
3F
330
A
100
AcDbSymbolTableRecord
100
AcDbDimStyleTableRecord
  2
Standard
 70
     0
340
26
  0
DIMSTYLE
105
9E
330
A
100
AcDbSymbolTableRecord
100
AcDbDimStyleTableRecord
  2
Architectural (ANSI)
 70
     0
 40
0.25
 41
0.0984251946210861
 42
0.0625
 43
0.2362204724409449
 44
0.125
 45
0.00000001
 46
0.3937007874015748
 78
     4
 79
     3
140
0.1200000047683716
144
0.0833333333333333
147
0.031496062992126
171
     1
176
   256
177
   256
178
   256
272
     2
274
     1
276
     2
277
     4
284
    12
286
    12
340
9A
371
    -1
372
    -1
  0
DIMSTYLE
105
9F
330
A
100
AcDbSymbolTableRecord
100
AcDbDimStyleTableRecord
  2
Architectural (ANSI)$7
 70
     0
 40
0.25
 41
0.0984251946210861
 42
0.0625
 43
0.2362204724409449
 44
0.125
 45
0.00000001
 46
0.3937007874015748
 78
     4
 79
     3
140
0.1200000047683716
144
0.0833333333333333
147
0.031496062992126
171
     1
176
   256
177
   256
178
   256
272
     2
274
     1
276
     2
277
     4
284
    12
286
    12
340
9A
371
    -1
372
    -1
  0
DIMSTYLE
105
A0
330
A
100
AcDbSymbolTableRecord
100
AcDbDimStyleTableRecord
  2
Default - Fraction (ANSI)
 70
     0
 40
0.25
 41
0.0984251946210861
 42
0.0625
 43
0.2362204724409449
 44
0.125
 45
0.00000001
 46
0.3937007874015748
 78
    12
 79
     3
140
0.1200000047683716
147
0.031496062992126
171
     1
176
   256
177
   256
178
   256
272
     2
274
     1
276
     2
277
     5
284
    12
286
    12
340
9A
371
    -1
372
    -1
  0
DIMSTYLE
105
A1
330
A
100
AcDbSymbolTableRecord
100
AcDbDimStyleTableRecord
  2
Default - Fraction (ANSI)$7
 70
     0
 40
0.25
 41
0.0984251946210861
 42
0.0625
 43
0.2362204724409449
 44
0.125
 45
0.00000001
 46
0.3937007874015748
 78
    12
 79
     3
140
0.1200000047683716
147
0.031496062992126
171
     1
176
   256
177
   256
178
   256
272
     2
274
     1
276
     2
277
     5
284
    12
286
    12
340
9A
371
    -1
372
    -1
  0
DIMSTYLE
105
A2
330
A
100
AcDbSymbolTableRecord
100
AcDbDimStyleTableRecord
  2
Default - mm (ANSI)
 70
     0
 40
0.25
 41
0.0984251946210861
 42
0.063
 43
0.2362204724409449
 44
0.125
 45
0.00000001
 46
0.3937007874015748
 73
     0
140
0.1200000047683716
143
1.0
144
25.4
147
0.031496062992126
171
     1
176
   256
177
   256
178
   256
179
     1
271
     2
272
     2
274
     1
340
9A
371
    -1
372
    -1
  0
DIMSTYLE
105
A3
330
A
100
AcDbSymbolTableRecord
100
AcDbDimStyleTableRecord
  2
Default - mm (ANSI)$7
 70
     0
 40
0.25
 41
0.0984251946210861
 42
0.063
 43
0.2362204724409449
 44
0.125
 45
0.00000001
 46
0.3937007874015748
 73
     0
140
0.1200000047683716
143
1.0
144
25.4
147
0.031496062992126
171
     1
176
   256
177
   256
178
   256
179
     1
271
     2
272
     2
274
     1
340
9A
371
    -1
372
    -1
  0
DIMSTYLE
105
A4
330
A
100
AcDbSymbolTableRecord
100
AcDbDimStyleTableRecord
  2
Default - mm [in] (ANSI)
 70
     0
  4
 in
 40
0.25
 41
0.0984251946210861
 42
0.063
 43
0.25
 44
0.125
 45
0.00000001
 46
0.3937007874015748
 73
     0
 78
     4
 79
     1
140
0.1200000047683716
143
0.03937
144
25.4
147
0.031496062992126
170
     1
171
     3
176
   256
177
   256
178
   256
179
     1
271
     2
272
     2
274
     3
284
     4
286
     4
340
9A
371
    -1
372
    -1
  0
DIMSTYLE
105
A5
330
A
100
AcDbSymbolTableRecord
100
AcDbDimStyleTableRecord
  2
Default - mm [in] (ANSI)$7
 70
     0
  4
 in
 40
0.25
 41
0.0984251946210861
 42
0.063
 43
0.25
 44
0.125
 45
0.00000001
 46
0.3937007874015748
 73
     0
 78
     4
 79
     1
140
0.1200000047683716
143
0.03937
144
25.4
147
0.031496062992126
170
     1
171
     3
176
   256
177
   256
178
   256
179
     1
271
     2
272
     2
274
     3
284
     4
286
     4
340
9A
371
    -1
372
    -1
  0
DIMSTYLE
105
A6
102
{ACAD_REACTORS
330
17F
330
21D
330
307
330
3E4
330
4B6
330
5E8
330
6BE
330
7A0
330
84A
102
}
330
A
100
AcDbSymbolTableRecord
100
AcDbDimStyleTableRecord
  2
Default (ANSI)
 70
     0
 40
0.25
 41
0.0984251946210861
 42
0.0625
 43
0.2362204724409449
 44
0.125
 45
0.00000001
 46
0.3937007874015748
140
0.1200000047683716
147
0.031496062992126
171
     1
176
   256
177
   256
178
   256
271
     3
272
     3
274
     1
340
9A
371
    -1
372
    -1
  0
DIMSTYLE
105
A7
330
A
100
AcDbSymbolTableRecord
100
AcDbDimStyleTableRecord
  2
Default (ANSI)$7
 70
     0
 40
0.25
 41
0.0984251946210861
 42
0.0625
 43
0.2362204724409449
 44
0.125
 45
0.00000001
 46
0.3937007874015748
140
0.1200000047683716
147
0.031496062992126
171
     1
176
   256
177
   256
178
   256
271
     3
272
     3
274
     1
340
9A
371
    -1
372
    -1
  0
DIMSTYLE
105
A8
330
A
100
AcDbSymbolTableRecord
100
AcDbDimStyleTableRecord
  2
Default (ANSI)-01
 70
     0
 40
0.25
 41
0.0984251946210861
 42
0.0625
 43
0.2362204724409449
 44
0.125
 45
0.00000001
 46
0.3937007874015748
140
0.1200000047683716
147
0.031496062992126
171
     1
176
   256
177
   256
178
   256
271
     3
272
     3
274
     1
340
9A
371
    -1
372
    -1
  0
DIMSTYLE
105
A9
330
A
100
AcDbSymbolTableRecord
100
AcDbDimStyleTableRecord
  2
Default (ANSI)-01$7
 70
     0
 40
0.25
 41
0.0984251946210861
 42
0.0625
 43
0.2362204724409449
 44
0.125
 45
0.00000001
 46
0.3937007874015748
140
0.1200000047683716
147
0.031496062992126
171
     1
176
   256
177
   256
178
   256
271
     3
272
     3
274
     1
340
9A
371
    -1
372
    -1
  0
DIMSTYLE
105
B8
330
A
100
AcDbSymbolTableRecord
100
AcDbDimStyleTableRecord
  2
Miscellaneous Object (ANSI)
 70
     0
 40
0.25
 41
0.1968503892421722
 42
0.0625
 43
0.2362204724409449
 44
0.125
 45
0.00000001
 46
0.3937007874015748
140
0.1799999922513962
146
0.666666721856155
147
0.031496062992126
171
     1
176
   256
177
   256
178
   256
271
     2
272
     2
274
     1
340
96
341
AA
371
    -1
372
    -1
  0
DIMSTYLE
105
B9
330
A
100
AcDbSymbolTableRecord
100
AcDbDimStyleTableRecord
  2
Miscellaneous Object (ANSI)$7
 70
     0
 40
0.25
 41
0.1959999948740005
 42
0.0625
 43
0.2362204724409449
 44
0.125
 45
0.00000001
 46
0.3937007874015748
140
0.1799999922513962
146
0.666666721856155
147
0.031496062992126
171
     1
176
   256
177
   256
178
   256
271
     2
272
     2
274
     1
340
96
341
AA
371
    -1
372
    -1
  0
DIMSTYLE
105
BA
330
A
100
AcDbSymbolTableRecord
100
AcDbDimStyleTableRecord
  2
Alternate (ANSI)
 70
     0
 40
0.25
 41
0.0979999974370003
340
26
342
BB
  0
DIMSTYLE
105
CC
330
A
100
AcDbSymbolTableRecord
100
AcDbDimStyleTableRecord
  2
Datum (ANSI)
 70
     0
 40
0.25
 41
0.0979999974370003
340
26
342
BB
  0
ENDTAB
  0
TABLE
  2
BLOCK_RECORD
  5
1
330
0
100
AcDbSymbolTable
 70
    17
  0
BLOCK_RECORD
  5
37
330
1
100
AcDbSymbolTableRecord
100
AcDbBlockTableRecord
  2
*Model_Space
340
3A
  0
BLOCK_RECORD
  5
33
330
1
100
AcDbSymbolTableRecord
100
AcDbBlockTableRecord
  2
*Paper_Space
340
36
  0
BLOCK_RECORD
  5
3B
330
1
100
AcDbSymbolTableRecord
100
AcDbBlockTableRecord
  2
*Paper_Space0
340
3E
  0
BLOCK_RECORD
  5
AA
330
1
100
AcDbSymbolTableRecord
100
AcDbBlockTableRecord
  2
Filled-1
340
0
  0
BLOCK_RECORD
  5
BB
330
1
100
AcDbSymbolTableRecord
100
AcDbBlockTableRecord
  2
_Closed
340
0
  0
BLOCK_RECORD
  5
C2
330
1
100
AcDbSymbolTableRecord
100
AcDbBlockTableRecord
  2
DatumFilled45
340
0
  0
BLOCK_RECORD
  5
CD
330
1
100
AcDbSymbolTableRecord
100
AcDbBlockTableRecord
  2
Borders Default Border
340
0
102
{BLKREFS
331
FE
102
}
  0
BLOCK_RECORD
  5
14A
330
1
100
AcDbSymbolTableRecord
100
AcDbBlockTableRecord
  2
2dDetail2
340
0
102
{BLKREFS
331
16B
102
}
  0
BLOCK_RECORD
  5
181
330
1
100
AcDbSymbolTableRecord
100
AcDbBlockTableRecord
  2
*D6
340
0
  0
BLOCK_RECORD
  5
21E
330
1
100
AcDbSymbolTableRecord
100
AcDbBlockTableRecord
  2
*D7
340
0
  0
BLOCK_RECORD
  5
308
330
1
100
AcDbSymbolTableRecord
100
AcDbBlockTableRecord
  2
*D8
340
0
  0
BLOCK_RECORD
  5
3E5
330
1
100
AcDbSymbolTableRecord
100
AcDbBlockTableRecord
  2
*D9
340
0
  0
BLOCK_RECORD
  5
4B7
330
1
100
AcDbSymbolTableRecord
100
AcDbBlockTableRecord
  2
*D10
340
0
  0
BLOCK_RECORD
  5
5B4
330
1
100
AcDbSymbolTableRecord
100
AcDbBlockTableRecord
  2
2dDetail3
340
0
102
{BLKREFS
331
5CF
102
}
  0
BLOCK_RECORD
  5
5E9
330
1
100
AcDbSymbolTableRecord
100
AcDbBlockTableRecord
  2
*D12
340
0
  0
BLOCK_RECORD
  5
6BF
330
1
100
AcDbSymbolTableRecord
100
AcDbBlockTableRecord
  2
*D13
340
0
  0
BLOCK_RECORD
  5
7A1
330
1
100
AcDbSymbolTableRecord
100
AcDbBlockTableRecord
  2
*D14
340
0
  0
BLOCK_RECORD
  5
840
330
1
100
AcDbSymbolTableRecord
100
AcDbBlockTableRecord
  2
_Dot
340
0
  0
BLOCK_RECORD
  5
84B
330
1
100
AcDbSymbolTableRecord
100
AcDbBlockTableRecord
  2
*D16
340
0
  0
ENDTAB
  0
ENDSEC
  0
SECTION
  2
BLOCKS
  0
BLOCK
  5
38
330
37
100
AcDbEntity
  8
0
100
AcDbBlockBegin
  2
*Model_Space
 70
     0
 10
0.0
 20
0.0
 30
0.0
  3
*Model_Space
  1

  0
ENDBLK
  5
39
330
37
100
AcDbEntity
  8
0
100
AcDbBlockEnd
  0
BLOCK
  5
34
330
33
100
AcDbEntity
 67
     1
  8
0
100
AcDbBlockBegin
  2
*Paper_Space
 70
     0
 10
0.0
 20
0.0
 30
0.0
  3
*Paper_Space
  1

  0
ENDBLK
  5
35
330
33
100
AcDbEntity
 67
     1
  8
0
100
AcDbBlockEnd
  0
BLOCK
  5
3C
330
3B
100
AcDbEntity
 67
     1
  8
0
100
AcDbBlockBegin
  2
*Paper_Space0
 70
     0
 10
0.0
 20
0.0
 30
0.0
  3
*Paper_Space0
  1

  0
ENDBLK
  5
3D
330
3B
100
AcDbEntity
 67
     1
  8
0
100
AcDbBlockEnd
  0
BLOCK
  5
AB
330
AA
100
AcDbEntity
  8
0
100
AcDbBlockBegin
  2
Filled-1
 70
     0
 10
0.0
 20
0.0
 30
0.0
  3
Filled-1
  1

  0
LINE
  5
AD
330
AA
100
AcDbEntity
  8
0
 62
     0
100
AcDbLine
 10
-0.9999999999999998
 20
0.0
 30
0.0
 11
0.0
 21
0.0
 31
0.0
  0
POLYLINE
  5
AE
330
AA
100
AcDbEntity
  8
0
 62
     0
100
AcDb2dPolyline
 66
     1
 10
0.0
 20
0.0
 30
0.0
 70
   128
  0
VERTEX
  5
AF
330
AE
100
AcDbEntity
  8
0
 62
     0
100
AcDbVertex
100
AcDb2dVertex
 10
-0.9999999999999998
 20
-0.0994897959183674
 30
0.0
  0
VERTEX
  5
B0
330
AE
100
AcDbEntity
  8
0
 62
     0
100
AcDbVertex
100
AcDb2dVertex
 10
0.0
 20
0.0
 30
0.0
  0
VERTEX
  5
B2
330
AE
100
AcDbEntity
  8
0
 62
     0
100
AcDbVertex
100
AcDb2dVertex
 10
-0.9999999999999998
 20
0.0994897959183674
 30
0.0
  0
VERTEX
  5
B3
330
AE
100
AcDbEntity
  8
0
 62
     0
100
AcDbVertex
100
AcDb2dVertex
 10
-0.9999999999999998
 20
-0.0994897959183674
 30
0.0
  0
SEQEND
  5
B1
330
AE
100
AcDbEntity
  8
0
 62
     0
  0
SOLID
  5
B4
330
AA
100
AcDbEntity
  8
0
 62
     0
100
AcDbTrace
 10
-0.9999999999999998
 20
-0.0994897959183674
 30
0.0
 11
0.0
 21
0.0
 31
0.0
 12
-0.9999999999999998
 22
0.0994897959183674
 32
0.0
 13
-0.9999999999999998
 23
-0.0994897959183674
 33
0.0
  0
LINE
  5
B5
330
AA
100
AcDbEntity
  8
0
 62
     0
100
AcDbLine
 10
-0.9999999999999998
 20
-0.0994897959183674
 30
0.0
 11
0.0
 21
0.0
 31
0.0
  0
LINE
  5
B6
330
AA
100
AcDbEntity
  8
0
 62
     0
100
AcDbLine
 10
0.0
 20
0.0
 30
0.0
 11
-0.9999999999999998
 21
0.0994897959183674
 31
0.0
  0
LINE
  5
B7
330
AA
100
AcDbEntity
  8
0
 62
     0
100
AcDbLine
 10
-0.9999999999999998
 20
0.0994897959183674
 30
0.0
 11
-0.9999999999999998
 21
-0.0994897959183674
 31
0.0
  0
ENDBLK
  5
AC
330
AA
100
AcDbEntity
  8
0
100
AcDbBlockEnd
  0
BLOCK
  5
C0
330
BB
100
AcDbEntity
  8
0
100
AcDbBlockBegin
  2
_Closed
 70
     0
 10
0.0
 20
0.0
 30
0.0
  3
_Closed
  1

  0
LINE
  5
BC
330
BB
100
AcDbEntity
  8
0
  6
ByBlock
 62
     0
370
    -2
100
AcDbLine
 10
-1.0
 20
0.1666666666666666
 30
0.0
 11
0.0
 21
0.0
 31
0.0
  0
LINE
  5
BD
330
BB
100
AcDbEntity
  8
0
  6
ByBlock
 62
     0
370
    -2
100
AcDbLine
 10
0.0
 20
0.0
 30
0.0
 11
-1.0
 21
-0.1666666666666666
 31
0.0
  0
LINE
  5
BE
330
BB
100
AcDbEntity
  8
0
  6
ByBlock
 62
     0
370
    -2
100
AcDbLine
 10
-1.0
 20
0.1666666666666666
 30
0.0
 11
-1.0
 21
-0.1666666666666666
 31
0.0
  0
LINE
  5
BF
330
BB
100
AcDbEntity
  8
0
  6
ByBlock
 62
     0
370
    -2
100
AcDbLine
 10
0.0
 20
0.0
 30
0.0
 11
-1.0
 21
0.0
 31
0.0
  0
ENDBLK
  5
C1
330
BB
100
AcDbEntity
  8
0
100
AcDbBlockEnd
  0
BLOCK
  5
C3
330
C2
100
AcDbEntity
  8
0
100
AcDbBlockBegin
  2
DatumFilled45
 70
     0
 10
0.0
 20
0.0
 30
0.0
  3
DatumFilled45
  1

  0
POLYLINE
  5
C5
330
C2
100
AcDbEntity
  8
0
 62
     0
100
AcDb2dPolyline
 66
     1
 10
0.0
 20
0.0
 30
0.0
 70
   128
  0
VERTEX
  5
C6
330
C5
100
AcDbEntity
  8
0
 62
     0
100
AcDbVertex
100
AcDb2dVertex
 10
0.0
 20
0.9999999999999998
 30
0.0
  0
VERTEX
  5
C7
330
C5
100
AcDbEntity
  8
0
 62
     0
100
AcDbVertex
100
AcDb2dVertex
 10
0.0
 20
-0.9999999999999998
 30
0.0
  0
VERTEX
  5
C9
330
C5
100
AcDbEntity
  8
0
 62
     0
100
AcDbVertex
100
AcDb2dVertex
 10
-0.9999999999999998
 20
0.0
 30
0.0
  0
VERTEX
  5
CA
330
C5
100
AcDbEntity
  8
0
 62
     0
100
AcDbVertex
100
AcDb2dVertex
 10
0.0
 20
0.9999999999999998
 30
0.0
  0
SEQEND
  5
C8
330
C5
100
AcDbEntity
  8
0
 62
     0
  0
SOLID
  5
CB
330
C2
100
AcDbEntity
  8
0
 62
     0
100
AcDbTrace
 10
0.0
 20
0.9999999999999998
 30
0.0
 11
0.0
 21
-0.9999999999999998
 31
0.0
 12
-0.9999999999999998
 22
0.0
 32
0.0
 13
0.0
 23
0.9999999999999998
 33
0.0
  0
ENDBLK
  5
C4
330
C2
100
AcDbEntity
  8
0
100
AcDbBlockEnd
  0
BLOCK
  5
CE
330
CD
100
AcDbEntity
  8
0
100
AcDbBlockBegin
  2
Borders Default Border
 70
     0
 10
0.0
 20
0.0
 30
0.0
  3
Borders Default Border
  1

  0
POLYLINE
  5
D0
330
CD
100
AcDbEntity
  8
Border (ANSI)
100
AcDb2dPolyline
 66
     1
 10
0.0
 20
0.0
 30
0.0
 70
   128
  0
VERTEX
  5
D1
330
D0
100
AcDbEntity
  8
Border (ANSI)
100
AcDbVertex
100
AcDb2dVertex
 10
0.380000002740875
 20
0.380000002740875
 30
0.0
  0
VERTEX
  5
D2
330
D0
100
AcDbEntity
  8
Border (ANSI)
100
AcDbVertex
100
AcDb2dVertex
 10
0.380000002740875
 20
8.119999893068328
 30
0.0
  0
VERTEX
  5
D4
330
D0
100
AcDbEntity
  8
Border (ANSI)
100
AcDbVertex
100
AcDb2dVertex
 10
10.62000004325326
 20
8.119999893068328
 30
0.0
  0
VERTEX
  5
D5
330
D0
100
AcDbEntity
  8
Border (ANSI)
100
AcDbVertex
100
AcDb2dVertex
 10
10.62000004325326
 20
0.380000002740875
 30
0.0
  0
VERTEX
  5
D6
330
D0
100
AcDbEntity
  8
Border (ANSI)
100
AcDbVertex
100
AcDb2dVertex
 10
0.380000002740875
 20
0.380000002740875
 30
0.0
  0
SEQEND
  5
D3
330
D0
100
AcDbEntity
  8
Border (ANSI)
  0
POLYLINE
  5
D7
330
CD
100
AcDbEntity
  8
Border (ANSI)
100
AcDb2dPolyline
 66
     1
 10
0.0
 20
0.0
 30
0.0
 70
   128
  0
VERTEX
  5
D8
330
D7
100
AcDbEntity
  8
Border (ANSI)
100
AcDbVertex
100
AcDb2dVertex
 10
5.500000105129451
 20
0.1299999947623005
 30
0.0
  0
VERTEX
  5
D9
330
D7
100
AcDbEntity
  8
Border (ANSI)
100
AcDbVertex
100
AcDb2dVertex
 10
5.500000105129451
 20
0.380000002740875
 30
0.0
  0
VERTEX
  5
DB
330
D7
100
AcDbEntity
  8
Border (ANSI)
100
AcDbVertex
100
AcDb2dVertex
 10
5.413397466103861
 20
0.2300000096869281
 30
0.0
  0
VERTEX
  5
DC
330
D7
100
AcDbEntity
  8
Border (ANSI)
100
AcDbVertex
100
AcDb2dVertex
 10
5.586602368692712
 20
0.2300000096869281
 30
0.0
  0
VERTEX
  5
DD
330
D7
100
AcDbEntity
  8
Border (ANSI)
100
AcDbVertex
100
AcDb2dVertex
 10
5.500000105129451
 20
0.380000002740875
 30
0.0
  0
SEQEND
  5
DA
330
D7
100
AcDbEntity
  8
Border (ANSI)
  0
POLYLINE
  5
DE
330
CD
100
AcDbEntity
  8
Border (ANSI)
100
AcDb2dPolyline
 66
     1
 10
0.0
 20
0.0
 30
0.0
 70
   128
  0
VERTEX
  5
DF
330
DE
100
AcDbEntity
  8
Border (ANSI)
100
AcDbVertex
100
AcDb2dVertex
 10
5.500000105129451
 20
8.369999983179287
 30
0.0
  0
VERTEX
  5
E0
330
DE
100
AcDbEntity
  8
Border (ANSI)
100
AcDbVertex
100
AcDb2dVertex
 10
5.500000105129451
 20
8.119999893068328
 30
0.0
  0
VERTEX
  5
E2
330
DE
100
AcDbEntity
  8
Border (ANSI)
100
AcDbVertex
100
AcDb2dVertex
 10
5.413397466103861
 20
8.270000097319835
 30
0.0
  0
VERTEX
  5
E3
330
DE
100
AcDbEntity
  8
Border (ANSI)
100
AcDbVertex
100
AcDb2dVertex
 10
5.586602368692712
 20
8.270000097319835
 30
0.0
  0
VERTEX
  5
E4
330
DE
100
AcDbEntity
  8
Border (ANSI)
100
AcDbVertex
100
AcDb2dVertex
 10
5.500000105129451
 20
8.119999893068328
 30
0.0
  0
SEQEND
  5
E1
330
DE
100
AcDbEntity
  8
Border (ANSI)
  0
POLYLINE
  5
E5
330
CD
100
AcDbEntity
  8
Border (ANSI)
100
AcDb2dPolyline
 66
     1
 10
0.0
 20
0.0
 30
0.0
 70
   128
  0
VERTEX
  5
E6
330
E5
100
AcDbEntity
  8
Border (ANSI)
100
AcDbVertex
100
AcDb2dVertex
 10
0.1299999947623005
 20
4.250000030036986
 30
0.0
  0
VERTEX
  5
E7
330
E5
100
AcDbEntity
  8
Border (ANSI)
100
AcDbVertex
100
AcDb2dVertex
 10
0.380000002740875
 20
4.250000030036986
 30
0.0
  0
VERTEX
  5
E9
330
E5
100
AcDbEntity
  8
Border (ANSI)
100
AcDbVertex
100
AcDb2dVertex
 10
0.2300000096869281
 20
4.336602669062576
 30
0.0
  0
VERTEX
  5
EA
330
E5
100
AcDbEntity
  8
Border (ANSI)
100
AcDbVertex
100
AcDb2dVertex
 10
0.2300000096869281
 20
4.163397391011395
 30
0.0
  0
VERTEX
  5
EB
330
E5
100
AcDbEntity
  8
Border (ANSI)
100
AcDbVertex
100
AcDb2dVertex
 10
0.380000002740875
 20
4.250000030036986
 30
0.0
  0
SEQEND
  5
E8
330
E5
100
AcDbEntity
  8
Border (ANSI)
  0
POLYLINE
  5
EC
330
CD
100
AcDbEntity
  8
Border (ANSI)
100
AcDb2dPolyline
 66
     1
 10
0.0
 20
0.0
 30
0.0
 70
   128
  0
VERTEX
  5
ED
330
EC
100
AcDbEntity
  8
Border (ANSI)
100
AcDbVertex
100
AcDb2dVertex
 10
10.87000013336422
 20
4.250000030036986
 30
0.0
  0
VERTEX
  5
EE
330
EC
100
AcDbEntity
  8
Border (ANSI)
100
AcDbVertex
100
AcDb2dVertex
 10
10.62000004325326
 20
4.250000030036986
 30
0.0
  0
VERTEX
  5
F0
330
EC
100
AcDbEntity
  8
Border (ANSI)
100
AcDbVertex
100
AcDb2dVertex
 10
10.77000024750476
 20
4.336602669062576
 30
0.0
  0
VERTEX
  5
F1
330
EC
100
AcDbEntity
  8
Border (ANSI)
100
AcDbVertex
100
AcDb2dVertex
 10
10.77000024750476
 20
4.163397391011395
 30
0.0
  0
VERTEX
  5
F2
330
EC
100
AcDbEntity
  8
Border (ANSI)
100
AcDbVertex
100
AcDb2dVertex
 10
10.62000004325326
 20
4.250000030036986
 30
0.0
  0
SEQEND
  5
EF
330
EC
100
AcDbEntity
  8
Border (ANSI)
  0
MTEXT
  5
F4
330
CD
100
AcDbEntity
  8
Border (ANSI)
100
AcDbMText
 10
8.24092395498058
 20
8.16
 30
0.0
 40
0.1200000014830762
 41
0.0
 71
     7
 72
     1
  1
1
  7
Text Style29
 73
     1
 44
1.0
1001
ACAD
1000
MTEXTBEGIN
1070
    73
1070
     1
1070
    44
1040
1.0
1070
    74
1070
     0
1000
MTEXTEND
  0
MTEXT
  5
F7
330
CD
100
AcDbEntity
  8
Border (ANSI)
100
AcDbMText
 10
8.24092395498058
 20
0.2199999985169238
 30
0.0
 40
0.1200000014830762
 41
0.0
 71
     7
 72
     1
  1
1
  7
Text Style29
 73
     1
 44
2.828585147857666
1001
ACAD
1000
MTEXTBEGIN
1070
    73
1070
     1
1070
    44
1040
2.828585147857666
1070
    74
1070
     0
1000
MTEXTEND
  0
MTEXT
  5
F8
330
CD
100
AcDbEntity
  8
Border (ANSI)
100
AcDbMText
 10
2.722276993858532
 20
8.16
 30
0.0
 40
0.1200000014830762
 41
0.0
 71
     7
 72
     1
  1
2
  7
Text Style29
 73
     1
 44
1.0
1001
ACAD
1000
MTEXTBEGIN
1070
    73
1070
     1
1070
    44
1040
1.0
1070
    74
1070
     0
1000
MTEXTEND
  0
MTEXT
  5
F9
330
CD
100
AcDbEntity
  8
Border (ANSI)
100
AcDbMText
 10
2.722276993858532
 20
0.2199999985169238
 30
0.0
 40
0.1200000014830762
 41
0.0
 71
     7
 72
     1
  1
2
  7
Text Style29
 73
     1
 44
1.0
1001
ACAD
1000
MTEXTBEGIN
1070
    73
1070
     1
1070
    44
1040
1.0
1070
    74
1070
     0
1000
MTEXTEND
  0
MTEXT
  5
FA
330
CD
100
AcDbEntity
  8
Border (ANSI)
100
AcDbMText
 10
0.2281865791448458
 20
2.064999999258461
 30
0.0
 40
0.1200000014830762
 41
0.0
 71
     7
 72
     1
  1
A
  7
Text Style29
 73
     1
 44
1.0
1001
ACAD
1000
MTEXTBEGIN
1070
    73
1070
     1
1070
    44
1040
1.0
1070
    74
1070
     0
1000
MTEXTEND
  0
MTEXT
  5
FB
330
CD
100
AcDbEntity
  8
Border (ANSI)
100
AcDbMText
 10
10.66818658062792
 20
2.064999999258461
 30
0.0
 40
0.1200000014830762
 41
0.0
 71
     7
 72
     1
  1
A
  7
Text Style29
 73
     1
 44
1.0
1001
ACAD
1000
MTEXTBEGIN
1070
    73
1070
     1
1070
    44
1040
1.0
1070
    74
1070
     0
1000
MTEXTEND
  0
MTEXT
  5
FC
330
CD
100
AcDbEntity
  8
Border (ANSI)
100
AcDbMText
 10
0.2554072225563169
 20
6.314999999258461
 30
0.0
 40
0.1200000014830762
 41
0.0
 71
     7
 72
     1
  1
B
  7
Text Style29
 73
     1
 44
1.0
1001
ACAD
1000
MTEXTBEGIN
1070
    73
1070
     1
1070
    44
1040
1.0
1070
    74
1070
     0
1000
MTEXTEND
  0
MTEXT
  5
FD
330
CD
100
AcDbEntity
  8
Border (ANSI)
100
AcDbMText
 10
10.69540722403939
 20
6.314999999258461
 30
0.0
 40
0.1200000014830762
 41
0.0
 71
     7
 72
     1
  1
B
  7
Text Style29
 73
     1
 44
1.0
1001
ACAD
1000
MTEXTBEGIN
1070
    73
1070
     1
1070
    44
1040
1.0
1070
    74
1070
     0
1000
MTEXTEND
  0
ENDBLK
  5
CF
330
CD
100
AcDbEntity
  8
0
100
AcDbBlockEnd
  0
BLOCK
  5
14B
330
14A
100
AcDbEntity
  8
0
100
AcDbBlockBegin
  2
2dDetail2
 70
     0
 10
0.0
 20
0.0
 30
0.0
  3
2dDetail2
  1

  0
MTEXT
  5
14E
330
14A
100
AcDbEntity
  8
Detail Boundary (ANSI)
100
AcDbMText
 10
4.421296309311623
 20
4.038859410355502
 30
0.0
 40
0.1799999963580154
 41
0.0
 71
     7
 72
     1
  1
D
  7
Text Style30
 73
     1
 44
1.0
1001
ACAD
1000
MTEXTBEGIN
1070
    73
1070
     1
1070
    44
1040
1.0
1070
    74
1070
     0
1000
MTEXTEND
  0
LINE
  5
14F
330
14A
100
AcDbEntity
  8
Detail Boundary (ANSI)
  6
Continuous
100
AcDbLine
 10
4.171971536805997
 20
3.612085403652323
 30
0.0
 11
4.171971536805997
 21
3.808935797353111
 31
0.0
  0
POLYLINE
  5
150
330
14A
100
AcDbEntity
  8
Detail Boundary (ANSI)
  6
Continuous
100
AcDb2dPolyline
 66
     1
 10
0.0
 20
0.0
 30
0.0
 70
   128
  0
VERTEX
  5
151
330
150
100
AcDbEntity
  8
Detail Boundary (ANSI)
  6
Continuous
100
AcDbVertex
100
AcDb2dVertex
 10
4.211341677688237
 20
3.612085402481199
 30
0.0
  0
VERTEX
  5
152
330
150
100
AcDbEntity
  8
Detail Boundary (ANSI)
  6
Continuous
100
AcDbVertex
100
AcDb2dVertex
 10
4.171971448763148
 20
3.808935796181986
 30
0.0
  0
VERTEX
  5
154
330
150
100
AcDbEntity
  8
Detail Boundary (ANSI)
  6
Continuous
100
AcDbVertex
100
AcDb2dVertex
 10
4.132601595300388
 20
3.612085402481199
 30
0.0
  0
VERTEX
  5
155
330
150
100
AcDbEntity
  8
Detail Boundary (ANSI)
  6
Continuous
100
AcDbVertex
100
AcDb2dVertex
 10
4.211341677688237
 20
3.612085402481199
 30
0.0
  0
SEQEND
  5
153
330
150
100
AcDbEntity
  8
Detail Boundary (ANSI)
  6
Continuous
  0
SOLID
  5
156
330
14A
100
AcDbEntity
  8
Detail Boundary (ANSI)
100
AcDbTrace
 10
4.211341677688237
 20
3.612085402481199
 30
0.0
 11
4.171971448763148
 21
3.808935796181986
 31
0.0
 12
4.132601595300388
 22
3.612085402481199
 32
0.0
 13
4.211341677688237
 23
3.612085402481199
 33
0.0
  0
LINE
  5
157
330
14A
100
AcDbEntity
  8
Detail Boundary (ANSI)
  6
Continuous
100
AcDbLine
 10
4.211341615546154
 20
3.612085403652323
 30
0.0
 11
4.171971536805997
 21
3.808935797353111
 31
0.0
  0
LINE
  5
158
330
14A
100
AcDbEntity
  8
Detail Boundary (ANSI)
  6
Continuous
100
AcDbLine
 10
4.171971536805997
 20
3.808935797353111
 30
0.0
 11
4.13260145806584
 21
3.612085403652323
 31
0.0
  0
LINE
  5
159
330
14A
100
AcDbEntity
  8
Detail Boundary (ANSI)
  6
Continuous
100
AcDbLine
 10
4.13260145806584
 20
3.612085403652323
 30
0.0
 11
4.211341615546154
 21
3.612085403652323
 31
0.0
  0
LINE
  5
15A
330
14A
100
AcDbEntity
  8
Detail Boundary (ANSI)
  6
Continuous
100
AcDbLine
 10
4.76912791594571
 20
3.612085403652323
 30
0.0
 11
4.76912791594571
 21
3.808935797353111
 31
0.0
  0
POLYLINE
  5
15B
330
14A
100
AcDbEntity
  8
Detail Boundary (ANSI)
  6
Continuous
100
AcDb2dPolyline
 66
     1
 10
0.0
 20
0.0
 30
0.0
 70
   128
  0
VERTEX
  5
15C
330
15B
100
AcDbEntity
  8
Detail Boundary (ANSI)
  6
Continuous
100
AcDbVertex
100
AcDb2dVertex
 10
4.808497992087536
 20
3.612085402481199
 30
0.0
  0
VERTEX
  5
15D
330
15B
100
AcDbEntity
  8
Detail Boundary (ANSI)
  6
Continuous
100
AcDbVertex
100
AcDb2dVertex
 10
4.769127763162447
 20
3.808935796181986
 30
0.0
  0
VERTEX
  5
15F
330
15B
100
AcDbEntity
  8
Detail Boundary (ANSI)
  6
Continuous
100
AcDbVertex
100
AcDb2dVertex
 10
4.729757909699687
 20
3.612085402481199
 30
0.0
  0
VERTEX
  5
160
330
15B
100
AcDbEntity
  8
Detail Boundary (ANSI)
  6
Continuous
100
AcDbVertex
100
AcDb2dVertex
 10
4.808497992087536
 20
3.612085402481199
 30
0.0
  0
SEQEND
  5
15E
330
15B
100
AcDbEntity
  8
Detail Boundary (ANSI)
  6
Continuous
  0
SOLID
  5
161
330
14A
100
AcDbEntity
  8
Detail Boundary (ANSI)
100
AcDbTrace
 10
4.808497992087536
 20
3.612085402481199
 30
0.0
 11
4.769127763162447
 21
3.808935796181986
 31
0.0
 12
4.729757909699687
 22
3.612085402481199
 32
0.0
 13
4.808497992087536
 23
3.612085402481199
 33
0.0
  0
LINE
  5
162
330
14A
100
AcDbEntity
  8
Detail Boundary (ANSI)
  6
Continuous
100
AcDbLine
 10
4.808497994685867
 20
3.612085403652323
 30
0.0
 11
4.76912791594571
 21
3.808935797353111
 31
0.0
  0
LINE
  5
163
330
14A
100
AcDbEntity
  8
Detail Boundary (ANSI)
  6
Continuous
100
AcDbLine
 10
4.76912791594571
 20
3.808935797353111
 30
0.0
 11
4.729757837205553
 21
3.612085403652323
 31
0.0
  0
LINE
  5
164
330
14A
100
AcDbEntity
  8
Detail Boundary (ANSI)
  6
Continuous
100
AcDbLine
 10
4.729757837205553
 20
3.612085403652323
 30
0.0
 11
4.808497994685867
 21
3.612085403652323
 31
0.0
  0
POLYLINE
  5
165
330
14A
100
AcDbEntity
  8
Detail Boundary (ANSI)
 48
0.2134033888578415
100
AcDb2dPolyline
 66
     1
 10
0.0
 20
0.0
 30
0.0
 70
   128
  0
VERTEX
  5
166
330
165
100
AcDbEntity
  8
Detail Boundary (ANSI)
 48
0.2134033888578415
100
AcDbVertex
100
AcDb2dVertex
 10
4.171971582339463
 20
3.612085382884653
 30
0.0
  0
VERTEX
  5
167
330
165
100
AcDbEntity
  8
Detail Boundary (ANSI)
 48
0.2134033888578415
100
AcDbVertex
100
AcDb2dVertex
 10
4.171971582339463
 20
3.574357050725565
 30
0.0
  0
VERTEX
  5
169
330
165
100
AcDbEntity
  8
Detail Boundary (ANSI)
 48
0.2134033888578415
100
AcDbVertex
100
AcDb2dVertex
 10
4.769127896738762
 20
3.574357050725565
 30
0.0
  0
VERTEX
  5
16A
330
165
100
AcDbEntity
  8
Detail Boundary (ANSI)
 48
0.2134033888578415
100
AcDbVertex
100
AcDb2dVertex
 10
4.769127896738762
 20
3.612085382884653
 30
0.0
  0
SEQEND
  5
168
330
165
100
AcDbEntity
  8
Detail Boundary (ANSI)
 48
0.2134033888578415
  0
ENDBLK
  5
14C
330
14A
100
AcDbEntity
  8
0
100
AcDbBlockEnd
  0
BLOCK
  5
187
330
181
100
AcDbEntity
  8
0
100
AcDbBlockBegin
  2
*D6
 70
     1
 10
0.0
 20
0.0
 30
0.0
  3
*D6
  1

  0
LINE
  5
217
330
181
100
AcDbEntity
  8
Dimension (ANSI)
100
AcDbLine
 10
0.4244415233040075
 20
1.859626848216011
 30
0.0
 11
0.4565336816719164
 21
1.859626848216011
 31
0.0
  0
LINE
  5
218
330
181
100
AcDbEntity
  8
Dimension (ANSI)
100
AcDbLine
 10
0.4565336816719164
 20
1.859626848216011
 30
0.0
 11
0.5293491798152559
 21
1.770222545746067
 31
0.0
  0
MTEXT
  5
219
330
181
100
AcDbEntity
  8
Dimension (ANSI)
100
AcDbMText
 10
0.2710403023105178
 20
1.875251429092081
 30
0.0
 40
0.0300000011920929
 41
0.0
 71
     1
 72
     1
  1
\A1;R0.0035
  7
Note Text (ANSI)
 73
     1
 44
1.0
1001
ACAD
1000
MTEXTBEGIN
1070
    73
1070
     1
1070
    44
1040
1.0
1070
    74
1070
     0
1000
MTEXTEND
  0
SOLID
  5
21A
330
181
100
AcDbEntity
  8
Dimension (ANSI)
100
AcDbTrace
 10
0.5325290222192858
 20
1.772812374224899
 30
0.0
 11
0.526169337411226
 21
1.767632717267235
 31
0.0
 12
0.5448881506882462
 22
1.751143491321888
 32
0.0
 13
0.5448881506882462
 23
1.751143491321888
 33
0.0
  0
POINT
  5
21B
330
181
100
AcDbEntity
  8
Defpoints
 62
     0
100
AcDbPoint
 10
0.5448881506882462
 20
1.751143491321888
 30
0.0
  0
POINT
  5
21C
330
181
100
AcDbEntity
  8
Defpoints
 62
     0
100
AcDbPoint
 10
0.5587022961072215
 20
1.734182211554624
 30
0.0
  0
ENDBLK
  5
188
330
181
100
AcDbEntity
  8
0
100
AcDbBlockEnd
  0
BLOCK
  5
229
330
21E
100
AcDbEntity
  8
0
100
AcDbBlockBegin
  2
*D7
 70
     1
 10
0.0
 20
0.0
 30
0.0
  3
*D7
  1

  0
LINE
  5
2FD
330
21E
100
AcDbEntity
  8
Dimension (ANSI)
100
AcDbLine
 10
0.5368272961072228
 20
1.749807211554624
 30
0.0
 11
0.5368272961072228
 21
2.002856368695983
 31
0.0
  0
LINE
  5
2FE
330
21E
100
AcDbEntity
  8
Dimension (ANSI)
100
AcDbLine
 10
0.5880772961072223
 20
1.824807211554625
 30
0.0
 11
0.5880772961072223
 21
2.002856368695983
 31
0.0
  0
LINE
  5
2FF
330
21E
100
AcDbEntity
  8
Dimension (ANSI)
100
AcDbLine
 10
0.6126835947624939
 20
1.971606368695983
 30
0.0
 11
0.6372898934177654
 21
1.971606368695983
 31
0.0
  0
LINE
  5
300
330
21E
100
AcDbEntity
  8
Dimension (ANSI)
100
AcDbLine
 10
0.5122209974519512
 20
1.971606368695983
 30
0.0
 11
0.4479953834808943
 21
1.971606368695983
 31
0.0
  0
SOLID
  5
301
330
21E
100
AcDbEntity
  8
Dimension (ANSI)
100
AcDbTrace
 10
0.6126835947624939
 20
1.975707418471862
 30
0.0
 11
0.6126835947624939
 21
1.967505318920105
 31
0.0
 12
0.5880772961072223
 22
1.971606368695983
 32
0.0
 13
0.5880772961072223
 23
1.971606368695983
 33
0.0
  0
SOLID
  5
302
330
21E
100
AcDbEntity
  8
Dimension (ANSI)
100
AcDbTrace
 10
0.5122209974519512
 20
1.975707418471862
 30
0.0
 11
0.5122209974519512
 21
1.967505318920105
 31
0.0
 12
0.5368272961072228
 22
1.971606368695983
 32
0.0
 13
0.5368272961072228
 23
1.971606368695983
 33
0.0
  0
MTEXT
  5
303
330
21E
100
AcDbEntity
  8
Dimension (ANSI)
100
AcDbMText
 10
0.3184893951360429
 20
1.987291392824959
 30
0.0
 40
0.0300000011920929
 41
0.0
 71
     1
 72
     1
  1
\A1;0.0082
  7
Note Text (ANSI)
 73
     1
 44
1.0
1001
ACAD
1000
MTEXTBEGIN
1070
    73
1070
     1
1070
    44
1040
1.0
1070
    74
1070
     0
1000
MTEXTEND
  0
POINT
  5
304
330
21E
100
AcDbEntity
  8
Defpoints
 62
     0
100
AcDbPoint
 10
0.5368272961072228
 20
1.734182211554624
 30
0.0
  0
POINT
  5
305
330
21E
100
AcDbEntity
  8
Defpoints
 62
     0
100
AcDbPoint
 10
0.5880772961072223
 20
1.809182211554625
 30
0.0
  0
POINT
  5
306
330
21E
100
AcDbEntity
  8
Defpoints
 62
     0
100
AcDbPoint
 10
0.5880772961072223
 20
1.971606368695983
 30
0.0
  0
ENDBLK
  5
22A
330
21E
100
AcDbEntity
  8
0
100
AcDbBlockEnd
  0
BLOCK
  5
313
330
308
100
AcDbEntity
  8
0
100
AcDbBlockBegin
  2
*D8
 70
     1
 10
0.0
 20
0.0
 30
0.0
  3
*D8
  1

  0
LINE
  5
3DC
330
308
100
AcDbEntity
  8
Dimension (ANSI)
100
AcDbLine
 10
0.6278459974519503
 20
1.621729662633556
 30
0.0
 11
0.5614335947624943
 21
1.621729662633556
 31
0.0
  0
LINE
  5
3DD
330
308
100
AcDbEntity
  8
Dimension (ANSI)
100
AcDbLine
 10
0.5368272961072228
 20
1.621729662633556
 30
0.0
 11
0.4879314489258336
 21
1.621729662633556
 31
0.0
  0
SOLID
  5
3DE
330
308
100
AcDbEntity
  8
Dimension (ANSI)
100
AcDbTrace
 10
0.6278459974519503
 20
1.625830712409434
 30
0.0
 11
0.6278459974519503
 21
1.617628612857677
 31
0.0
 12
0.6524522961072219
 22
1.621729662633556
 32
0.0
 13
0.6524522961072219
 23
1.621729662633556
 33
0.0
  0
SOLID
  5
3DF
330
308
100
AcDbEntity
  8
Dimension (ANSI)
100
AcDbTrace
 10
0.5614335947624943
 20
1.625830712409434
 30
0.0
 11
0.5614335947624943
 21
1.617628612857677
 31
0.0
 12
0.5368272961072228
 22
1.621729662633556
 32
0.0
 13
0.5368272961072228
 23
1.621729662633556
 33
0.0
  0
MTEXT
  5
3E0
330
308
100
AcDbEntity
  8
Dimension (ANSI)
100
AcDbMText
 10
0.3587679723474467
 20
1.637414686762531
 30
0.0
 40
0.0300000011920929
 41
0.0
 71
     1
 72
     1
  1
\A1;0.0185
  7
Note Text (ANSI)
 73
     1
 44
1.0
1001
ACAD
1000
MTEXTBEGIN
1070
    73
1070
     1
1070
    44
1040
1.0
1070
    74
1070
     0
1000
MTEXTEND
  0
POINT
  5
3E1
330
308
100
AcDbEntity
  8
Defpoints
 62
     0
100
AcDbPoint
 10
0.5368272961072228
 20
1.621729662633556
 30
0.0
  0
POINT
  5
3E2
330
308
100
AcDbEntity
  8
Defpoints
 62
     0
100
AcDbPoint
 10
0.6524522961072219
 20
1.621729662633556
 30
0.0
  0
POINT
  5
3E3
330
308
100
AcDbEntity
  8
Defpoints
 62
     0
100
AcDbPoint
 10
0.6524522961072219
 20
1.621729662633556
 30
0.0
  0
ENDBLK
  5
314
330
308
100
AcDbEntity
  8
0
100
AcDbBlockEnd
  0
BLOCK
  5
3F0
330
3E5
100
AcDbEntity
  8
0
100
AcDbBlockBegin
  2
*D9
 70
     1
 10
0.0
 20
0.0
 30
0.0
  3
*D9
  1

  0
LINE
  5
4AD
330
3E5
100
AcDbEntity
  8
Dimension (ANSI)
100
AcDbLine
 10
0.6368272961072219
 20
1.693557211554623
 30
0.0
 11
0.3752837330957877
 21
1.693557211554623
 31
0.0
  0
LINE
  5
4AE
330
3E5
100
AcDbEntity
  8
Dimension (ANSI)
100
AcDbLine
 10
0.4065337330957878
 20
1.718163510209895
 30
0.0
 11
0.4065337330957878
 21
1.729588127961547
 31
0.0
  0
LINE
  5
4AF
330
3E5
100
AcDbEntity
  8
Dimension (ANSI)
100
AcDbLine
 10
0.4065337330957878
 20
1.784575912899353
 30
0.0
 11
0.4065337330957878
 21
1.776706207715561
 31
0.0
  0
SOLID
  5
4B0
330
3E5
100
AcDbEntity
  8
Dimension (ANSI)
100
AcDbTrace
 10
0.4024326833199092
 20
1.718163510209895
 30
0.0
 11
0.4106347828716663
 21
1.718163510209895
 31
0.0
 12
0.4065337330957878
 22
1.693557211554623
 32
0.0
 13
0.4065337330957878
 23
1.693557211554623
 33
0.0
  0
SOLID
  5
4B1
330
3E5
100
AcDbEntity
  8
Dimension (ANSI)
100
AcDbTrace
 10
0.4024326833199092
 20
1.784575912899353
 30
0.0
 11
0.4106347828716663
 21
1.784575912899353
 31
0.0
 12
0.4065337330957878
 22
1.809182211554625
 32
0.0
 13
0.4065337330957878
 23
1.809182211554625
 33
0.0
  0
MTEXT
  5
4B2
330
3E5
100
AcDbEntity
  8
Dimension (ANSI)
100
AcDbMText
 10
0.3458890026806097
 20
1.76883219196753
 30
0.0
 40
0.0300000011920929
 41
0.0
 71
     1
 72
     1
  1
\A1;0.0185
  7
Note Text (ANSI)
 73
     1
 44
1.0
1001
ACAD
1000
MTEXTBEGIN
1070
    73
1070
     1
1070
    44
1040
1.0
1070
    74
1070
     0
1000
MTEXTEND
  0
POINT
  5
4B3
330
3E5
100
AcDbEntity
  8
Defpoints
 62
     0
100
AcDbPoint
 10
0.6524522961072219
 20
1.693557211554623
 30
0.0
  0
POINT
  5
4B4
330
3E5
100
AcDbEntity
  8
Defpoints
 62
     0
100
AcDbPoint
 10
0.652452296107224
 20
1.809182211554625
 30
0.0
  0
POINT
  5
4B5
330
3E5
100
AcDbEntity
  8
Defpoints
 62
     0
100
AcDbPoint
 10
0.4065337330957878
 20
1.809182211554625
 30
0.0
  0
ENDBLK
  5
3F1
330
3E5
100
AcDbEntity
  8
0
100
AcDbBlockEnd
  0
BLOCK
  5
4C2
330
4B7
100
AcDbEntity
  8
0
100
AcDbBlockBegin
  2
*D10
 70
     1
 10
0.0
 20
0.0
 30
0.0
  3
*D10
  1

  0
LINE
  5
596
330
4B7
100
AcDbEntity
  8
Dimension (ANSI)
100
AcDbLine
 10
0.6524522961072219
 20
1.756057211554625
 30
0.0
 11
0.6524522961072219
 21
1.990781534460109
 31
0.0
  0
LINE
  5
597
330
4B7
100
AcDbEntity
  8
Dimension (ANSI)
100
AcDbLine
 10
1.027452296107221
 20
1.756057211554625
 30
0.0
 11
1.027452296107221
 21
1.990781534460109
 31
0.0
  0
LINE
  5
598
330
4B7
100
AcDbEntity
  8
Dimension (ANSI)
100
AcDbLine
 10
0.6770585947624934
 20
1.959531534460109
 30
0.0
 11
0.7711917769323908
 21
1.959531534460109
 31
0.0
  0
LINE
  5
599
330
4B7
100
AcDbEntity
  8
Dimension (ANSI)
100
AcDbLine
 10
1.00284599745195
 20
1.959531534460109
 30
0.0
 11
0.9087128152820531
 21
1.959531534460109
 31
0.0
  0
SOLID
  5
59A
330
4B7
100
AcDbEntity
  8
Dimension (ANSI)
100
AcDbTrace
 10
0.6770585947624934
 20
1.963632584235988
 30
0.0
 11
0.6770585947624934
 21
1.955430484684231
 31
0.0
 12
0.6524522961072219
 22
1.959531534460109
 32
0.0
 13
0.6524522961072219
 23
1.959531534460109
 33
0.0
  0
SOLID
  5
59B
330
4B7
100
AcDbEntity
  8
Dimension (ANSI)
100
AcDbTrace
 10
1.00284599745195
 20
1.963632584235988
 30
0.0
 11
1.00284599745195
 21
1.955430484684231
 31
0.0
 12
1.027452296107221
 22
1.959531534460109
 32
0.0
 13
1.027452296107221
 23
1.959531534460109
 33
0.0
  0
MTEXT
  5
59C
330
4B7
100
AcDbEntity
  8
Dimension (ANSI)
100
AcDbMText
 10
0.7790657926804223
 20
1.975146041460695
 30
0.0
 40
0.0300000011920929
 41
0.0
 71
     1
 72
     1
  1
\A1;0.0600
  7
Note Text (ANSI)
 73
     1
 44
1.0
1001
ACAD
1000
MTEXTBEGIN
1070
    73
1070
     1
1070
    44
1040
1.0
1070
    74
1070
     0
1000
MTEXTEND
  0
POINT
  5
59D
330
4B7
100
AcDbEntity
  8
Defpoints
 62
     0
100
AcDbPoint
 10
0.6524522961072219
 20
1.740432211554625
 30
0.0
  0
POINT
  5
59E
330
4B7
100
AcDbEntity
  8
Defpoints
 62
     0
100
AcDbPoint
 10
1.027452296107221
 20
1.740432211554625
 30
0.0
  0
POINT
  5
59F
330
4B7
100
AcDbEntity
  8
Defpoints
 62
     0
100
AcDbPoint
 10
1.027452296107221
 20
1.959531534460109
 30
0.0
  0
ENDBLK
  5
4C3
330
4B7
100
AcDbEntity
  8
0
100
AcDbBlockEnd
  0
BLOCK
  5
5B5
330
5B4
100
AcDbEntity
  8
0
100
AcDbBlockBegin
  2
2dDetail3
 70
     0
 10
0.0
 20
0.0
 30
0.0
  3
2dDetail3
  1

  0
MTEXT
  5
5B7
330
5B4
100
AcDbEntity
  8
Detail Boundary (ANSI)
100
AcDbMText
 10
7.66612968180796
 20
3.572053196648745
 30
0.0
 40
0.1799999963580154
 41
0.0
 71
     7
 72
     1
  1
E
  7
Text Style30
 73
     1
 44
1.0
1001
ACAD
1000
MTEXTBEGIN
1070
    73
1070
     1
1070
    44
1040
1.0
1070
    74
1070
     0
1000
MTEXTEND
  0
LINE
  5
5B8
330
5B4
100
AcDbEntity
  8
Detail Boundary (ANSI)
  6
Continuous
100
AcDbLine
 10
7.419751514749709
 20
3.588923281348145
 30
0.0
 11
7.609542743083912
 21
3.53667993586234
 31
0.0
  0
POLYLINE
  5
5B9
330
5B4
100
AcDbEntity
  8
Detail Boundary (ANSI)
  6
Continuous
100
AcDb2dPolyline
 66
     1
 10
0.0
 20
0.0
 30
0.0
 70
   128
  0
VERTEX
  5
5BA
330
5B9
100
AcDbEntity
  8
Detail Boundary (ANSI)
  6
Continuous
100
AcDbVertex
100
AcDb2dVertex
 10
7.409303019365926
 20
3.550965016282449
 30
0.0
  0
VERTEX
  5
5BB
330
5B9
100
AcDbEntity
  8
Detail Boundary (ANSI)
  6
Continuous
100
AcDbVertex
100
AcDb2dVertex
 10
7.609543086975577
 20
3.536679801039808
 30
0.0
  0
VERTEX
  5
5BD
330
5B9
100
AcDbEntity
  8
Detail Boundary (ANSI)
  6
Continuous
100
AcDbVertex
100
AcDb2dVertex
 10
7.43020050168976
 20
3.626881621954008
 30
0.0
  0
VERTEX
  5
5BE
330
5B9
100
AcDbEntity
  8
Detail Boundary (ANSI)
  6
Continuous
100
AcDbVertex
100
AcDb2dVertex
 10
7.409303019365926
 20
3.550965016282449
 30
0.0
  0
SEQEND
  5
5BC
330
5B9
100
AcDbEntity
  8
Detail Boundary (ANSI)
  6
Continuous
  0
SOLID
  5
5BF
330
5B4
100
AcDbEntity
  8
Detail Boundary (ANSI)
100
AcDbTrace
 10
7.409303019365926
 20
3.550965016282449
 30
0.0
 11
7.609543086975577
 21
3.536679801039808
 31
0.0
 12
7.43020050168976
 22
3.626881621954008
 32
0.0
 13
7.409303019365926
 23
3.550965016282449
 33
0.0
  0
LINE
  5
5C0
330
5B4
100
AcDbEntity
  8
Detail Boundary (ANSI)
  6
Continuous
100
AcDbLine
 10
7.409302845652548
 20
3.550965035681305
 30
0.0
 11
7.609542743083912
 21
3.53667993586234
 31
0.0
  0
LINE
  5
5C1
330
5B4
100
AcDbEntity
  8
Detail Boundary (ANSI)
  6
Continuous
100
AcDbLine
 10
7.609542743083912
 20
3.53667993586234
 30
0.0
 11
7.43020018384687
 21
3.626881527014986
 31
0.0
  0
LINE
  5
5C2
330
5B4
100
AcDbEntity
  8
Detail Boundary (ANSI)
  6
Continuous
100
AcDbLine
 10
7.43020018384687
 20
3.626881527014986
 30
0.0
 11
7.409302845652548
 21
3.550965035681305
 31
0.0
  0
LINE
  5
5C3
330
5B4
100
AcDbEntity
  8
Detail Boundary (ANSI)
  6
Continuous
100
AcDbLine
 10
7.799519946838418
 20
3.949703301671629
 30
0.0
 11
7.841968157939941
 21
3.757484085997348
 31
0.0
  0
POLYLINE
  5
5C4
330
5B4
100
AcDbEntity
  8
Detail Boundary (ANSI)
  6
Continuous
100
AcDb2dPolyline
 66
     1
 10
0.0
 20
0.0
 30
0.0
 70
   128
  0
VERTEX
  5
5C5
330
5C4
100
AcDbEntity
  8
Detail Boundary (ANSI)
  6
Continuous
100
AcDbVertex
100
AcDb2dVertex
 10
7.761075928455261
 20
3.941213803028496
 30
0.0
  0
VERTEX
  5
5C6
330
5C4
100
AcDbEntity
  8
Detail Boundary (ANSI)
  6
Continuous
100
AcDbVertex
100
AcDb2dVertex
 10
7.841967785452293
 20
3.757483940424881
 30
0.0
  0
VERTEX
  5
5C8
330
5C4
100
AcDbEntity
  8
Detail Boundary (ANSI)
  6
Continuous
100
AcDbVertex
100
AcDb2dVertex
 10
7.837963855172704
 20
3.95819296048382
 30
0.0
  0
VERTEX
  5
5C9
330
5C4
100
AcDbEntity
  8
Detail Boundary (ANSI)
  6
Continuous
100
AcDbVertex
100
AcDb2dVertex
 10
7.761075928455261
 20
3.941213803028496
 30
0.0
  0
SEQEND
  5
5C7
330
5C4
100
AcDbEntity
  8
Detail Boundary (ANSI)
  6
Continuous
  0
SOLID
  5
5CA
330
5B4
100
AcDbEntity
  8
Detail Boundary (ANSI)
100
AcDbTrace
 10
7.761075928455261
 20
3.941213803028496
 30
0.0
 11
7.841967785452293
 21
3.757483940424881
 31
0.0
 12
7.837963855172704
 22
3.95819296048382
 32
0.0
 13
7.761075928455261
 23
3.941213803028496
 33
0.0
  0
LINE
  5
5CB
330
5B4
100
AcDbEntity
  8
Detail Boundary (ANSI)
  6
Continuous
100
AcDbLine
 10
7.761076103703561
 20
3.941213659451324
 30
0.0
 11
7.841968157939941
 21
3.757484085997348
 31
0.0
  0
LINE
  5
5CC
330
5B4
100
AcDbEntity
  8
Detail Boundary (ANSI)
  6
Continuous
100
AcDbLine
 10
7.841968157939941
 20
3.757484085997348
 30
0.0
 11
7.837963789973273
 21
3.958192943891933
 31
0.0
  0
LINE
  5
5CD
330
5B4
100
AcDbEntity
  8
Detail Boundary (ANSI)
  6
Continuous
100
AcDbLine
 10
7.837963789973273
 20
3.958192943891933
 30
0.0
 11
7.761076103703561
 21
3.941213659451324
 31
0.0
  0
ARC
  5
5CE
330
5B4
100
AcDbEntity
  8
Detail Boundary (ANSI)
 48
0.5210264325141907
100
AcDbCircle
 10
7.500910663651944
 20
3.883760727485638
 30
0.0
 40
0.305803739505282
100
AcDbArc
 50
12.45289622753245
 51
254.6095039042158
  0
ENDBLK
  5
5B6
330
5B4
100
AcDbEntity
  8
0
100
AcDbBlockEnd
  0
BLOCK
  5
5F4
330
5E9
100
AcDbEntity
  8
0
100
AcDbBlockBegin
  2
*D12
 70
     1
 10
0.0
 20
0.0
 30
0.0
  3
*D12
  1

  0
LINE
  5
6B4
330
5E9
100
AcDbEntity
  8
Dimension (ANSI)
100
AcDbLine
 10
1.893999345369111
 20
1.762425118583761
 30
0.0
 11
1.893999345369111
 21
1.920171796966472
 31
0.0
  0
LINE
  5
6B5
330
5E9
100
AcDbEntity
  8
Dimension (ANSI)
100
AcDbLine
 10
1.947124345369111
 20
1.762425118583761
 30
0.0
 11
1.947124345369111
 21
1.920171796966472
 31
0.0
  0
LINE
  5
6B6
330
5E9
100
AcDbEntity
  8
Dimension (ANSI)
100
AcDbLine
 10
1.86939304671384
 20
1.888921796966472
 30
0.0
 11
1.844786748058568
 21
1.888921796966472
 31
0.0
  0
LINE
  5
6B7
330
5E9
100
AcDbEntity
  8
Dimension (ANSI)
100
AcDbLine
 10
1.971730644024383
 20
1.888921796966472
 30
0.0
 11
2.022269145796669
 21
1.888921796966472
 31
0.0
  0
SOLID
  5
6B8
330
5E9
100
AcDbEntity
  8
Dimension (ANSI)
100
AcDbTrace
 10
1.86939304671384
 20
1.89302284674235
 30
0.0
 11
1.86939304671384
 21
1.884820747190593
 31
0.0
 12
1.893999345369111
 22
1.888921796966472
 32
0.0
 13
1.893999345369111
 23
1.888921796966472
 33
0.0
  0
SOLID
  5
6B9
330
5E9
100
AcDbEntity
  8
Dimension (ANSI)
100
AcDbTrace
 10
1.971730644024383
 20
1.89302284674235
 30
0.0
 11
1.971730644024383
 21
1.884820747190593
 31
0.0
 12
1.947124345369111
 22
1.888921796966472
 32
0.0
 13
1.947124345369111
 23
1.888921796966472
 33
0.0
  0
MTEXT
  5
6BA
330
5E9
100
AcDbEntity
  8
Dimension (ANSI)
100
AcDbMText
 10
2.0301431615447
 20
1.904606821095447
 30
0.0
 40
0.0300000011920929
 41
0.0
 71
     1
 72
     1
  1
\A1;0.0085
  7
Note Text (ANSI)
 73
     1
 44
1.0
1001
ACAD
1000
MTEXTBEGIN
1070
    73
1070
     1
1070
    44
1040
1.0
1070
    74
1070
     0
1000
MTEXTEND
  0
POINT
  5
6BB
330
5E9
100
AcDbEntity
  8
Defpoints
 62
     0
100
AcDbPoint
 10
1.893999345369111
 20
1.746800118583761
 30
0.0
  0
POINT
  5
6BC
330
5E9
100
AcDbEntity
  8
Defpoints
 62
     0
100
AcDbPoint
 10
1.947124345369111
 20
1.746800118583761
 30
0.0
  0
POINT
  5
6BD
330
5E9
100
AcDbEntity
  8
Defpoints
 62
     0
100
AcDbPoint
 10
1.947124345369111
 20
1.888921796966472
 30
0.0
  0
ENDBLK
  5
5F5
330
5E9
100
AcDbEntity
  8
0
100
AcDbBlockEnd
  0
BLOCK
  5
6CA
330
6BF
100
AcDbEntity
  8
0
100
AcDbBlockBegin
  2
*D13
 70
     1
 10
0.0
 20
0.0
 30
0.0
  3
*D13
  1

  0
LINE
  5
795
330
6BF
100
AcDbEntity
  8
Dimension (ANSI)
100
AcDbLine
 10
1.878374345369111
 20
1.773362618583762
 30
0.0
 11
1.704795652423574
 21
1.773362618583762
 31
0.0
  0
LINE
  5
796
330
6BF
100
AcDbEntity
  8
Dimension (ANSI)
100
AcDbLine
 10
1.878374345369111
 20
1.72023761858376
 30
0.0
 11
1.704795652423574
 21
1.72023761858376
 31
0.0
  0
LINE
  5
797
330
6BF
100
AcDbEntity
  8
Dimension (ANSI)
100
AcDbLine
 10
1.736045652423574
 20
1.797968917239033
 30
0.0
 11
1.736045652423574
 21
1.822575215894305
 31
0.0
  0
LINE
  5
798
330
6BF
100
AcDbEntity
  8
Dimension (ANSI)
100
AcDbLine
 10
1.736045652423574
 20
1.695631319928488
 30
0.0
 11
1.736045652423574
 21
1.617002366996857
 31
0.0
  0
LINE
  5
799
330
6BF
100
AcDbEntity
  8
Dimension (ANSI)
100
AcDbLine
 10
1.736045652423574
 20
1.617002366996857
 30
0.0
 11
1.711439353768303
 21
1.617002366996857
 31
0.0
  0
SOLID
  5
79A
330
6BF
100
AcDbEntity
  8
Dimension (ANSI)
100
AcDbTrace
 10
1.731944602647695
 20
1.797968917239033
 30
0.0
 11
1.740146702199453
 21
1.797968917239033
 31
0.0
 12
1.736045652423574
 22
1.773362618583762
 32
0.0
 13
1.736045652423574
 23
1.773362618583762
 33
0.0
  0
SOLID
  5
79B
330
6BF
100
AcDbEntity
  8
Dimension (ANSI)
100
AcDbTrace
 10
1.731944602647695
 20
1.695631319928488
 30
0.0
 11
1.740146702199453
 21
1.695631319928488
 31
0.0
 12
1.736045652423574
 22
1.72023761858376
 32
0.0
 13
1.736045652423574
 23
1.72023761858376
 33
0.0
  0
MTEXT
  5
79C
330
6BF
100
AcDbEntity
  8
Dimension (ANSI)
100
AcDbMText
 10
1.582275877189915
 20
1.632687391125833
 30
0.0
 40
0.0300000011920929
 41
0.0
 71
     1
 72
     1
  1
\A1;0.0085
  7
Note Text (ANSI)
 73
     1
 44
1.0
1001
ACAD
1000
MTEXTBEGIN
1070
    73
1070
     1
1070
    44
1040
1.0
1070
    74
1070
     0
1000
MTEXTEND
  0
POINT
  5
79D
330
6BF
100
AcDbEntity
  8
Defpoints
 62
     0
100
AcDbPoint
 10
1.893999345369111
 20
1.773362618583762
 30
0.0
  0
POINT
  5
79E
330
6BF
100
AcDbEntity
  8
Defpoints
 62
     0
100
AcDbPoint
 10
1.893999345369111
 20
1.72023761858376
 30
0.0
  0
POINT
  5
79F
330
6BF
100
AcDbEntity
  8
Defpoints
 62
     0
100
AcDbPoint
 10
1.736045652423574
 20
1.72023761858376
 30
0.0
  0
ENDBLK
  5
6CB
330
6BF
100
AcDbEntity
  8
0
100
AcDbBlockEnd
  0
BLOCK
  5
7A7
330
7A1
100
AcDbEntity
  8
0
100
AcDbBlockBegin
  2
*D14
 70
     1
 10
0.0
 20
0.0
 30
0.0
  3
*D14
  1

  0
LINE
  5
837
330
7A1
100
AcDbEntity
  8
Dimension (ANSI)
100
AcDbLine
 10
2.326028039762369
 20
1.373261340431333
 30
0.0
 11
2.294100623521788
 21
1.373261340431333
 31
0.0
  0
LINE
  5
838
330
7A1
100
AcDbEntity
  8
Dimension (ANSI)
100
AcDbLine
 10
2.294100623521788
 20
1.373261340431333
 30
0.0
 11
2.008625808421453
 21
1.658736155531584
 31
0.0
  0
MTEXT
  5
839
330
7A1
100
AcDbEntity
  8
Dimension (ANSI)
100
AcDbMText
 10
2.333902055510401
 20
1.388885921307402
 30
0.0
 40
0.0300000011920929
 41
0.0
 71
     1
 72
     1
  1
\A1;R0.022
  7
Note Text (ANSI)
 73
     1
 44
1.0
1001
ACAD
1000
MTEXTBEGIN
1070
    73
1070
     1
1070
    44
1040
1.0
1070
    74
1070
     0
1000
MTEXTEND
  0
SOLID
  5
83A
330
7A1
100
AcDbEntity
  8
Dimension (ANSI)
100
AcDbTrace
 10
2.01152568852796
 20
1.661636035638091
 30
0.0
 11
2.005725928314946
 21
1.655836275425076
 31
0.0
 12
1.991226527782407
 22
1.676135436170625
 32
0.0
 13
1.991226527782407
 23
1.676135436170625
 33
0.0
  0
POINT
  5
83B
330
7A1
100
AcDbEntity
  8
Defpoints
 62
     0
100
AcDbPoint
 10
1.991226527782407
 20
1.676135436170625
 30
0.0
  0
POINT
  5
83C
330
7A1
100
AcDbEntity
  8
Defpoints
 62
     0
100
AcDbPoint
 10
1.893999345369241
 20
1.773362618583762
 30
0.0
  0
ENDBLK
  5
7A8
330
7A1
100
AcDbEntity
  8
0
100
AcDbBlockEnd
  0
BLOCK
  5
843
330
840
100
AcDbEntity
  8
0
100
AcDbBlockBegin
  2
_Dot
 70
     0
 10
0.0
 20
0.0
 30
0.0
  3
_Dot
  1

  0
LWPOLYLINE
  5
841
330
840
100
AcDbEntity
  8
0
  6
ByBlock
 62
     0
100
AcDbPolyline
 90
        2
 70
     1
 43
0.5
 10
-0.25
 20
0.0
 42
1.0
 10
0.25
 20
0.0
 42
1.0
  0
LINE
  5
842
330
840
100
AcDbEntity
  8
0
  6
ByBlock
 62
     0
370
    -2
100
AcDbLine
 10
-0.5
 20
0.0
 30
0.0
 11
-1.0
 21
0.0
 31
0.0
  0
ENDBLK
  5
844
330
840
100
AcDbEntity
  8
0
100
AcDbBlockEnd
  0
BLOCK
  5
856
330
84B
100
AcDbEntity
  8
0
100
AcDbBlockBegin
  2
*D16
 70
     1
 10
0.0
 20
0.0
 30
0.0
  3
*D16
  1

  0
LINE
  5
925
330
84B
100
AcDbEntity
  8
Dimension (ANSI)
100
AcDbLine
 10
0.5880772961072223
 20
1.824807211554625
 30
0.0
 11
0.5880772961072223
 21
1.901510659615616
 31
0.0
  0
LINE
  5
926
330
84B
100
AcDbEntity
  8
Dimension (ANSI)
100
AcDbLine
 10
0.5634709974519508
 20
1.870260659615616
 30
0.0
 11
0.5388646987966793
 21
1.870260659615616
 31
0.0
  0
LINE
  5
927
330
84B
100
AcDbEntity
  8
Dimension (ANSI)
100
AcDbLine
 10
0.6192460947624939
 20
1.870260659615616
 30
0.0
 11
0.821152202114089
 21
1.870260659615616
 31
0.0
  0
SOLID
  5
928
330
84B
100
AcDbEntity
  8
Dimension (ANSI)
100
AcDbTrace
 10
0.5634709974519508
 20
1.874361709391495
 30
0.0
 11
0.5634709974519508
 21
1.866159609839738
 31
0.0
 12
0.5880772961072223
 22
1.870260659615616
 32
0.0
 13
0.5880772961072223
 23
1.870260659615616
 33
0.0
  0
SOLID
  5
929
330
84B
100
AcDbEntity
  8
Dimension (ANSI)
100
AcDbTrace
 10
0.6192460947624939
 20
1.874361709391495
 30
0.0
 11
0.6192460947624939
 21
1.866159609839738
 31
0.0
 12
0.5946397961072223
 22
1.870260659615616
 32
0.0
 13
0.5946397961072223
 23
1.870260659615616
 33
0.0
  0
MTEXT
  5
92A
330
84B
100
AcDbEntity
  8
Dimension (ANSI)
100
AcDbMText
 10
0.8290262178621205
 20
1.885875166616202
 30
0.0
 40
0.0300000011920929
 41
0.0
 71
     1
 72
     1
  1
\A1;0.001
  7
Note Text (ANSI)
 73
     1
 44
1.0
1001
ACAD
1000
MTEXTBEGIN
1070
    73
1070
     1
1070
    44
1040
1.0
1070
    74
1070
     0
1000
MTEXTEND
  0
POINT
  5
92B
330
84B
100
AcDbEntity
  8
Defpoints
 62
     0
100
AcDbPoint
 10
0.5880772961072223
 20
1.809182211554625
 30
0.0
  0
POINT
  5
92C
330
84B
100
AcDbEntity
  8
Defpoints
 62
     0
100
AcDbPoint
 10
0.5946397961072223
 20
1.839723102742283
 30
0.0
  0
POINT
  5
92D
330
84B
100
AcDbEntity
  8
Defpoints
 62
     0
100
AcDbPoint
 10
0.5946397961072223
 20
1.870260659615616
 30
0.0
  0
ENDBLK
  5
857
330
84B
100
AcDbEntity
  8
0
100
AcDbBlockEnd
  0
ENDSEC
  0
SECTION
  2
ENTITIES
  0
INSERT
  5
FE
330
37
100
AcDbEntity
  8
0
100
AcDbBlockReference
  2
Borders Default Border
 10
0.0
 20
0.0
 30
0.0
 41
0.25
 42
0.25
 43
0.25
  0
LINE
  5
FF
330
37
100
AcDbEntity
  8
Visible (ANSI)
100
AcDbLine
 10
0.2650900560131741
 20
0.5166342842116029
 30
0.0
 11
0.717465256013174
 21
0.5166342842116029
 31
0.0
  0
LINE
  5
100
330
37
100
AcDbEntity
  8
Visible (ANSI)
100
AcDbLine
 10
0.7359632560131741
 20
0.5166342842116029
 30
0.0
 11
1.165090046013173
 21
0.5166342842116029
 31
0.0
  0
LINE
  5
101
330
37
100
AcDbEntity
  8
Visible (ANSI)
100
AcDbLine
 10
0.7359632560131741
 20
0.5166342842116029
 30
0.0
 11
0.717465256013174
 21
0.5166342842116029
 31
0.0
  0
LINE
  5
102
330
37
100
AcDbEntity
  8
Visible (ANSI)
100
AcDbLine
 10
1.006590046013174
 20
0.8208842842116029
 30
0.0
 11
1.006590046013174
 21
0.966634284211603
 31
0.0
  0
LINE
  5
103
330
37
100
AcDbEntity
  8
Visible (ANSI)
100
AcDbLine
 10
1.006590046013174
 20
0.966634284211603
 30
0.0
 11
0.9750900460131738
 21
0.966634284211603
 31
0.0
  0
LINE
  5
104
330
37
100
AcDbEntity
  8
Visible (ANSI)
100
AcDbLine
 10
0.9750900460131738
 20
0.966634284211603
 30
0.0
 11
0.9750900460131738
 21
0.9481342842116028
 31
0.0
  0
LINE
  5
105
330
37
100
AcDbEntity
  8
Visible (ANSI)
100
AcDbLine
 10
0.9750900460131738
 20
0.9481342842116028
 30
0.0
 11
0.9565900460131738
 21
0.9481342842116028
 31
0.0
  0
LINE
  5
106
330
37
100
AcDbEntity
  8
Visible (ANSI)
100
AcDbLine
 10
0.9565900460131738
 20
0.9481342842116028
 30
0.0
 11
0.9565900460131738
 21
0.966634284211603
 31
0.0
  0
LINE
  5
107
330
37
100
AcDbEntity
  8
Visible (ANSI)
100
AcDbLine
 10
0.9565900460131738
 20
0.966634284211603
 30
0.0
 11
0.2650900560131743
 21
0.966634284211603
 31
0.0
  0
LINE
  5
108
330
37
100
AcDbEntity
  8
Visible (ANSI)
100
AcDbLine
 10
0.2650900560131743
 20
0.966634284211603
 30
0.0
 11
0.2650900560131741
 21
0.5166342842116029
 31
0.0
  0
LINE
  5
109
330
37
100
AcDbEntity
  8
Visible (ANSI)
100
AcDbLine
 10
0.717465256013174
 20
0.5166342842116029
 30
0.0
 11
0.717465256013174
 21
0.6066342842122169
 31
0.0
  0
LINE
  5
10A
330
37
100
AcDbEntity
  8
Visible (ANSI)
100
AcDbLine
 10
0.717465256013174
 20
0.6066342842122169
 30
0.0
 11
0.7174642560131741
 21
0.6316342842116031
 31
0.0
  0
LINE
  5
10B
330
37
100
AcDbEntity
  8
Visible (ANSI)
100
AcDbLine
 10
0.7174642560131741
 20
0.6316342842116031
 30
0.0
 11
0.7174642560131741
 21
0.7316342842116031
 31
0.0
  0
ARC
  5
10C
330
37
100
AcDbEntity
  8
Visible (ANSI)
100
AcDbCircle
 10
0.7667142560131741
 20
0.7316342842116031
 30
0.0
 40
0.04925
100
AcDbArc
 50
90.0
 51
180.0
  0
LINE
  5
10D
330
37
100
AcDbEntity
  8
Visible (ANSI)
100
AcDbLine
 10
0.7667142560131741
 20
0.780884284211603
 30
0.0
 11
0.9231385047087432
 21
0.780884284211603
 31
0.0
  0
ARC
  5
10E
330
37
100
AcDbEntity
  8
Visible (ANSI)
100
AcDbCircle
 10
0.9277142560131743
 20
0.7731342842116024
 30
0.0
 40
0.0090000000000006
100
AcDbArc
 50
90.0000000000011
 51
120.5584317859345
  0
LINE
  5
10F
330
37
100
AcDbEntity
  8
Visible (ANSI)
100
AcDbLine
 10
0.9277142560131741
 20
0.7821342842116029
 30
0.0
 11
0.9354893062141798
 21
0.7821342842116029
 31
0.0
  0
ARC
  5
110
330
37
100
AcDbEntity
  8
Visible (ANSI)
100
AcDbCircle
 10
0.941714256013174
 20
0.7756342842116033
 30
0.0
 40
0.0089999999999997
100
AcDbArc
 50
90.0
 51
133.7617426926818
  0
LINE
  5
111
330
37
100
AcDbEntity
  8
Visible (ANSI)
100
AcDbLine
 10
0.941714256013174
 20
0.7846342842116029
 30
0.0
 11
0.9485903525887865
 21
0.7846342842116029
 31
0.0
  0
ARC
  5
112
330
37
100
AcDbEntity
  8
Visible (ANSI)
100
AcDbCircle
 10
0.955714256013174
 20
0.7791342842116032
 30
0.0
 40
0.0089999999999999
100
AcDbArc
 50
90.0
 51
142.3301130356723
  0
LINE
  5
113
330
37
100
AcDbEntity
  8
Visible (ANSI)
100
AcDbLine
 10
0.955714256013174
 20
0.7881342842116029
 30
0.0
 11
0.9630574017636815
 21
0.7881342842116029
 31
0.0
  0
ARC
  5
114
330
37
100
AcDbEntity
  8
Visible (ANSI)
100
AcDbCircle
 10
0.9687142560131746
 20
0.7811342842116007
 30
0.0
 40
0.0090000000000021
100
AcDbArc
 50
90.00000000000444
 51
128.9424412689763
  0
LINE
  5
115
330
37
100
AcDbEntity
  8
Visible (ANSI)
100
AcDbLine
 10
0.9687142560131739
 20
0.790134284211603
 30
0.0
 11
0.9758400460131738
 21
0.790134284211603
 31
0.0
  0
ARC
  5
116
330
37
100
AcDbEntity
  8
Visible (ANSI)
100
AcDbCircle
 10
0.9758400460131738
 20
0.820884284211603
 30
0.0
 40
0.0307500000000001
100
AcDbArc
 50
270.0000000000003
 51
0.0
  0
LINE
  5
117
330
37
100
AcDbEntity
  8
Visible (ANSI)
100
AcDbLine
 10
0.9565900460131741
 20
0.966634284211603
 30
0.0
 11
0.975090046013174
 21
0.966634284211603
 31
0.0
  0
LINE
  5
118
330
37
100
AcDbEntity
  8
Visible (ANSI)
100
AcDbLine
 10
1.094790046013174
 20
0.966634284211603
 30
0.0
 11
1.105090046013174
 21
0.966634284211603
 31
0.0
  0
LINE
  5
119
330
37
100
AcDbEntity
  8
Visible (ANSI)
100
AcDbLine
 10
1.105090046013173
 20
0.966634284211603
 30
0.0
 11
1.165090046013173
 21
0.966634284211603
 31
0.0
  0
LINE
  5
11A
330
37
100
AcDbEntity
  8
Visible (ANSI)
100
AcDbLine
 10
0.7359632560131741
 20
0.6066342842115063
 30
0.0
 11
0.7359632560131741
 21
0.5166342842116029
 31
0.0
  0
LINE
  5
11B
330
37
100
AcDbEntity
  8
Visible (ANSI)
100
AcDbLine
 10
1.165090046013173
 20
0.5166342842116029
 30
0.0
 11
1.165090046013173
 21
0.9446342842116029
 31
0.0
  0
LINE
  5
11C
330
37
100
AcDbEntity
  8
Visible (ANSI)
100
AcDbLine
 10
1.165090046013173
 20
0.9446342842116029
 30
0.0
 11
1.105090046013173
 21
0.9446342842116029
 31
0.0
  0
LINE
  5
11D
330
37
100
AcDbEntity
  8
Visible (ANSI)
100
AcDbLine
 10
1.105090046013173
 20
0.9446342842116029
 30
0.0
 11
1.105090046013173
 21
0.6716342842116028
 31
0.0
  0
ARC
  5
11E
330
37
100
AcDbEntity
  8
Visible (ANSI)
100
AcDbCircle
 10
1.055840046013174
 20
0.6716342842116028
 30
0.0
 40
0.04925
100
AcDbArc
 50
180.0
 51
0.0
  0
LINE
  5
11F
330
37
100
AcDbEntity
  8
Visible (ANSI)
100
AcDbLine
 10
1.006590046013174
 20
0.6716342842116028
 30
0.0
 11
1.006590046013174
 21
0.722384284211603
 31
0.0
  0
ARC
  5
120
330
37
100
AcDbEntity
  8
Visible (ANSI)
100
AcDbCircle
 10
0.9758400460131738
 20
0.7223842842116028
 30
0.0
 40
0.0307500000000001
100
AcDbArc
 50
0.0
 51
89.99999999999969
  0
LINE
  5
121
330
37
100
AcDbEntity
  8
Visible (ANSI)
100
AcDbLine
 10
0.9758400460131738
 20
0.7531342842116029
 30
0.0
 11
0.9687142560131739
 21
0.7531342842116029
 31
0.0
  0
ARC
  5
122
330
37
100
AcDbEntity
  8
Visible (ANSI)
100
AcDbCircle
 10
0.9687142560131745
 20
0.7621342842116046
 30
0.0
 40
0.0090000000000016
100
AcDbArc
 50
231.0575587310224
 51
269.9999999999966
  0
LINE
  5
123
330
37
100
AcDbEntity
  8
Visible (ANSI)
100
AcDbLine
 10
0.9630574017636815
 20
0.7551342842116029
 30
0.0
 11
0.955714256013174
 21
0.7551342842116029
 31
0.0
  0
ARC
  5
124
330
37
100
AcDbEntity
  8
Visible (ANSI)
100
AcDbCircle
 10
0.9557142560131744
 20
0.764134284211603
 30
0.0
 40
0.009
100
AcDbArc
 50
217.669886964329
 51
269.9999999999989
  0
LINE
  5
125
330
37
100
AcDbEntity
  8
Visible (ANSI)
100
AcDbLine
 10
0.9485903525887865
 20
0.7586342842116027
 30
0.0
 11
0.941714256013174
 21
0.7586342842116027
 31
0.0
  0
ARC
  5
126
330
37
100
AcDbEntity
  8
Visible (ANSI)
100
AcDbCircle
 10
0.941714256013174
 20
0.7676342842116027
 30
0.0
 40
0.0089999999999997
100
AcDbArc
 50
226.2382573073182
 51
270.0
  0
LINE
  5
127
330
37
100
AcDbEntity
  8
Visible (ANSI)
100
AcDbLine
 10
0.9354893062141798
 20
0.7611342842116031
 30
0.0
 11
0.9277142560131741
 21
0.7611342842116031
 31
0.0
  0
ARC
  5
128
330
37
100
AcDbEntity
  8
Visible (ANSI)
100
AcDbCircle
 10
0.9277142560131743
 20
0.7701342842116033
 30
0.0
 40
0.0090000000000004
100
AcDbArc
 50
239.4415682140649
 51
269.9999999999989
  0
LINE
  5
129
330
37
100
AcDbEntity
  8
Visible (ANSI)
100
AcDbLine
 10
0.9231385047087432
 20
0.762384284211603
 30
0.0
 11
0.7667142560131741
 21
0.762384284211603
 31
0.0
  0
ARC
  5
12A
330
37
100
AcDbEntity
  8
Visible (ANSI)
100
AcDbCircle
 10
0.7667142560131742
 20
0.7316342842116029
 30
0.0
 40
0.0307500000000001
100
AcDbArc
 50
90.00000000000033
 51
180.0
  0
LINE
  5
12B
330
37
100
AcDbEntity
  8
Visible (ANSI)
100
AcDbLine
 10
0.7359642560131741
 20
0.7316342842116031
 30
0.0
 11
0.7359642560131741
 21
0.6316342842116031
 31
0.0
  0
LINE
  5
12C
330
37
100
AcDbEntity
  8
Visible (ANSI)
100
AcDbLine
 10
0.7359642560131741
 20
0.6316342842116031
 30
0.0
 11
0.7359632560131741
 21
0.6066342842115063
 31
0.0
  0
LINE
  5
12D
330
37
100
AcDbEntity
  8
Visible (ANSI)
100
AcDbLine
 10
1.165090046013173
 20
0.966634284211603
 30
0.0
 11
1.165090046013173
 21
0.9446342842116029
 31
0.0
  0
LINE
  5
12E
330
37
100
AcDbEntity
  8
Visible (ANSI)
100
AcDbLine
 10
1.006590046013174
 20
0.966634284211603
 30
0.0
 11
1.025090046013174
 21
0.966634284211603
 31
0.0
  0
LINE
  5
12F
330
37
100
AcDbEntity
  8
Visible (ANSI)
100
AcDbLine
 10
1.086590046013174
 20
0.9481342842116028
 30
0.0
 11
1.105090046013173
 21
0.9481342842116028
 31
0.0
  0
LINE
  5
130
330
37
100
AcDbEntity
  8
Visible (ANSI)
100
AcDbLine
 10
1.025090046013173
 20
0.966634284211603
 30
0.0
 11
1.025090046013173
 21
0.8208842842116029
 31
0.0
  0
ARC
  5
131
330
37
100
AcDbEntity
  8
Visible (ANSI)
100
AcDbCircle
 10
0.9758400460131738
 20
0.8208842842116029
 30
0.0
 40
0.04925
100
AcDbArc
 50
281.5657063836214
 51
0.0
  0
LINE
  5
132
330
37
100
AcDbEntity
  8
Visible (ANSI)
100
AcDbLine
 10
0.9857142560131741
 20
0.772634284451231
 30
0.0
 11
0.9857142560131741
 21
0.770634283971975
 31
0.0
  0
ARC
  5
133
330
37
100
AcDbEntity
  8
Visible (ANSI)
100
AcDbCircle
 10
0.9758400460131742
 20
0.7223842842116032
 30
0.0
 40
0.0492499999999998
100
AcDbArc
 50
0.0
 51
78.43429361637882
  0
LINE
  5
134
330
37
100
AcDbEntity
  8
Visible (ANSI)
100
AcDbLine
 10
1.025090046013173
 20
0.722384284211603
 30
0.0
 11
1.025090046013173
 21
0.6716342842116028
 31
0.0
  0
ARC
  5
135
330
37
100
AcDbEntity
  8
Visible (ANSI)
100
AcDbCircle
 10
1.055840046013174
 20
0.6716342842116028
 30
0.0
 40
0.03075
100
AcDbArc
 50
180.0
 51
0.0
  0
ARC
  5
136
330
37
100
AcDbEntity
  8
Visible (ANSI)
100
AcDbCircle
 10
1.090090046013173
 20
0.9546342842116029
 30
0.0
 40
0.0035
100
AcDbArc
 50
90.0
 51
180.0
  0
LINE
  5
137
330
37
100
AcDbEntity
  8
Visible (ANSI)
100
AcDbLine
 10
1.090090046013173
 20
0.9581342842116027
 30
0.0
 11
1.094790046013174
 21
0.9581342842116027
 31
0.0
  0
LINE
  5
138
330
37
100
AcDbEntity
  8
Visible (ANSI)
100
AcDbLine
 10
1.094790046013174
 20
0.9581342842116027
 30
0.0
 11
1.094790046013174
 21
0.966634284211603
 31
0.0
  0
LINE
  5
139
330
37
100
AcDbEntity
  8
Visible (ANSI)
100
AcDbLine
 10
1.086590046013174
 20
0.6716342842116028
 30
0.0
 11
1.086590046013174
 21
0.9546342842116029
 31
0.0
  0
LINE
  5
13A
330
37
100
AcDbEntity
  8
Visible (ANSI)
100
AcDbLine
 10
1.105090046013173
 20
0.9446342842116029
 30
0.0
 11
1.105090046013173
 21
0.966634284211603
 31
0.0
  0
LINE
  5
13B
330
37
100
AcDbEntity
  8
Visible (ANSI)
100
AcDbLine
 10
1.094790046013174
 20
0.966634284211603
 30
0.0
 11
1.025090046013173
 21
0.966634284211603
 31
0.0
  0
CIRCLE
  5
13C
330
37
100
AcDbEntity
  8
Visible (ANSI)
100
AcDbCircle
 10
0.7267092052131743
 20
0.8676393350116029
 30
0.0
 40
0.0445
  0
CIRCLE
  5
13D
330
37
100
AcDbEntity
  8
Visible (ANSI)
100
AcDbCircle
 10
0.7267092052131743
 20
0.8676393350116029
 30
0.0
 40
0.0475000000000001
  0
CIRCLE
  5
13E
330
37
100
AcDbEntity
  8
Visible (ANSI)
100
AcDbCircle
 10
0.5287193068131742
 20
0.8676393350116029
 30
0.0
 40
0.0475000000000001
  0
CIRCLE
  5
13F
330
37
100
AcDbEntity
  8
Visible (ANSI)
100
AcDbCircle
 10
0.3797294560131739
 20
0.6196342842116031
 30
0.0
 40
0.0475000000000001
  0
CIRCLE
  5
140
330
37
100
AcDbEntity
  8
Visible (ANSI)
100
AcDbCircle
 10
0.519714256013174
 20
0.7166342842116031
 30
0.0
 40
0.0500000000000001
  0
CIRCLE
  5
141
330
37
100
AcDbEntity
  8
Visible (ANSI)
100
AcDbCircle
 10
0.9257142560131741
 20
0.8666342842116028
 30
0.0
 40
0.0500000000000001
  0
CIRCLE
  5
142
330
37
100
AcDbEntity
  8
Visible (ANSI)
100
AcDbCircle
 10
0.5287193068131742
 20
0.8676393350116029
 30
0.0
 40
0.0445
  0
CIRCLE
  5
143
330
37
100
AcDbEntity
  8
Visible (ANSI)
100
AcDbCircle
 10
0.9257142560131741
 20
0.8666342842116028
 30
0.0
 40
0.047
  0
CIRCLE
  5
144
330
37
100
AcDbEntity
  8
Visible (ANSI)
100
AcDbCircle
 10
0.3797294560131739
 20
0.6196342842116031
 30
0.0
 40
0.0445
  0
CIRCLE
  5
145
330
37
100
AcDbEntity
  8
Visible (ANSI)
100
AcDbCircle
 10
0.519714256013174
 20
0.7166342842116031
 30
0.0
 40
0.047
  0
CIRCLE
  5
146
330
37
100
AcDbEntity
  8
Visible (ANSI)
100
AcDbCircle
 10
0.925714256013174
 20
0.6196342842116031
 30
0.0
 40
0.0445
  0
CIRCLE
  5
147
330
37
100
AcDbEntity
  8
Visible (ANSI)
100
AcDbCircle
 10
0.925714256013174
 20
0.6196342842116031
 30
0.0
 40
0.0475000000000001
  0
CIRCLE
  5
148
330
37
100
AcDbEntity
  8
Visible (ANSI)
100
AcDbCircle
 10
0.519714256013174
 20
0.7166342842116031
 30
0.0
 40
0.046875
  0
CIRCLE
  5
149
330
37
100
AcDbEntity
  8
Visible (ANSI)
100
AcDbCircle
 10
0.9257142560131741
 20
0.8666342842116028
 30
0.0
 40
0.046875
  0
INSERT
  5
16B
330
37
100
AcDbEntity
  8
Detail Boundary (ANSI)
100
AcDbBlockReference
  2
2dDetail2
 10
0.0
 20
0.0
 30
0.0
 41
0.25
 42
0.25
 43
0.25
  0
LINE
  5
16C
330
37
100
AcDbEntity
  8
Break Line (ANSI)
100
AcDbLine
 10
1.027452296107222
 20
1.352650808874966
 30
0.0
 11
0.6524522961072225
 21
1.352650808874966
 31
0.0
  0
LINE
  5
16D
330
37
100
AcDbEntity
  8
Break Line (ANSI)
100
AcDbLine
 10
0.6524522961072225
 20
1.352650808874966
 30
0.0
 11
0.5368272961072237
 21
1.352650808874966
 31
0.0
  0
LINE
  5
16E
330
37
100
AcDbEntity
  8
Break Line (ANSI)
100
AcDbLine
 10
0.5368272961072237
 20
1.352650808874966
 30
0.0
 11
0.2643450347842573
 21
1.352650808874966
 31
0.0
  0
LINE
  5
16F
330
37
100
AcDbEntity
  8
Break Line (ANSI)
100
AcDbLine
 10
0.2643450347842573
 20
1.352650808874966
 30
0.0
 11
0.2643450347842573
 21
1.809182211554625
 31
0.0
  0
LINE
  5
170
330
37
100
AcDbEntity
  8
Visible (ANSI)
100
AcDbLine
 10
0.5368272961072237
 20
1.693557211554624
 30
0.0
 11
0.6524522961072225
 21
1.693557211554624
 31
0.0
  0
LINE
  5
171
330
37
100
AcDbEntity
  8
Visible (ANSI)
100
AcDbLine
 10
0.5880772961072227
 20
1.809182211554625
 30
0.0
 11
0.2643450347842573
 21
1.809182211554625
 31
0.0
  0
LINE
  5
172
330
37
100
AcDbEntity
  8
Visible (ANSI)
100
AcDbLine
 10
0.5368272961072237
 20
1.352650808874966
 30
0.0
 11
0.5368272961072237
 21
1.734182211554625
 31
0.0
  0
ARC
  5
173
330
37
100
AcDbEntity
  8
Visible (ANSI)
100
AcDbCircle
 10
0.5587022961072225
 20
1.734182211554625
 30
0.0
 40
0.0218750000000002
100
AcDbArc
 50
90.0
 51
180.0
  0
LINE
  5
174
330
37
100
AcDbEntity
  8
Visible (ANSI)
100
AcDbLine
 10
0.5587022961072225
 20
1.756057211554623
 30
0.0
 11
0.5880772961072227
 21
1.756057211554623
 31
0.0
  0
LINE
  5
175
330
37
100
AcDbEntity
  8
Visible (ANSI)
100
AcDbLine
 10
0.5880772961072227
 20
1.756057211554623
 30
0.0
 11
0.5880772961072227
 21
1.809182211554625
 31
0.0
  0
LINE
  5
176
330
37
100
AcDbEntity
  8
Visible (ANSI)
100
AcDbLine
 10
0.5880772961072239
 20
1.809182211554625
 30
0.0
 11
0.6524522961072257
 21
1.809182211554625
 31
0.0
  0
LINE
  5
177
330
37
100
AcDbEntity
  8
Visible (ANSI)
100
AcDbLine
 10
0.6524522961072225
 20
1.809182211554625
 30
0.0
 11
1.027452296107222
 21
1.809182211554625
 31
0.0
  0
LINE
  5
178
330
37
100
AcDbEntity
  8
Visible (ANSI)
100
AcDbLine
 10
1.027452296107222
 20
1.352650808874966
 30
0.0
 11
1.027452296107222
 21
1.671682211554625
 31
0.0
  0
LINE
  5
179
330
37
100
AcDbEntity
  8
Visible (ANSI)
100
AcDbLine
 10
1.027452296107222
 20
1.671682211554625
 30
0.0
 11
0.6524522961072225
 21
1.671682211554625
 31
0.0
  0
LINE
  5
17A
330
37
100
AcDbEntity
  8
Visible (ANSI)
100
AcDbLine
 10
0.6524522961072225
 20
1.671682211554625
 30
0.0
 11
0.6524522961072225
 21
1.352650808874966
 31
0.0
  0
LINE
  5
17B
330
37
100
AcDbEntity
  8
Visible (ANSI)
100
AcDbLine
 10
1.027452296107222
 20
1.809182211554625
 30
0.0
 11
1.027452296107222
 21
1.671682211554624
 31
0.0
  0
LINE
  5
17C
330
37
100
AcDbEntity
  8
Visible (ANSI)
100
AcDbLine
 10
0.6524522961072225
 20
1.671682211554624
 30
0.0
 11
0.6524522961072225
 21
1.809182211554625
 31
0.0
  0
MTEXT
  5
17D
330
37
100
AcDbEntity
  8
Symbol (ANSI)
100
AcDbMText
 10
0.4507491588860456
 20
1.19889192979423
 30
0.0
 40
0.0449999990895039
 41
0.0
 71
     7
 72
     1
  1
DETAIL  D
  7
Text Style30
 73
     1
 44
1.0
1001
ACAD
1000
MTEXTBEGIN
1070
    73
1070
     1
1070
    44
1040
1.0
1070
    74
1070
     0
1000
MTEXTEND
  0
MTEXT
  5
17E
330
37
100
AcDbEntity
  8
Symbol (ANSI)
100
AcDbMText
 10
0.4316627660403511
 20
1.123852481071153
 30
0.0
 40
0.0449999990895039
 41
0.0
 71
     7
 72
     1
  1
SCALE 25:1
  7
Text Style30
 73
     1
 44
1.0
1001
ACAD
1000
MTEXTBEGIN
1070
    73
1070
     1
1070
    44
1040
1.0
1070
    74
1070
     0
1000
MTEXTEND
  0
DIMENSION
  5
17F
330
37
100
AcDbEntity
  8
Dimension (ANSI)
100
AcDbDimension
  2
*D6
 10
0.5587022961072215
 20
1.734182211554624
 30
0.0
 11
0.3438039049332469
 21
1.859626848216011
 31
0.0
 70
   164
  1
<>
 42
0.0035
  3
Default (ANSI)
100
AcDbRadialDimension
 15
0.5448881506882462
 25
1.751143491321888
 35
0.0
 40
0.0
1001
ACAD
1000
DSTYLE
1002
{
1070
   271
1070
     4
1070
   144
1040
0.16
1070
   141
1040
0.0
1070
   272
1070
     3
1070
    48
1040
0.0
1070
    47
1040
0.0
1002
}
  0
DIMENSION
  5
21D
330
37
100
AcDbEntity
  8
Dimension (ANSI)
100
AcDbDimension
  2
*D7
 10
0.5880772961072223
 20
1.971606368695983
 30
0.0
 11
0.3793053814344529
 21
1.971606368695983
 31
0.0
 70
   160
  1
<>
 42
0.0081999999999999
  3
Default (ANSI)
100
AcDbAlignedDimension
 13
0.5368272961072228
 23
1.734182211554624
 33
0.0
 14
0.5880772961072223
 24
1.809182211554625
 34
0.0
100
AcDbRotatedDimension
1001
ACAD
1000
DSTYLE
1002
{
1070
    73
1070
     0
1070
    74
1070
     0
1070
   271
1070
     4
1070
   144
1040
0.16
1070
   272
1070
     3
1070
    48
1040
0.0
1070
    47
1040
0.0
1002
}
  0
DIMENSION
  5
307
330
37
100
AcDbEntity
  8
Dimension (ANSI)
100
AcDbDimension
  2
*D8
 10
0.6524522961072219
 20
1.621729662633556
 30
0.0
 11
0.4194127027626245
 21
1.621729662633556
 31
0.0
 70
   160
  1
<>
 42
0.0184999999999999
  3
Default (ANSI)
100
AcDbAlignedDimension
 13
0.5368272961072228
 23
1.621729662633556
 33
0.0
 14
0.6524522961072219
 24
1.621729662633556
 34
0.0
100
AcDbRotatedDimension
1001
ACAD
1000
DSTYLE
1002
{
1070
    73
1070
     0
1070
    74
1070
     0
1070
   271
1070
     4
1070
   144
1040
0.16
1070
    76
1070
     1
1070
    75
1070
     1
1070
   272
1070
     3
1070
    48
1040
0.0
1070
    47
1040
0.0
1002
}
  0
DIMENSION
  5
3E4
330
37
100
AcDbEntity
  8
Dimension (ANSI)
100
AcDbDimension
  2
*D9
 10
0.4065337330957878
 20
1.809182211554625
 30
0.0
 11
0.4065337330957874
 21
1.753147167838554
 31
0.0
 70
   160
  1
<>
 42
0.0185000000000002
  3
Default (ANSI)
100
AcDbAlignedDimension
 13
0.6524522961072219
 23
1.693557211554623
 33
0.0
 14
0.652452296107224
 24
1.809182211554625
 34
0.0
 50
270.0
100
AcDbRotatedDimension
1001
ACAD
1000
DSTYLE
1002
{
1070
   271
1070
     4
1070
   144
1040
0.16
1070
    76
1070
     1
1070
   272
1070
     3
1070
    48
1040
0.0
1070
    47
1040
0.0
1002
}
  0
DIMENSION
  5
4B6
330
37
100
AcDbEntity
  8
Dimension (ANSI)
100
AcDbDimension
  2
*D10
 10
1.027452296107221
 20
1.959531534460109
 30
0.0
 11
0.8399522961072218
 21
1.959531534460109
 31
0.0
 70
   160
  1
<>
 42
0.06
  3
Default (ANSI)
100
AcDbAlignedDimension
 13
0.6524522961072219
 23
1.740432211554625
 33
0.0
 14
1.027452296107221
 24
1.740432211554625
 34
0.0
 50
180.0
100
AcDbRotatedDimension
1001
ACAD
1000
DSTYLE
1002
{
1070
    73
1070
     0
1070
    74
1070
     0
1070
   271
1070
     4
1070
   144
1040
0.16
1070
   272
1070
     3
1070
    48
1040
0.0
1070
    47
1040
0.0
1002
}
  0
LINE
  5
5A0
330
37
100
AcDbEntity
  8
Visible (ANSI)
100
AcDbLine
 10
2.324706551287525
 20
0.5166342842116029
 30
0.0
 11
1.874706551287525
 21
0.5166342842116029
 31
0.0
  0
LINE
  5
5A1
330
37
100
AcDbEntity
  8
Visible (ANSI)
100
AcDbLine
 10
2.324706551287525
 20
0.966634284211603
 30
0.0
 11
2.324706551287525
 21
0.5166342842116029
 31
0.0
  0
LINE
  5
5A2
330
37
100
AcDbEntity
  8
Visible (ANSI)
100
AcDbLine
 10
2.324706551287525
 20
0.966634284211603
 30
0.0
 11
1.896706551287525
 21
0.966634284211603
 31
0.0
  0
LINE
  5
5A3
330
37
100
AcDbEntity
  8
Visible (ANSI)
100
AcDbLine
 10
1.874706551287525
 20
0.5166342842116029
 30
0.0
 11
1.874706551287525
 21
0.9446342842116029
 31
0.0
  0
ARC
  5
5A4
330
37
100
AcDbEntity
  8
Visible (ANSI)
100
AcDbCircle
 10
1.874706551287525
 20
0.966634284211603
 30
0.0
 40
0.0220000000000001
100
AcDbArc
 50
270.0
 51
0.0
  0
LINE
  5
5A5
330
37
100
AcDbEntity
  8
Visible (ANSI)
100
AcDbLine
 10
1.874706551287502
 20
0.9546342842116029
 30
0.0
 11
1.874706551287503
 21
0.9581342842116029
 31
0.0
  0
LINE
  5
5A6
330
37
100
AcDbEntity
  8
Visible (ANSI)
100
AcDbLine
 10
1.883206551287503
 20
0.9581342842116029
 30
0.0
 11
1.886706551287502
 21
0.9546342842116029
 31
0.0
  0
LINE
  5
5A7
330
37
100
AcDbEntity
  8
Visible (ANSI)
100
AcDbLine
 10
1.883206551287504
 20
0.9581342842116027
 30
0.0
 11
1.874706551287504
 21
0.9581342842116027
 31
0.0
  0
LINE
  5
5A8
330
37
100
AcDbEntity
  8
Visible (ANSI)
100
AcDbLine
 10
1.874706551287504
 20
0.9581342842116027
 30
0.0
 11
1.874706551287504
 21
0.966634284211603
 31
0.0
  0
LINE
  5
5A9
330
37
100
AcDbEntity
  8
Visible (ANSI)
100
AcDbLine
 10
1.883206551287504
 20
0.966634284211603
 30
0.0
 11
1.883206551287504
 21
0.9581342842116027
 31
0.0
  0
LINE
  5
5AA
330
37
100
AcDbEntity
  8
Visible (ANSI)
100
AcDbLine
 10
1.874706551287504
 20
0.966634284211603
 30
0.0
 11
1.883206551287504
 21
0.966634284211603
 31
0.0
  0
LINE
  5
5AB
330
37
100
AcDbEntity
  8
Visible (ANSI)
100
AcDbLine
 10
1.883206551287503
 20
0.966634284211603
 30
0.0
 11
1.886706551287502
 21
0.966634284211603
 31
0.0
  0
LINE
  5
5AC
330
37
100
AcDbEntity
  8
Visible (ANSI)
100
AcDbLine
 10
1.874706551287502
 20
0.9446342842116029
 30
0.0
 11
1.874706551287502
 21
0.9546342842116029
 31
0.0
  0
LINE
  5
5AD
330
37
100
AcDbEntity
  8
Visible (ANSI)
100
AcDbLine
 10
1.886706551287502
 20
0.966634284211603
 30
0.0
 11
1.896706551287502
 21
0.966634284211603
 31
0.0
  0
CIRCLE
  5
5AE
330
37
100
AcDbEntity
  8
Visible (ANSI)
100
AcDbCircle
 10
2.073580333162524
 20
0.7677605023366028
 30
0.0
 40
0.03175
  0
CIRCLE
  5
5AF
330
37
100
AcDbEntity
  8
Visible (ANSI)
100
AcDbCircle
 10
2.073580333162525
 20
0.7677605023366028
 30
0.0
 40
0.03475
  0
CIRCLE
  5
5B0
330
37
100
AcDbEntity
  8
Visible (ANSI)
100
AcDbCircle
 10
2.204706551287525
 20
0.6366342842116028
 30
0.0
 40
0.046
  0
CIRCLE
  5
5B1
330
37
100
AcDbEntity
  8
Visible (ANSI)
100
AcDbCircle
 10
2.204706551287524
 20
0.6366342842116028
 30
0.0
 40
0.043
  0
CIRCLE
  5
5B2
330
37
100
AcDbEntity
  8
Hidden Narrow (ANSI)
 48
1.045677661895751
100
AcDbCircle
 10
2.204706551287524
 20
0.6366342842116028
 30
0.0
 40
0.043
  0
CIRCLE
  5
5B3
330
37
100
AcDbEntity
  8
Hidden Narrow (ANSI)
 48
1.066956043243408
100
AcDbCircle
 10
2.204706551287525
 20
0.6366342842116028
 30
0.0
 40
0.05265
  0
INSERT
  5
5CF
330
37
100
AcDbEntity
  8
Detail Boundary (ANSI)
100
AcDbBlockReference
  2
2dDetail3
 10
0.0
 20
0.0
 30
0.0
 41
0.25
 42
0.25
 43
0.25
  0
LINE
  5
5D0
330
37
100
AcDbEntity
  8
Break Line (ANSI)
100
AcDbLine
 10
1.897256311777906
 20
1.280008508349954
 30
0.0
 11
1.893999345369242
 21
1.280374765832865
 31
0.0
  0
LINE
  5
5D1
330
37
100
AcDbEntity
  8
Break Line (ANSI)
100
AcDbLine
 10
1.976073018542315
 20
1.353282722802633
 30
0.0
 11
1.897256311777906
 21
1.280008508349954
 31
0.0
  0
LINE
  5
5D2
330
37
100
AcDbEntity
  8
Break Line (ANSI)
100
AcDbLine
 10
2.050979734803779
 20
1.377922845352713
 30
0.0
 11
1.976073018542315
 21
1.353282722802633
 31
0.0
  0
LINE
  5
5D3
330
37
100
AcDbEntity
  8
Break Line (ANSI)
100
AcDbLine
 10
2.123727507387024
 20
1.408014861711597
 30
0.0
 11
2.050979734803779
 21
1.377922845352713
 31
0.0
  0
LINE
  5
5D4
330
37
100
AcDbEntity
  8
Break Line (ANSI)
100
AcDbLine
 10
2.199247004730072
 20
1.440375985701601
 30
0.0
 11
2.123727507387024
 21
1.408014861711597
 31
0.0
  0
LINE
  5
5D5
330
37
100
AcDbEntity
  8
Break Line (ANSI)
100
AcDbLine
 10
2.27023568614096
 20
1.4873076234925
 30
0.0
 11
2.199247004730072
 21
1.440375985701601
 31
0.0
  0
LINE
  5
5D6
330
37
100
AcDbEntity
  8
Break Line (ANSI)
100
AcDbLine
 10
2.330604489656604
 20
1.550080791806092
 30
0.0
 11
2.27023568614096
 21
1.4873076234925
 31
0.0
  0
LINE
  5
5D7
330
37
100
AcDbEntity
  8
Break Line (ANSI)
100
AcDbLine
 10
2.334919546973623
 20
1.640978088713277
 30
0.0
 11
2.330604489656604
 21
1.550080791806092
 31
0.0
  0
LINE
  5
5D8
330
37
100
AcDbEntity
  8
Break Line (ANSI)
100
AcDbLine
 10
2.367564207074255
 20
1.717346507776117
 30
0.0
 11
2.334919546973623
 21
1.640978088713277
 31
0.0
  0
LINE
  5
5D9
330
37
100
AcDbEntity
  8
Break Line (ANSI)
100
AcDbLine
 10
2.374726551212828
 20
1.773362618583761
 30
0.0
 11
2.367564207074255
 21
1.717346507776117
 31
0.0
  0
LINE
  5
5DA
330
37
100
AcDbEntity
  8
Visible (ANSI)
100
AcDbLine
 10
1.893999345369096
 20
1.635862618583762
 30
0.0
 11
1.893999345369096
 21
1.698362618583761
 31
0.0
  0
LINE
  5
5DB
330
37
100
AcDbEntity
  8
Visible (ANSI)
100
AcDbLine
 10
1.893999345369096
 20
1.698362618583761
 30
0.0
 11
1.893999345369103
 21
1.720237618583761
 31
0.0
  0
LINE
  5
5DC
330
37
100
AcDbEntity
  8
Visible (ANSI)
100
AcDbLine
 10
1.893999345369111
 20
1.72023761858376
 30
0.0
 11
1.893999345369111
 21
1.773362618583761
 31
0.0
  0
LINE
  5
5DD
330
37
100
AcDbEntity
  8
Visible (ANSI)
100
AcDbLine
 10
1.893999345369242
 20
1.280374765832865
 30
0.0
 11
1.893999345369242
 21
1.635862618583762
 31
0.0
  0
LINE
  5
5DE
330
37
100
AcDbEntity
  8
Visible (ANSI)
100
AcDbLine
 10
2.374726551212828
 20
1.773362618583761
 30
0.0
 11
2.031499345369242
 21
1.773362618583761
 31
0.0
  0
ARC
  5
5DF
330
37
100
AcDbEntity
  8
Visible (ANSI)
100
AcDbCircle
 10
1.893999345369241
 20
1.773362618583761
 30
0.0
 40
0.1375000000000007
100
AcDbArc
 50
270.0000000000003
 51
0.0
  0
LINE
  5
5E0
330
37
100
AcDbEntity
  8
Visible (ANSI)
100
AcDbLine
 10
1.968999345369096
 20
1.773362618583761
 30
0.0
 11
2.031499345369096
 21
1.773362618583761
 31
0.0
  0
LINE
  5
5E1
330
37
100
AcDbEntity
  8
Visible (ANSI)
100
AcDbLine
 10
1.947124345369103
 20
1.720237618583761
 30
0.0
 11
1.968999345369096
 21
1.698362618583761
 31
0.0
  0
LINE
  5
5E2
330
37
100
AcDbEntity
  8
Visible (ANSI)
100
AcDbLine
 10
1.947124345369111
 20
1.72023761858376
 30
0.0
 11
1.893999345369111
 21
1.72023761858376
 31
0.0
  0
LINE
  5
5E3
330
37
100
AcDbEntity
  8
Visible (ANSI)
100
AcDbLine
 10
1.947124345369111
 20
1.773362618583761
 30
0.0
 11
1.947124345369111
 21
1.72023761858376
 31
0.0
  0
LINE
  5
5E4
330
37
100
AcDbEntity
  8
Visible (ANSI)
100
AcDbLine
 10
1.893999345369111
 20
1.773362618583761
 30
0.0
 11
1.947124345369111
 21
1.773362618583761
 31
0.0
  0
LINE
  5
5E5
330
37
100
AcDbEntity
  8
Visible (ANSI)
100
AcDbLine
 10
1.947124345369103
 20
1.773362618583761
 30
0.0
 11
1.968999345369096
 21
1.773362618583761
 31
0.0
  0
MTEXT
  5
5E6
330
37
100
AcDbEntity
  8
Symbol (ANSI)
100
AcDbMText
 10
2.015529617897556
 20
1.094456622501369
 30
0.0
 40
0.0449999990895039
 41
0.0
 71
     7
 72
     1
  1
DETAIL  E
  7
Text Style30
 73
     1
 44
1.0
1001
ACAD
1000
MTEXTBEGIN
1070
    73
1070
     1
1070
    44
1040
1.0
1070
    74
1070
     0
1000
MTEXTEND
  0
MTEXT
  5
5E7
330
37
100
AcDbEntity
  8
Symbol (ANSI)
100
AcDbMText
 10
1.992814780567962
 20
1.019417173778291
 30
0.0
 40
0.0449999990895039
 41
0.0
 71
     7
 72
     1
  1
SCALE 25:1
  7
Text Style30
 73
     1
 44
1.0
1001
ACAD
1000
MTEXTBEGIN
1070
    73
1070
     1
1070
    44
1040
1.0
1070
    74
1070
     0
1000
MTEXTEND
  0
DIMENSION
  5
5E8
330
37
100
AcDbEntity
  8
Dimension (ANSI)
100
AcDbDimension
  2
*D12
 10
1.947124345369111
 20
1.888921796966472
 30
0.0
 11
2.090787891959878
 21
1.888921796966472
 31
0.0
 70
   160
  1
<>
 42
0.0085000000000001
  3
Default (ANSI)
100
AcDbAlignedDimension
 13
1.893999345369111
 23
1.746800118583761
 33
0.0
 14
1.947124345369111
 24
1.746800118583761
 34
0.0
 50
180.0
100
AcDbRotatedDimension
1001
ACAD
1000
DSTYLE
1002
{
1070
   271
1070
     4
1070
   144
1040
0.16
1070
   272
1070
     3
1070
    48
1040
0.0
1070
    47
1040
0.0
1002
}
  0
DIMENSION
  5
6BE
330
37
100
AcDbEntity
  8
Dimension (ANSI)
100
AcDbDimension
  2
*D13
 10
1.736045652423574
 20
1.72023761858376
 30
0.0
 11
1.642920607605093
 21
1.617002366996858
 31
0.0
 70
   160
  1
<>
 42
0.0085000000000003
  3
Default (ANSI)
100
AcDbAlignedDimension
 13
1.893999345369111
 23
1.773362618583762
 33
0.0
 14
1.893999345369111
 24
1.72023761858376
 34
0.0
 50
270.0
100
AcDbRotatedDimension
1001
ACAD
1000
DSTYLE
1002
{
1070
   271
1070
     4
1070
   144
1040
0.16
1070
   272
1070
     3
1070
    48
1040
0.0
1070
    47
1040
0.0
1002
}
  0
DIMENSION
  5
7A0
330
37
100
AcDbEntity
  8
Dimension (ANSI)
100
AcDbDimension
  2
*D14
 10
1.893999345369241
 20
1.773362618583762
 30
0.0
 11
2.395574321224972
 21
1.373261340431333
 31
0.0
 70
   164
  1
<>
 42
0.0220000000000001
  3
Default (ANSI)
100
AcDbRadialDimension
 15
1.991226527782407
 25
1.676135436170625
 35
0.0
 40
0.0
1001
ACAD
1000
DSTYLE
1002
{
1070
   271
1070
     3
1070
   144
1040
0.16
1070
   141
1040
0.0
1070
   272
1070
     3
1070
    48
1040
0.0
1070
    47
1040
0.0
1002
}
  0
MTEXT
  5
83D
330
37
100
AcDbEntity
  8
Symbol (ANSI)
100
AcDbMText
 10
1.035510353956871
 20
0.358578583680703
 30
0.0
 40
0.0600000007415381
 41
0.9367143611919694
 71
     1
 72
     1
  1
{\fTahoma|b0|i0;\H0.0600;TUNING STUB DETAIL \PFOR  ALL BLOCKS}
  7
Note Text (ANSI)
 73
     2
 44
0.9878842234611511
1001
ACAD
1000
MTEXTBEGIN
1070
    73
1070
     2
1070
    44
1040
0.9878842234611511
1070
    74
1070
     0
1000
MTEXTEND
  0
MTEXT
  5
83E
102
{ACAD_REACTORS
330
83F
102
}
330
37
100
AcDbEntity
  8
Symbol (ANSI)
100
AcDbMText
 10
0.7392443365767207
 20
1.534877266188247
 30
0.0
 40
0.0300000003707691
 41
0.1886790896963885
 71
     1
 72
     1
  1
{DP 0.0185\P }
  7
Note Text (ANSI)
 73
     2
 44
0.9878842234611511
1001
ACAD
1000
MTEXTBEGIN
1070
    73
1070
     2
1070
    44
1040
0.9878842234611511
1070
    74
1070
     0
1000
MTEXTEND
  0
LEADER
  5
83F
330
37
100
AcDbEntity
  8
Symbol (ANSI)
100
AcDbLeader
  3
Default (ANSI)$7
 73
     0
 40
0.0893942122778778
 41
0.1835460062979893
 76
     3
 10
0.5816135126978072
 20
1.478307103178343
 30
0.0
 10
0.7146380373641224
 20
1.519877266002863
 30
0.0
 10
0.7313703208286892
 20
1.519877266002863
 30
0.0
340
83E
213
0.0
223
-0.0150000001853845
233
0.0
1001
ACAD
1000
DSTYLE
1002
{
1070
    77
1070
     0
1070
    41
1040
0.0492125984251969
1070
   341
1005
840
1002
}
  0
MTEXT
  5
845
102
{ACAD_REACTORS
330
846
102
}
330
37
100
AcDbEntity
  8
Symbol (ANSI)
100
AcDbMText
 10
1.769888887583145
 20
1.487102419276689
 30
0.0
 40
0.0300000003707691
 41
0.2604943326139074
 71
     3
 72
     1
  1
{TUNING STUB}
  7
Note Text (ANSI)
 73
     1
 44
1.0
1001
ACAD
1000
MTEXTBEGIN
1070
    73
1070
     1
1070
    44
1040
1.0
1070
    74
1070
     0
1000
MTEXTEND
  0
LEADER
  5
846
330
37
100
AcDbEntity
  8
Symbol (ANSI)
100
AcDbLeader
  3
Default (ANSI)$7
 73
     0
 40
0.0311685698949495
 41
0.2596440596226332
 76
     3
 10
1.918198095708272
 20
1.751164442718595
 30
0.0
 10
1.794495186795743
 20
1.472102419091305
 30
0.0
 10
1.777762903331176
 20
1.472102419091305
 30
0.0
340
845
213
0.0
223
-0.0150000001853845
233
0.0
1001
ACAD
1000
DSTYLE
1002
{
1070
    77
1070
     0
1070
    41
1040
0.0492125984251969
1070
   341
1005
840
1002
}
  0
MTEXT
  5
847
102
{ACAD_REACTORS
330
848
102
}
330
37
100
AcDbEntity
  8
Symbol (ANSI)
100
AcDbMText
 10
0.7281589595211946
 20
1.615246247648986
 30
0.0
 40
0.0300000003707691
 41
0.2604943326139074
 71
     1
 72
     1
  1
{TUNING STUB}
  7
Note Text (ANSI)
 73
     1
 44
1.0
1001
ACAD
1000
MTEXTBEGIN
1070
    73
1070
     1
1070
    44
1040
1.0
1070
    74
1070
     0
1000
MTEXTEND
  0
LEADER
  5
848
330
37
100
AcDbEntity
  8
Symbol (ANSI)
100
AcDbLeader
  3
Default (ANSI)$7
 73
     0
 40
0.0311685698949495
 41
0.2596440596226332
 76
     3
 10
0.5622141028506352
 20
1.785926308079793
 30
0.0
 10
0.7035526603085961
 20
1.600246247463602
 30
0.0
 10
0.7202849437731631
 20
1.600246247463602
 30
0.0
340
847
210
0.0
220
0.0
230
-1.0
213
0.0
223
-0.0150000001853845
233
0.0
1001
ACAD
1000
DSTYLE
1002
{
1070
    77
1070
     0
1070
    41
1040
0.0492125984251969
1070
   341
1005
840
1002
}
  0
LINE
  5
849
330
37
100
AcDbEntity
  8
Centerline (ANSI)
  6
CHAIN
 48
0.2388175576925278
100
AcDbLine
 10
0.5946397961072223
 20
1.289855698373851
 30
0.0
 11
0.5946397961072223
 21
2.019336219578813
 31
0.0
  0
DIMENSION
  5
84A
330
37
100
AcDbEntity
  8
Dimension (ANSI)
100
AcDbDimension
  2
*D16
 10
0.5946397961072223
 20
1.870260659615616
 30
0.0
 11
0.8778139968323374
 21
1.870260659615616
 31
0.0
 70
   160
  1
<>
 42
0.00105
  3
Default (ANSI)
100
AcDbAlignedDimension
 13
0.5880772961072223
 23
1.809182211554625
 33
0.0
 14
0.5946397961072223
 24
1.839723102742283
 34
0.0
100
AcDbRotatedDimension
1001
ACAD
1000
DSTYLE
1002
{
1070
    73
1070
     0
1070
    74
1070
     0
1070
   271
1070
     3
1070
   144
1040
0.16
1070
    76
1070
     1
1070
   272
1070
     3
1070
    48
1040
0.0
1070
    47
1040
0.0
1002
}
  0
MTEXT
  5
92E
330
37
100
AcDbEntity
  8
Symbol (ANSI)
100
AcDbMText
 10
2.376036698066797
 20
1.987559237249567
 30
0.0
 40
0.0300000003707691
 41
0.2358914125622727
 71
     1
 72
     1
  1
{6 of 6 (OMT)}
  7
Note Text (ANSI)
 73
     1
 44
1.0
1001
ACAD
1000
MTEXTBEGIN
1070
    73
1070
     1
1070
    44
1040
1.0
1070
    74
1070
     0
1000
MTEXTEND
  0
MTEXT
  5
92F
102
{ACAD_REACTORS
330
930
102
}
330
37
100
AcDbEntity
  8
Symbol (ANSI)
100
AcDbMText
 10
1.75795623173316
 20
1.901255920387447
 30
0.0
 40
0.0389999996020099
 41
0.6581644842943807
 71
     3
 72
     1
  1
{\fTahoma|b0|i0;\H0.0390;TUNING STUB ZERO POINT}
  7
Note Text (ANSI)
 73
     1
 44
1.0
1001
ACAD
1000
MTEXTBEGIN
1070
    73
1070
     1
1070
    44
1040
1.0
1070
    74
1070
     0
1000
MTEXTEND
  0
LEADER
  5
930
330
37
100
AcDbEntity
  8
Symbol (ANSI)
100
AcDbLeader
  3
Default (ANSI)$7
 73
     0
 40
0.0406239086635326
 41
0.6582592343854936
 76
     4
 10
1.893999345369111
 20
1.773362618583762
 30
0.0
 10
1.803887257093986
 20
1.863474706858859
 30
0.0
 10
1.784212072312256
 20
1.886255920202063
 30
0.0
 10
1.765830247481191
 20
1.886255920202063
 30
0.0
340
92F
213
0.0
223
-0.0150000001853845
233
0.0
1001
ACAD
1000
DSTYLE
1002
{
1070
    77
1070
     0
1002
}
  0
ENDSEC
  0
SECTION
  2
OBJECTS
  0
DICTIONARY
  5
C
330
0
100
AcDbDictionary
281
     1
  3
ACAD_COLOR
350
30
  3
ACAD_GROUP
350
D
  3
ACAD_LAYOUT
350
2F
  3
ACAD_MATERIAL
350
10
  3
ACAD_MLINESTYLE
350
2C
  3
ACAD_PLOTSETTINGS
350
2E
  3
ACAD_PLOTSTYLENAME
350
E
  3
ACAD_TABLESTYLE
350
31
  3
ACAD_VISUALSTYLE
350
14
  3
AcDbVariableDictionary
350
931
  3
DWGPROPS
350
937
  0
DICTIONARY
  5
30
102
{ACAD_REACTORS
330
C
102
}
330
C
100
AcDbDictionary
281
     1
  0
DICTIONARY
  5
D
102
{ACAD_REACTORS
330
C
102
}
330
C
100
AcDbDictionary
281
     1
  0
DICTIONARY
  5
2F
102
{ACAD_REACTORS
330
C
102
}
330
C
100
AcDbDictionary
281
     1
  3
Layout1
350
36
  3
Layout2
350
3E
  3
Model
350
3A
  0
DICTIONARY
  5
10
102
{ACAD_REACTORS
330
C
102
}
330
C
100
AcDbDictionary
281
     1
  3
ByBlock
350
12
  3
ByLayer
350
11
  3
Global
350
13
  0
DICTIONARY
  5
2C
102
{ACAD_REACTORS
330
C
102
}
330
C
100
AcDbDictionary
281
     1
  3
Standard
350
2D
  0
DICTIONARY
  5
2E
102
{ACAD_REACTORS
330
C
102
}
330
C
100
AcDbDictionary
281
     1
  0
ACDBDICTIONARYWDFLT
  5
E
102
{ACAD_REACTORS
330
C
102
}
330
C
100
AcDbDictionary
281
     1
  3
Normal
350
F
100
AcDbDictionaryWithDefault
340
F
  0
DICTIONARY
  5
31
102
{ACAD_REACTORS
330
C
102
}
330
C
100
AcDbDictionary
281
     1
  3
Standard
350
32
  0
DICTIONARY
  5
14
102
{ACAD_REACTORS
330
C
102
}
330
C
100
AcDbDictionary
281
     1
  3
2dWireframe
350
1A
  3
3D Hidden
350
1C
  3
3dWireframe
350
1B
  3
Basic
350
19
  3
Brighten
350
20
  3
ColorChange
350
24
  3
Conceptual
350
1D
  3
Dim
350
1F
  3
Facepattern
350
23
  3
Flat
350
15
  3
FlatWithEdges
350
16
  3
Gouraud
350
17
  3
GouraudWithEdges
350
18
  3
Linepattern
350
22
  3
Realistic
350
1E
  3
Thicken
350
21
  0
DICTIONARY
  5
931
102
{ACAD_REACTORS
330
C
102
}
330
C
100
AcDbDictionary
281
     1
  3
CTABLESTYLE
350
932
  3
DIMASSOC
350
936
  3
HIDETEXT
350
935
  3
INDEXCTL
350
934
  3
SORTENTS
350
933
  0
XRECORD
  5
937
102
{ACAD_REACTORS
330
C
102
}
330
C
100
AcDbXrecord
280
     1
  1
DWGPROPS COOKIE
  2
WAVEGUIDE ORTHOMODE TRANSDUCER
  3

  4
Da Chow
  6

  7

  8

  9

300
Manager=
301
Company=RADIO ASTRONOMY LABORATORY                                                UNIVERSITY OF CALIFORNIA-BERKELEY                        601 CAMPBELL HALL BERKELEY,CA 94720
302
Category=
303
Part Number=OMT
304
Description=
305
Project=
306
Designer=Da Chow
307
Engineer=
308
Authority=
309
Cost Center=
 40
0.0000258564814815
 41
2454846.696840995
 42
2454846.696840995
  1

 90
       17
300
Vendor=
300
User Status=
300
Design Status=WorkInProgress
300
Checked by=
300
Date Checked=01/14/2009
300
Engr Approved by=
300
Mfg Approved by=
  0
LAYOUT
  5
36
102
{ACAD_XDICTIONARY
360
940
102
}
102
{ACAD_REACTORS
330
2F
102
}
330
2F
100
AcDbPlotSettings
  1

  2

  4

  6

 40
0.0
 41
0.0
 42
0.0
 43
0.0
 44
0.0
 45
0.0
 46
0.0
 47
0.0
 48
0.0
 49
0.0
140
0.0
141
0.0
142
1.0
143
1.0
 70
   688
 72
     0
 73
     0
 74
     5
  7

 75
    16
147
1.0
148
0.0
149
0.0
100
AcDbLayout
  1
Layout1
 70
     1
 71
     1
 10
0.0
 20
0.0
 11
12.0
 21
9.0
 12
0.0
 22
0.0
 32
0.0
 14
0.0
 24
0.0
 34
0.0
 15
0.0
 25
0.0
 35
0.0
146
0.0
 13
0.0
 23
0.0
 33
0.0
 16
1.0
 26
0.0
 36
0.0
 17
0.0
 27
1.0
 37
0.0
 76
     0
330
33
  0
LAYOUT
  5
3E
102
{ACAD_XDICTIONARY
360
944
102
}
102
{ACAD_REACTORS
330
2F
102
}
330
2F
100
AcDbPlotSettings
  1

  2

  4

  6

 40
0.0
 41
0.0
 42
0.0
 43
0.0
 44
0.0
 45
0.0
 46
0.0
 47
0.0
 48
0.0
 49
0.0
140
0.0
141
0.0
142
1.0
143
1.0
 70
   688
 72
     0
 73
     0
 74
     5
  7

 75
    16
147
1.0
148
0.0
149
0.0
100
AcDbLayout
  1
Layout2
 70
     1
 71
     2
 10
0.0
 20
0.0
 11
12.0
 21
9.0
 12
0.0
 22
0.0
 32
0.0
 14
0.0
 24
0.0
 34
0.0
 15
0.0
 25
0.0
 35
0.0
146
0.0
 13
0.0
 23
0.0
 33
0.0
 16
1.0
 26
0.0
 36
0.0
 17
0.0
 27
1.0
 37
0.0
 76
     0
330
3B
  0
LAYOUT
  5
3A
102
{ACAD_XDICTIONARY
360
942
102
}
102
{ACAD_REACTORS
330
2F
102
}
330
2F
100
AcDbPlotSettings
  1

  2

  4

  6

 40
0.0
 41
0.0
 42
0.0
 43
0.0
 44
0.0
 45
0.0
 46
0.0
 47
0.0
 48
0.0
 49
0.0
140
0.0
141
0.0
142
1.0
143
1.0
 70
  1712
 72
     0
 73
     0
 74
     0
  7

 75
     0
147
1.0
148
0.0
149
0.0
100
AcDbLayout
  1
Model
 70
     1
 71
     0
 10
0.0
 20
0.0
 11
12.0
 21
9.0
 12
0.0
 22
0.0
 32
0.0
 14
0.0
 24
0.0
 34
0.0
 15
0.0
 25
0.0
 35
0.0
146
0.0
 13
0.0
 23
0.0
 33
0.0
 16
1.0
 26
0.0
 36
0.0
 17
0.0
 27
1.0
 37
0.0
 76
     0
330
37
  0
MATERIAL
  5
12
102
{ACAD_XDICTIONARY
360
93A
102
}
102
{ACAD_REACTORS
330
10
102
}
330
10
100
AcDbMaterial
  1
ByBlock
  0
MATERIAL
  5
11
102
{ACAD_XDICTIONARY
360
938
102
}
102
{ACAD_REACTORS
330
10
102
}
330
10
100
AcDbMaterial
  1
ByLayer
  0
MATERIAL
  5
13
102
{ACAD_XDICTIONARY
360
93C
102
}
102
{ACAD_REACTORS
330
10
102
}
330
10
100
AcDbMaterial
  1
Global
  0
MLINESTYLE
  5
2D
102
{ACAD_REACTORS
330
2C
102
}
330
2C
100
AcDbMlineStyle
  2
STANDARD
 70
     0
  3

 62
   256
 51
90.0
 52
90.0
 71
     2
 49
0.5
 62
   256
  6
BYLAYER
 49
-0.5
 62
   256
  6
BYLAYER
  0
ACDBPLACEHOLDER
  5
F
102
{ACAD_REACTORS
330
E
102
}
330
E
  0
TABLESTYLE
  5
32
102
{ACAD_XDICTIONARY
360
93E
102
}
102
{ACAD_REACTORS
330
31
102
}
330
31
100
AcDbTableStyle
  3
Standard
 70
     0
 71
     0
 40
0.06
 41
0.06
280
     0
281
     0
  7
Standard
140
0.18
170
     2
 62
     0
 63
     7
283
     0
274
    -2
284
     1
 64
     0
275
    -2
285
     1
 65
     0
276
    -2
286
     1
 66
     0
277
    -2
287
     1
 67
     0
278
    -2
288
     1
 68
     0
279
    -2
289
     1
 69
     0
  7
Standard
140
0.25
170
     5
 62
     0
 63
     7
283
     0
274
    -2
284
     1
 64
     0
275
    -2
285
     1
 65
     0
276
    -2
286
     1
 66
     0
277
    -2
287
     1
 67
     0
278
    -2
288
     1
 68
     0
279
    -2
289
     1
 69
     0
  7
Standard
140
0.18
170
     5
 62
     0
 63
     7
283
     0
274
    -2
284
     1
 64
     0
275
    -2
285
     1
 65
     0
276
    -2
286
     1
 66
     0
277
    -2
287
     1
 67
     0
278
    -2
288
     1
 68
     0
279
    -2
289
     1
 69
     0
  0
VISUALSTYLE
  5
1A
102
{ACAD_REACTORS
330
14
102
}
330
14
100
AcDbVisualStyle
  2
2dWireframe
 70
     4
 71
     0
 72
     2
 73
     0
 90
        0
 40
-0.6
 41
-30.0
 62
     5
 63
     7
 74
     1
 91
        4
 64
     7
 65
   257
 75
     1
175
     1
 42
1.0
 92
        0
 66
   257
 43
1.0
 76
     1
 77
     6
 78
     2
 67
     7
 79
     5
170
     0
171
     0
290
     0
174
     0
 93
        1
 44
0.0
173
     0
291
     0
 45
0.0
1001
ACAD
1000
AcDbSavedByObjectVersion
1070
     0
  0
VISUALSTYLE
  5
1C
102
{ACAD_REACTORS
330
14
102
}
330
14
100
AcDbVisualStyle
  2
3D Hidden
 70
     6
 71
     1
 72
     2
 73
     2
 90
        0
 40
-0.6
 41
-30.0
 62
     5
 63
     7
 74
     2
 91
        2
 64
     7
 65
   257
 75
     2
175
     1
 42
40.0
 92
        0
 66
   257
 43
1.0
 76
     1
 77
     6
 78
     2
 67
     7
 79
     3
170
     0
171
     0
290
     0
174
     0
 93
        1
 44
0.0
173
     0
291
     0
 45
0.0
1001
ACAD
1000
AcDbSavedByObjectVersion
1070
     0
  0
VISUALSTYLE
  5
1B
102
{ACAD_REACTORS
330
14
102
}
330
14
100
AcDbVisualStyle
  2
3dWireframe
 70
     5
 71
     0
 72
     2
 73
     0
 90
        0
 40
-0.6
 41
-30.0
 62
     5
 63
     7
 74
     1
 91
        4
 64
     7
 65
   257
 75
     1
175
     1
 42
1.0
 92
        0
 66
   257
 43
1.0
 76
     1
 77
     6
 78
     2
 67
     7
 79
     5
170
     0
171
     0
290
     0
174
     0
 93
        1
 44
0.0
173
     0
291
     0
 45
0.0
1001
ACAD
1000
AcDbSavedByObjectVersion
1070
     0
  0
VISUALSTYLE
  5
19
102
{ACAD_REACTORS
330
14
102
}
330
14
100
AcDbVisualStyle
  2
Basic
 70
     7
 71
     1
 72
     0
 73
     1
 90
        0
 40
-0.6
 41
-30.0
 62
     5
 63
     7
 74
     0
 91
        4
 64
     7
 65
   257
 75
     1
175
     1
 42
1.0
 92
        8
 66
     7
 43
1.0
 76
     1
 77
     6
 78
     2
 67
     7
 79
     5
170
     0
171
     0
290
     0
174
     0
 93
        1
 44
0.0
173
     0
291
     1
 45
0.0
1001
ACAD
1000
AcDbSavedByObjectVersion
1070
     0
  0
VISUALSTYLE
  5
20
102
{ACAD_REACTORS
330
14
102
}
330
14
100
AcDbVisualStyle
  2
Brighten
 70
    12
 71
     2
 72
     2
 73
     0
 90
        0
 40
-0.6
 41
-30.0
 62
     5
 63
     7
 74
     1
 91
        4
 64
     7
 65
   257
 75
     1
175
     1
 42
1.0
 92
        8
 66
     7
 43
1.0
 76
     1
 77
     6
 78
     2
 67
     7
 79
     5
170
     0
171
     0
290
     0
174
     0
 93
        1
 44
50.0
173
     0
291
     1
 45
0.0
1001
ACAD
1000
AcDbSavedByObjectVersion
1070
     0
  0
VISUALSTYLE
  5
24
102
{ACAD_REACTORS
330
14
102
}
330
14
100
AcDbVisualStyle
  2
ColorChange
 70
    16
 71
     2
 72
     2
 73
     3
 90
        0
 40
-0.6
 41
-30.0
 62
     5
 63
     8
 74
     1
 91
        4
 64
     7
 65
   257
 75
     1
175
     1
 42
1.0
 92
        8
 66
     8
 43
1.0
 76
     1
 77
     6
 78
     2
 67
     7
 79
     5
170
     0
171
     0
290
     0
174
     0
 93
        1
 44
0.0
173
     0
291
     1
 45
0.0
1001
ACAD
1000
AcDbSavedByObjectVersion
1070
     0
  0
VISUALSTYLE
  5
1D
102
{ACAD_REACTORS
330
14
102
}
330
14
100
AcDbVisualStyle
  2
Conceptual
 70
     9
 71
     3
 72
     2
 73
     0
 90
        0
 40
-0.6
 41
-30.0
 62
     5
 63
     7
 74
     2
 91
        2
 64
     7
 65
   257
 75
     1
175
     1
 42
40.0
 92
        8
 66
     7
 43
1.0
 76
     1
 77
     6
 78
     2
 67
     7
 79
     3
170
     0
171
     0
290
     0
174
     0
 93
        1
 44
0.0
173
     0
291
     0
 45
0.0
1001
ACAD
1000
AcDbSavedByObjectVersion
1070
     0
  0
VISUALSTYLE
  5
1F
102
{ACAD_REACTORS
330
14
102
}
330
14
100
AcDbVisualStyle
  2
Dim
 70
    11
 71
     2
 72
     2
 73
     0
 90
        0
 40
-0.6
 41
-30.0
 62
     5
 63
     7
 74
     1
 91
        4
 64
     7
 65
   257
 75
     1
175
     1
 42
1.0
 92
        8
 66
     7
 43
1.0
 76
     1
 77
     6
 78
     2
 67
     7
 79
     5
170
     0
171
     0
290
     0
174
     0
 93
        1
 44
-50.0
173
     0
291
     1
 45
0.0
1001
ACAD
1000
AcDbSavedByObjectVersion
1070
     0
  0
VISUALSTYLE
  5
23
102
{ACAD_REACTORS
330
14
102
}
330
14
100
AcDbVisualStyle
  2
Facepattern
 70
    15
 71
     2
 72
     2
 73
     0
 90
        0
 40
-0.6
 41
-30.0
 62
     5
 63
     7
 74
     1
 91
        4
 64
     7
 65
   257
 75
     1
175
     1
 42
1.0
 92
        8
 66
     7
 43
1.0
 76
     1
 77
     6
 78
     2
 67
     7
 79
     5
170
     0
171
     0
290
     0
174
     0
 93
        1
 44
0.0
173
     0
291
     1
 45
0.0
1001
ACAD
1000
AcDbSavedByObjectVersion
1070
     0
  0
VISUALSTYLE
  5
15
102
{ACAD_REACTORS
330
14
102
}
330
14
100
AcDbVisualStyle
  2
Flat
 70
     0
 71
     2
 72
     1
 73
     1
 90
        2
 40
-0.6
 41
30.0
 62
     5
 63
     7
 74
     0
 91
        4
 64
     7
 65
   257
 75
     1
175
     1
 42
1.0
 92
        8
 66
     7
 43
1.0
 76
     1
 77
     6
 78
     2
 67
     7
 79
     5
170
     0
171
     0
290
     0
174
     0
 93
       13
 44
0.0
173
     0
291
     1
 45
0.0
1001
ACAD
1000
AcDbSavedByObjectVersion
1070
     0
  0
VISUALSTYLE
  5
16
102
{ACAD_REACTORS
330
14
102
}
330
14
100
AcDbVisualStyle
  2
FlatWithEdges
 70
     1
 71
     2
 72
     1
 73
     1
 90
        2
 40
-0.6
 41
30.0
 62
     5
 63
     7
 74
     1
 91
        4
 64
     7
 65
   257
 75
     1
175
     1
 42
1.0
 92
        0
 66
   257
 43
1.0
 76
     1
 77
     6
 78
     2
 67
     7
 79
     5
170
     0
171
     0
290
     0
174
     0
 93
       13
 44
0.0
173
     0
291
     1
 45
0.0
1001
ACAD
1000
AcDbSavedByObjectVersion
1070
     0
  0
VISUALSTYLE
  5
17
102
{ACAD_REACTORS
330
14
102
}
330
14
100
AcDbVisualStyle
  2
Gouraud
 70
     2
 71
     2
 72
     2
 73
     1
 90
        2
 40
-0.6
 41
30.0
 62
     5
 63
     7
 74
     0
 91
        4
 64
     7
 65
   257
 75
     1
175
     1
 42
1.0
 92
        0
 66
     7
 43
1.0
 76
     1
 77
     6
 78
     2
 67
     7
 79
     5
170
     0
171
     0
290
     0
174
     0
 93
       13
 44
0.0
173
     0
291
     1
 45
0.0
1001
ACAD
1000
AcDbSavedByObjectVersion
1070
     0
  0
VISUALSTYLE
  5
18
102
{ACAD_REACTORS
330
14
102
}
330
14
100
AcDbVisualStyle
  2
GouraudWithEdges
 70
     3
 71
     2
 72
     2
 73
     1
 90
        2
 40
-0.6
 41
30.0
 62
     5
 63
     7
 74
     1
 91
        4
 64
     7
 65
   257
 75
     1
175
     1
 42
1.0
 92
        0
 66
   257
 43
1.0
 76
     1
 77
     6
 78
     2
 67
     7
 79
     5
170
     0
171
     0
290
     0
174
     0
 93
       13
 44
0.0
173
     0
291
     1
 45
0.0
1001
ACAD
1000
AcDbSavedByObjectVersion
1070
     0
  0
VISUALSTYLE
  5
22
102
{ACAD_REACTORS
330
14
102
}
330
14
100
AcDbVisualStyle
  2
Linepattern
 70
    14
 71
     2
 72
     2
 73
     0
 90
        0
 40
-0.6
 41
-30.0
 62
     5
 63
     7
 74
     1
 91
        4
 64
     7
 65
   257
 75
     7
175
     7
 42
1.0
 92
        8
 66
     7
 43
1.0
 76
     1
 77
     6
 78
     2
 67
     7
 79
     5
170
     0
171
     0
290
     0
174
     0
 93
        1
 44
0.0
173
     0
291
     1
 45
0.0
1001
ACAD
1000
AcDbSavedByObjectVersion
1070
     0
  0
VISUALSTYLE
  5
1E
102
{ACAD_REACTORS
330
14
102
}
330
14
100
AcDbVisualStyle
  2
Realistic
 70
     8
 71
     2
 72
     2
 73
     0
 90
        0
 40
-0.6
 41
-30.0
 62
     5
 63
     7
 74
     1
 91
        0
 64
     7
 65
   257
 75
     1
175
     1
 42
1.0
 92
        8
 66
     8
 43
1.0
 76
     1
 77
     6
 78
     2
 67
     7
 79
     5
170
     0
171
     0
290
     0
174
     0
 93
       13
 44
0.0
173
     0
291
     0
 45
0.0
1001
ACAD
1000
AcDbSavedByObjectVersion
1070
     0
  0
VISUALSTYLE
  5
21
102
{ACAD_REACTORS
330
14
102
}
330
14
100
AcDbVisualStyle
  2
Thicken
 70
    13
 71
     2
 72
     2
 73
     0
 90
        0
 40
-0.6
 41
-30.0
 62
     5
 63
     7
 74
     1
 91
        4
 64
     7
 65
   257
 75
     1
175
     1
 42
1.0
 92
       12
 66
     7
 43
1.0
 76
     1
 77
     6
 78
     2
 67
     7
 79
     5
170
     0
171
     0
290
     0
174
     0
 93
        1
 44
0.0
173
     0
291
     1
 45
0.0
1001
ACAD
1000
AcDbSavedByObjectVersion
1070
     0
  0
DICTIONARYVAR
  5
932
102
{ACAD_REACTORS
330
931
102
}
330
931
100
DictionaryVariables
280
     0
  1
STANDARD
  0
DICTIONARYVAR
  5
936
102
{ACAD_REACTORS
330
931
102
}
330
931
100
DictionaryVariables
280
     0
  1
1
  0
DICTIONARYVAR
  5
935
102
{ACAD_REACTORS
330
931
102
}
330
931
100
DictionaryVariables
280
     0
  1
1
  0
DICTIONARYVAR
  5
934
102
{ACAD_REACTORS
330
931
102
}
330
931
100
DictionaryVariables
280
     0
  1
0
  0
DICTIONARYVAR
  5
933
102
{ACAD_REACTORS
330
931
102
}
330
931
100
DictionaryVariables
280
     0
  1
127
  0
DICTIONARY
  5
940
330
36
100
AcDbDictionary
280
     1
281
     1
  3
ACAD_XREC_ROUNDTRIP
360
941
  0
DICTIONARY
  5
944
330
3E
100
AcDbDictionary
280
     1
281
     1
  3
ACAD_XREC_ROUNDTRIP
360
945
  0
DICTIONARY
  5
942
330
3A
100
AcDbDictionary
280
     1
281
     1
  3
ACAD_XREC_ROUNDTRIP
360
943
  0
DICTIONARY
  5
93A
330
12
100
AcDbDictionary
280
     1
281
     1
  3
ACAD_XREC_ROUNDTRIP
360
93B
  0
DICTIONARY
  5
938
330
11
100
AcDbDictionary
280
     1
281
     1
  3
ACAD_XREC_ROUNDTRIP
360
939
  0
DICTIONARY
  5
93C
330
13
100
AcDbDictionary
280
     1
281
     1
  3
ACAD_XREC_ROUNDTRIP
360
93D
  0
DICTIONARY
  5
93E
330
32
100
AcDbDictionary
280
     1
281
     1
  3
ACAD_XREC_ROUNDTRIP
360
93F
  0
XRECORD
  5
941
102
{ACAD_REACTORS
330
940
102
}
330
940
100
AcDbXrecord
280
     1
102
SHADEPLOT
 70
     0
102
SHADEPLOTRESLEVEL
 70
     2
102
SHADEPLOTCUSTOMDPI
 70
   300
  0
XRECORD
  5
945
102
{ACAD_REACTORS
330
944
102
}
330
944
100
AcDbXrecord
280
     1
102
SHADEPLOT
 70
     0
102
SHADEPLOTRESLEVEL
 70
     2
102
SHADEPLOTCUSTOMDPI
 70
   300
  0
XRECORD
  5
943
102
{ACAD_REACTORS
330
942
102
}
330
942
100
AcDbXrecord
280
     1
102
SHADEPLOT
 70
     0
102
SHADEPLOTRESLEVEL
 70
     2
102
SHADEPLOTCUSTOMDPI
 70
   300
  0
XRECORD
  5
93B
102
{ACAD_REACTORS
330
93A
102
}
330
93A
100
AcDbXrecord
280
     1
102
MATERIAL
148
0.0
149
0.0
149
0.0
 93
        0
 94
       63
282
     0
 72
     1
 77
     1
171
     1
175
     1
179
     1
273
     0
  0
XRECORD
  5
939
102
{ACAD_REACTORS
330
938
102
}
330
938
100
AcDbXrecord
280
     1
102
MATERIAL
148
0.0
149
0.0
149
0.0
 93
        0
 94
       63
282
     0
 72
     1
 77
     1
171
     1
175
     1
179
     1
273
     0
  0
XRECORD
  5
93D
102
{ACAD_REACTORS
330
93C
102
}
330
93C
100
AcDbXrecord
280
     1
102
MATERIAL
148
0.0
149
0.0
149
0.0
 93
        0
 94
       63
282
     0
 72
     1
 77
     1
171
     1
175
     1
179
     1
273
     0
  0
XRECORD
  5
93F
102
{ACAD_REACTORS
330
93E
102
}
330
93E
100
AcDbXrecord
280
     1
102
ACAD_ROUNDTRIP_PRE2007_TABLESTYLE
 90
      512
 91
        0
  1

 92
      512
 93
        0
  2

 94
      512
 95
        0
  3

  0
ENDSEC
  0
EOF
